  0
SECTION
  2
HEADER
  9
$ACADVER
  1
AC1015
  9
$ACADMAINTVER
 70
     6
  9
$DWGCODEPAGE
  3
ANSI_1252
  9
$INSBASE
 10
0.0
 20
0.0
 30
0.0
  9
$EXTMIN
 10
0.0
 20
0.0
 30
0.0
  9
$EXTMAX
 10
297.0
 20
210.0
 30
0.0
  9
$LIMMIN
 10
0.0
 20
0.0
  9
$LIMMAX
 10
297.0
 20
210.0
  9
$ORTHOMODE
 70
     0
  9
$REGENMODE
 70
     1
  9
$FILLMODE
 70
     1
  9
$QTEXTMODE
 70
     0
  9
$MIRRTEXT
 70
     1
  9
$LTSCALE
 40
1.0
  9
$ATTMODE
 70
     1
  9
$TEXTSIZE
 40
3.5277777778
  9
$TRACEWID
 40
1.0
  9
$TEXTSTYLE
  7
Standard
  9
$CLAYER
  8
0
  9
$CELTYPE
  6
ByLayer
  9
$CECOLOR
 62
   256
  9
$CELTSCALE
 40
1.0
  9
$DISPSILH
 70
     0
  9
$DIMSCALE
 40
1.0
  9
$DIMASZ
 40
3.302
  9
$DIMEXO
 40
1.0
  9
$DIMDLI
 40
3.75
  9
$DIMRND
 40
0.0
  9
$DIMDLE
 40
0.0
  9
$DIMEXE
 40
1.0
  9
$DIMTP
 40
0.0
  9
$DIMTM
 40
0.0
  9
$DIMTXT
 40
3.5277777778
  9
$DIMCEN
 40
2.5
  9
$DIMTSZ
 40
0.0
  9
$DIMTOL
 70
     0
  9
$DIMLIM
 70
     0
  9
$DIMTIH
 70
     1
  9
$DIMTOH
 70
     1
  9
$DIMSE1
 70
     0
  9
$DIMSE2
 70
     0
  9
$DIMTAD
 70
     1
  9
$DIMZIN
 70
     0
  9
$DIMBLK
  1

  9
$DIMASO
 70
     1
  9
$DIMSHO
 70
     1
  9
$DIMPOST
  1

  9
$DIMAPOST
  1

  9
$DIMALT
 70
     0
  9
$DIMALTD
 70
     3
  9
$DIMALTF
 40
0.0393700787
  9
$DIMLFAC
 40
1.0
  9
$DIMTOFL
 70
     1
  9
$DIMTVP
 40
0.0
  9
$DIMTIX
 70
     0
  9
$DIMSOXD
 70
     0
  9
$DIMSAH
 70
     0
  9
$DIMBLK1
  1

  9
$DIMBLK2
  1

  9
$DIMSTYLE
  2
ISO-25
  9
$DIMCLRD
 70
     0
  9
$DIMCLRE
 70
     0
  9
$DIMCLRT
 70
     0
  9
$DIMTFAC
 40
1.0
  9
$DIMGAP
 40
1.524
  9
$DIMJUST
 70
     0
  9
$DIMSD1
 70
     0
  9
$DIMSD2
 70
     0
  9
$DIMTOLJ
 70
     0
  9
$DIMTZIN
 70
     0
  9
$DIMALTZ
 70
     0
  9
$DIMALTTZ
 70
     0
  9
$DIMUPT
 70
     0
  9
$DIMDEC
 70
     2
  9
$DIMTDEC
 70
     2
  9
$DIMALTU
 70
     2
  9
$DIMALTTD
 70
     3
  9
$DIMTXSTY
  7
Standard
  9
$DIMAUNIT
 70
     0
  9
$DIMADEC
 70
     2
  9
$DIMALTRND
 40
0.0
  9
$DIMAZIN
 70
     0
  9
$DIMDSEP
 70
    44
  9
$DIMATFIT
 70
     3
  9
$DIMFRAC
 70
     0
  9
$DIMLDRBLK
  1

  9
$DIMLUNIT
 70
     2
  9
$DIMLWD
 70
    -2
  9
$DIMLWE
 70
    -2
  9
$DIMTMOVE
 70
     0
  9
$LUNITS
 70
     2
  9
$LUPREC
 70
     2
  9
$SKETCHINC
 40
1.0
  9
$FILLETRAD
 40
10.0
  9
$AUNITS
 70
     1
  9
$AUPREC
 70
     2
  9
$MENU
  1
.
  9
$ELEVATION
 40
0.0
  9
$PELEVATION
 40
0.0
  9
$THICKNESS
 40
0.0
  9
$LIMCHECK
 70
     0
  9
$CHAMFERA
 40
0.0
  9
$CHAMFERB
 40
0.0
  9
$CHAMFERC
 40
0.0
  9
$CHAMFERD
 40
0.0
  9
$SKPOLY
 70
     0
  9
$TDCREATE
 40
2458629.428985289
  9
$TDUCREATE
 40
2458629.199818623
  9
$TDUPDATE
 40
2458629.428986215
  9
$TDUUPDATE
 40
2458629.199819549
  9
$TDINDWG
 40
0.0000000116
  9
$TDUSRTIMER
 40
0.0000000116
  9
$USRTIMER
 70
     1
  9
$ANGBASE
 50
0.0
  9
$ANGDIR
 70
     0
  9
$PDMODE
 70
     0
  9
$PDSIZE
 40
-1.0
  9
$PLINEWID
 40
0.0
  9
$SPLFRAME
 70
     0
  9
$SPLINETYPE
 70
     6
  9
$SPLINESEGS
 70
     8
  9
$HANDSEED
  5
197
  9
$SURFTAB1
 70
     6
  9
$SURFTAB2
 70
     6
  9
$SURFTYPE
 70
     6
  9
$SURFU
 70
     6
  9
$SURFV
 70
     6
  9
$UCSBASE
  2

  9
$UCSNAME
  2

  9
$UCSORG
 10
0.0
 20
0.0
 30
0.0
  9
$UCSXDIR
 10
1.0
 20
0.0
 30
0.0
  9
$UCSYDIR
 10
0.0
 20
1.0
 30
0.0
  9
$UCSORTHOREF
  2

  9
$UCSORTHOVIEW
 70
     0
  9
$UCSORGTOP
 10
0.0
 20
0.0
 30
0.0
  9
$UCSORGBOTTOM
 10
0.0
 20
0.0
 30
0.0
  9
$UCSORGLEFT
 10
0.0
 20
0.0
 30
0.0
  9
$UCSORGRIGHT
 10
0.0
 20
0.0
 30
0.0
  9
$UCSORGFRONT
 10
0.0
 20
0.0
 30
0.0
  9
$UCSORGBACK
 10
0.0
 20
0.0
 30
0.0
  9
$PUCSBASE
  2

  9
$PUCSNAME
  2

  9
$PUCSORG
 10
0.0
 20
0.0
 30
0.0
  9
$PUCSXDIR
 10
1.0
 20
0.0
 30
0.0
  9
$PUCSYDIR
 10
0.0
 20
1.0
 30
0.0
  9
$PUCSORTHOREF
  2

  9
$PUCSORTHOVIEW
 70
     0
  9
$PUCSORGTOP
 10
0.0
 20
0.0
 30
0.0
  9
$PUCSORGBOTTOM
 10
0.0
 20
0.0
 30
0.0
  9
$PUCSORGLEFT
 10
0.0
 20
0.0
 30
0.0
  9
$PUCSORGRIGHT
 10
0.0
 20
0.0
 30
0.0
  9
$PUCSORGFRONT
 10
0.0
 20
0.0
 30
0.0
  9
$PUCSORGBACK
 10
0.0
 20
0.0
 30
0.0
  9
$USERI1
 70
     0
  9
$USERI2
 70
     0
  9
$USERI3
 70
     0
  9
$USERI4
 70
     0
  9
$USERI5
 70
     0
  9
$USERR1
 40
0.0
  9
$USERR2
 40
0.0
  9
$USERR3
 40
0.0
  9
$USERR4
 40
0.0
  9
$USERR5
 40
0.0
  9
$WORLDVIEW
 70
     1
  9
$SHADEDGE
 70
     3
  9
$SHADEDIF
 70
    70
  9
$TILEMODE
 70
     1
  9
$MAXACTVP
 70
    64
  9
$PINSBASE
 10
0.0
 20
0.0
 30
0.0
  9
$PLIMCHECK
 70
     0
  9
$PEXTMIN
 10
1.0000000000E+20
 20
1.0000000000E+20
 30
1.0000000000E+20
  9
$PEXTMAX
 10
-1.0000000000E+20
 20
-1.0000000000E+20
 30
-1.0000000000E+20
  9
$PLIMMIN
 10
0.0
 20
0.0
  9
$PLIMMAX
 10
420.0
 20
297.0
  9
$UNITMODE
 70
     0
  9
$VISRETAIN
 70
     1
  9
$PLINEGEN
 70
     0
  9
$PSLTSCALE
 70
     1
  9
$TREEDEPTH
 70
  3020
  9
$CMLSTYLE
  2
Standard
  9
$CMLJUST
 70
     0
  9
$CMLSCALE
 40
20.0
  9
$PROXYGRAPHICS
 70
     1
  9
$MEASUREMENT
 70
     1
  9
$CELWEIGHT
370
    -1
  9
$ENDCAPS
280
     0
  9
$JOINSTYLE
280
     0
  9
$LWDISPLAY
290
     1
  9
$INSUNITS
 70
     4
  9
$HYPERLINKBASE
  1

  9
$STYLESHEET
  1

  9
$XEDIT
290
     1
  9
$CEPSNTYPE
380
     0
  9
$PSTYLEMODE
290
     1
  9
$FINGERPRINTGUID
  2
{2BC29E06-4BE6-46D1-8A0B-829A4DA5B1C7}
  9
$VERSIONGUID
  2
{FAEB1C32-E019-11D5-929B-00C0DF256EC4}
  9
$EXTNAMES
290
     1
  9
$PSVPSCALE
 40
0.0
  9
$OLESTARTUP
290
     0
  0
ENDSEC
  0
SECTION
  2
CLASSES
  0
CLASS
  1
ACDBDICTIONARYWDFLT
  2
AcDbDictionaryWithDefault
  3
ObjectDBX Classes
 90
        0
280
     0
281
     0
  0
CLASS
  1
VISUALSTYLE
  2
AcDbVisualStyle
  3
ObjectDBX Classes
 90
     4095
280
     0
281
     0
  0
CLASS
  1
MATERIAL
  2
AcDbMaterial
  3
ObjectDBX Classes
 90
     1153
280
     0
281
     0
  0
CLASS
  1
SCALE
  2
AcDbScale
  3
ObjectDBX Classes
 90
     1153
280
     0
281
     0
  0
CLASS
  1
SUN
  2
AcDbSun
  3
SCENEOE
 90
     1153
280
     0
281
     0
  0
CLASS
  1
ACDBPLACEHOLDER
  2
AcDbPlaceHolder
  3
ObjectDBX Classes
 90
        0
280
     0
281
     0
  0
CLASS
  1
LAYOUT
  2
AcDbLayout
  3
ObjectDBX Classes
 90
        0
280
     0
281
     0
  0
ENDSEC
  0
SECTION
  2
TABLES
  0
TABLE
  2
VPORT
  5
8
330
0
100
AcDbSymbolTable
 70
     1
  0
VPORT
  5
29
330
8
100
AcDbSymbolTableRecord
100
AcDbViewportTableRecord
  2
*Active
 70
     0
 10
0.0
 20
0.0
 11
1.0
 21
1.0
 12
148.5
 22
105.0
 13
0.0
 23
0.0
 14
10.0
 24
10.0
 15
10.0
 25
10.0
 16
0.0
 26
0.0
 36
1.0
 17
0.0
 27
0.0
 37
0.0
 40
210.0
 41
1.4142857143
 42
50.0
 43
0.0
 44
0.0
 50
0.0
 51
0.0
 71
     0
 72
  2000
 73
     1
 74
     3
 75
     0
 76
     0
 77
     0
 78
     0
281
     0
 65
     1
110
0.0
120
0.0
130
0.0
111
1.0
121
0.0
131
0.0
112
0.0
122
1.0
132
0.0
 79
     0
146
0.0
  0
ENDTAB
  0
TABLE
  2
LTYPE
  5
5
330
0
100
AcDbSymbolTable
 70
     6
  0
LTYPE
  5
14
330
5
100
AcDbSymbolTableRecord
100
AcDbLinetypeTableRecord
  2
ByBlock
 70
     0
  3

 72
    65
 73
     0
 40
0.0
  0
LTYPE
  5
15
330
5
100
AcDbSymbolTableRecord
100
AcDbLinetypeTableRecord
  2
ByLayer
 70
     0
  3

 72
    65
 73
     0
 40
0.0
  0
LTYPE
  5
16
330
5
100
AcDbSymbolTableRecord
100
AcDbLinetypeTableRecord
  2
Continuous
 70
     0
  3
Solid line
 72
    65
 73
     0
 40
0.0
  0
LTYPE
  5
6A
330
5
100
AcDbSymbolTableRecord
100
AcDbLinetypeTableRecord
  2
HIDDEN
 70
     0
  3
Hidden __ __ __ __ __ __ __ __ __ __ __ __ __ __
 72
    65
 73
     2
 40
1.905
 49
1.27
 74
     0
 49
-0.635
 74
     0
  0
LTYPE
  5
6B
330
5
100
AcDbSymbolTableRecord
100
AcDbLinetypeTableRecord
  2
PHANTOM
 70
     0
  3
Phantom ______  __  __  ______  __  __  ______
 72
    65
 73
     6
 40
12.7
 49
6.35
 74
     0
 49
-1.27
 74
     0
 49
1.27
 74
     0
 49
-1.27
 74
     0
 49
1.27
 74
     0
 49
-1.27
 74
     0
  0
LTYPE
  5
6C
330
5
100
AcDbSymbolTableRecord
100
AcDbLinetypeTableRecord
  2
CENTER
 70
     0
  3
Center ____ _ ____ _ ____ _ ____ _ ____ _ ____
 72
    65
 73
     4
 40
10.16
 49
6.35
 74
     0
 49
-1.27
 74
     0
 49
1.27
 74
     0
 49
-1.27
 74
     0
  0
LTYPE
  5
6D
330
5
100
AcDbSymbolTableRecord
100
AcDbLinetypeTableRecord
  2
CENTERX2
 70
     0
  3
Center (2x) ________  __  ________  __  _____
 72
    65
 73
     4
 40
20.32
 49
12.7
 74
     0
 49
-2.54
 74
     0
 49
2.54
 74
     0
 49
-2.54
 74
     0
  0
LTYPE
  5
6E
330
5
100
AcDbSymbolTableRecord
100
AcDbLinetypeTableRecord
  2
DOT2
 70
     0
  3
Dot (.5x) ........................................
 72
    65
 73
     2
 40
0.635
 49
0.0
 74
     0
 49
-0.635
 74
     0
  0
ENDTAB
  0
TABLE
  2
LAYER
  5
2
330
0
100
AcDbSymbolTable
 70
     8
  0
LAYER
  5
10
330
2
100
AcDbSymbolTableRecord
100
AcDbLayerTableRecord
  2
0
 70
     0
 62
     7
  6
Continuous
370
    -3
390
F
  0
LAYER
  5
6F
330
2
100
AcDbSymbolTableRecord
100
AcDbLayerTableRecord
  2
FORMAT
 70
     0
 62
     7
  6
Continuous
370
    -3
390
F
  0
LAYER
  5
70
330
2
100
AcDbSymbolTableRecord
100
AcDbLayerTableRecord
  2
SLD-0
 70
     0
 62
     2
  6
Continuous
370
    -3
390
F
  0
LAYER
  5
71
330
2
100
AcDbSymbolTableRecord
100
AcDbLayerTableRecord
  2
DIM
 70
     0
 62
   179
  6
Continuous
370
    -3
390
F
  0
LAYER
  5
72
330
2
100
AcDbSymbolTableRecord
100
AcDbLayerTableRecord
  2
SLD-DEFPOINTS
 70
     0
 62
   179
  6
Continuous
370
    -3
390
F
  0
LAYER
  5
73
330
2
100
AcDbSymbolTableRecord
100
AcDbLayerTableRecord
  2
HAT
 70
     0
 62
   135
  6
Continuous
370
    -3
390
F
  0
LAYER
  5
74
330
2
100
AcDbSymbolTableRecord
100
AcDbLayerTableRecord
  2
JOB
 70
     0
 62
   201
  6
Continuous
370
    -3
390
F
  0
LAYER
  5
75
330
2
100
AcDbSymbolTableRecord
100
AcDbLayerTableRecord
  2
INSPECTION_REPORT
 70
     0
 62
   255
  6
Continuous
370
    -3
390
F
  0
ENDTAB
  0
TABLE
  2
STYLE
  5
3
330
0
100
AcDbSymbolTable
 70
     5
  0
STYLE
  5
11
330
3
100
AcDbSymbolTableRecord
100
AcDbTextStyleTableRecord
  2
Standard
 70
     0
 40
0.0
 41
1.0
 50
0.0
 71
     0
 42
3.5277777778
  3
txt
  4

  0
STYLE
  5
96
330
3
100
AcDbSymbolTableRecord
100
AcDbTextStyleTableRecord
  2
SLDTEXTSTYLE0
 70
     0
 40
0.0
 41
0.75
 50
0.0
 71
     0
 42
3.5277777778
  3
TXT
  4

  0
STYLE
  5
A9
330
3
100
AcDbSymbolTableRecord
100
AcDbTextStyleTableRecord
  2
SLDTEXTSTYLE1
 70
     0
 40
0.0
 41
0.6875
 50
0.0
 71
     0
 42
3.5277777778
  3
TXT
  4

  0
STYLE
  5
15D
330
3
100
AcDbSymbolTableRecord
100
AcDbTextStyleTableRecord
  2
SLDTEXTSTYLE2
 70
     0
 40
0.0
 41
0.7
 50
0.0
 71
     0
 42
3.5277777778
  3
TXT
  4

  0
STYLE
  5
194
330
3
100
AcDbSymbolTableRecord
100
AcDbTextStyleTableRecord
  2
SLDTEXTSTYLE3
 70
     0
 40
0.0
 41
0.605
 50
0.0
 71
     0
 42
3.5277777778
  3
TXT
  4

  0
ENDTAB
  0
TABLE
  2
VIEW
  5
6
330
0
100
AcDbSymbolTable
 70
     0
  0
ENDTAB
  0
TABLE
  2
UCS
  5
7
330
0
100
AcDbSymbolTable
 70
     0
  0
ENDTAB
  0
TABLE
  2
APPID
  5
9
330
0
100
AcDbSymbolTable
 70
     1
  0
APPID
  5
12
330
9
100
AcDbSymbolTableRecord
100
AcDbRegAppTableRecord
  2
ACAD
 70
     0
  0
ENDTAB
  0
TABLE
  2
DIMSTYLE
  5
A
330
0
100
AcDbSymbolTable
 70
     3
100
AcDbDimStyleTable
  0
DIMSTYLE
105
27
330
A
100
AcDbSymbolTableRecord
100
AcDbDimStyleTableRecord
  2
ISO-25
 70
     0
 41
2.5
 42
0.625
 43
3.75
 44
1.25
 73
     0
 74
     0
 77
     1
 78
     8
140
2.5
141
2.5
143
0.0393700787
147
0.625
171
     3
172
     1
178
     0
271
     2
272
     2
274
     3
278
    44
283
     0
284
     8
340
11
  0
DIMSTYLE
105
15E
102
{ACAD_REACTORS
330
15C
330
169
330
174
330
17F
102
}
330
A
100
AcDbSymbolTableRecord
100
AcDbDimStyleTableRecord
  2
SLDDIMSTYLE0
 70
     0
 41
3.302
 44
0.0
 45
0.000000001
 73
     0
 74
     0
 77
     1
 78
    12
 79
     3
140
2.9104166667
147
0.7276041667
173
     1
178
     0
271
     2
272
     2
276
     2
284
    12
340
15D
  0
DIMSTYLE
105
18A
102
{ACAD_REACTORS
330
189
102
}
330
A
100
AcDbSymbolTableRecord
100
AcDbDimStyleTableRecord
  2
SLDDIMSTYLE1
 70
     0
 41
3.302
 44
0.0
 45
0.000000001
 73
     0
 74
     0
 77
     1
 78
     4
 79
     1
140
2.9104166667
147
0.7276041667
173
     1
178
     0
271
     2
272
     2
276
     2
284
    12
340
15D
  0
ENDTAB
  0
TABLE
  2
BLOCK_RECORD
  5
1
330
0
100
AcDbSymbolTable
 70
     6
  0
BLOCK_RECORD
  5
1F
330
1
100
AcDbSymbolTableRecord
100
AcDbBlockTableRecord
  2
*Model_Space
340
22
  0
BLOCK_RECORD
  5
1B
330
1
100
AcDbSymbolTableRecord
100
AcDbBlockTableRecord
  2
*Paper_Space
340
1E
  0
BLOCK_RECORD
  5
23
330
1
100
AcDbSymbolTableRecord
100
AcDbBlockTableRecord
  2
*Paper_Space0
340
26
  0
BLOCK_RECORD
  5
15F
330
1
100
AcDbSymbolTableRecord
100
AcDbBlockTableRecord
  2
_D
340
0
  0
BLOCK_RECORD
  5
16A
330
1
100
AcDbSymbolTableRecord
100
AcDbBlockTableRecord
  2
_D_1
340
0
  0
BLOCK_RECORD
  5
175
330
1
100
AcDbSymbolTableRecord
100
AcDbBlockTableRecord
  2
_D_2
340
0
  0
BLOCK_RECORD
  5
180
330
1
100
AcDbSymbolTableRecord
100
AcDbBlockTableRecord
  2
_D_3
340
0
  0
BLOCK_RECORD
  5
18B
330
1
100
AcDbSymbolTableRecord
100
AcDbBlockTableRecord
  2
_D_4
340
0
  0
ENDTAB
  0
ENDSEC
  0
SECTION
  2
BLOCKS
  0
BLOCK
  5
20
330
1F
100
AcDbEntity
  8
0
100
AcDbBlockBegin
  2
*Model_Space
 70
     0
 10
0.0
 20
0.0
 30
0.0
  3
*Model_Space
  1
*Model_Space
  0
ENDBLK
  5
21
330
1F
100
AcDbEntity
  8
0
100
AcDbBlockEnd
  0
BLOCK
  5
1C
330
1B
100
AcDbEntity
 67
     1
  8
0
100
AcDbBlockBegin
  2
*Paper_Space
 70
     0
 10
0.0
 20
0.0
 30
0.0
  3
*Paper_Space
  1
*Paper_Space
  0
ENDBLK
  5
1D
330
1B
100
AcDbEntity
 67
     1
  8
0
100
AcDbBlockEnd
  0
BLOCK
  5
24
330
23
100
AcDbEntity
  8
0
100
AcDbBlockBegin
  2
*Paper_Space0
 70
     0
 10
0.0
 20
0.0
 30
0.0
  3
*Paper_Space0
  1
*Paper_Space0
  0
ENDBLK
  5
25
330
23
100
AcDbEntity
  8
0
100
AcDbBlockEnd
  0
BLOCK
  5
160
330
15F
100
AcDbEntity
  8
0
100
AcDbBlockBegin
  2
_D
 70
     0
 10
0.0
 20
0.0
 30
0.0
  3
_D
  1
_D
  0
SOLID
  5
162
330
15F
100
AcDbEntity
  8
DIM
100
AcDbTrace
 10
221.3685909225
 20
100.3902385796
 30
0.0
 11
221.8765909225
 21
103.6922385796
 31
0.0
 12
220.8605909225
 22
103.6922385796
 32
0.0
 13
220.8605909225
 23
103.6922385796
 33
0.0
  0
SOLID
  5
163
330
15F
100
AcDbEntity
  8
DIM
100
AcDbTrace
 10
221.3685909225
 20
134.3902385796
 30
0.0
 11
220.8605909225
 21
131.0882385796
 31
0.0
 12
221.8765909225
 22
131.0882385796
 32
0.0
 13
221.8765909225
 23
131.0882385796
 33
0.0
  0
LINE
  5
164
330
15F
100
AcDbEntity
  8
DIM
100
AcDbLine
 10
186.3622373059
 20
100.3902385796
 30
0.0
 11
222.3685909225
 21
100.3902385796
 31
0.0
  0
LINE
  5
165
330
15F
100
AcDbEntity
  8
DIM
100
AcDbLine
 10
186.3622373059
 20
134.3902385796
 30
0.0
 11
222.3685909225
 21
134.3902385796
 31
0.0
  0
LINE
  5
166
330
15F
100
AcDbEntity
  8
DIM
100
AcDbLine
 10
221.3685909225
 20
100.3902385796
 30
0.0
 11
221.3685909225
 21
134.3902385796
 31
0.0
  0
MTEXT
  5
167
330
15F
100
AcDbEntity
  8
DIM
100
AcDbMText
 10
217.6168664554
 20
113.1726944747
 30
0.0
 40
2.9104166667
 41
0.0
 71
     1
 72
     1
  1
%%c
  7
SLDTEXTSTYLE2
 11
6.123233995736766E-17
 21
1.0
 31
0.0
 73
     1
 44
1.0
  0
MTEXT
  5
168
330
15F
100
AcDbEntity
  8
DIM
100
AcDbMText
 10
217.6168664554
 20
117.6733303743
 30
0.0
 40
2.9104166667
 41
0.0
 71
     1
 72
     1
  1
34
  7
SLDTEXTSTYLE2
 11
6.123233995736766E-17
 21
1.0
 31
0.0
 73
     1
 44
1.0
  0
ENDBLK
  5
161
330
15F
100
AcDbEntity
  8
0
100
AcDbBlockEnd
  0
BLOCK
  5
16B
330
16A
100
AcDbEntity
  8
0
100
AcDbBlockBegin
  2
_D_1
 70
     0
 10
0.0
 20
0.0
 30
0.0
  3
_D_1
  1
_D_1
  0
SOLID
  5
16D
330
16A
100
AcDbEntity
  8
DIM
100
AcDbTrace
 10
59.2429788737
 20
148.8902385796
 30
0.0
 11
58.7349788737
 21
145.5882385796
 31
0.0
 12
59.7509788737
 22
145.5882385796
 32
0.0
 13
59.7509788737
 23
145.5882385796
 33
0.0
  0
SOLID
  5
16E
330
16A
100
AcDbEntity
  8
DIM
100
AcDbTrace
 10
59.2429788737
 20
85.8902385796
 30
0.0
 11
59.7509788737
 21
89.1922385796
 31
0.0
 12
58.7349788737
 22
89.1922385796
 32
0.0
 13
58.7349788737
 23
89.1922385796
 33
0.0
  0
LINE
  5
16F
330
16A
100
AcDbEntity
  8
DIM
100
AcDbLine
 10
131.7279227309
 20
148.8902385796
 30
0.0
 11
58.2429788737
 21
148.8902385796
 31
0.0
  0
LINE
  5
170
330
16A
100
AcDbEntity
  8
DIM
100
AcDbLine
 10
131.7279227309
 20
85.8902385796
 30
0.0
 11
58.2429788737
 21
85.8902385796
 31
0.0
  0
LINE
  5
171
330
16A
100
AcDbEntity
  8
DIM
100
AcDbLine
 10
59.2429788737
 20
148.8902385796
 30
0.0
 11
59.2429788737
 21
85.8902385796
 31
0.0
  0
MTEXT
  5
172
330
16A
100
AcDbEntity
  8
DIM
100
AcDbMText
 10
55.4912544066
 20
113.1726944747
 30
0.0
 40
2.9104166667
 41
0.0
 71
     1
 72
     1
  1
%%c
  7
SLDTEXTSTYLE2
 11
-7.044195017643634E-15
 21
1.0
 31
0.0
 73
     1
 44
1.0
  0
MTEXT
  5
173
330
16A
100
AcDbEntity
  8
DIM
100
AcDbMText
 10
55.4912544066
 20
117.6733303743
 30
0.0
 40
2.9104166667
 41
0.0
 71
     1
 72
     1
  1
63
  7
SLDTEXTSTYLE2
 11
-7.044195017643634E-15
 21
1.0
 31
0.0
 73
     1
 44
1.0
  0
ENDBLK
  5
16C
330
16A
100
AcDbEntity
  8
0
100
AcDbBlockEnd
  0
BLOCK
  5
176
330
175
100
AcDbEntity
  8
0
100
AcDbBlockBegin
  2
_D_2
 70
     0
 10
0.0
 20
0.0
 30
0.0
  3
_D_2
  1
_D_2
  0
SOLID
  5
178
330
175
100
AcDbEntity
  8
DIM
100
AcDbTrace
 10
226.5268701358
 20
134.8902385796
 30
0.0
 11
226.0188701358
 21
131.5882385796
 31
0.0
 12
227.0348701358
 22
131.5882385796
 32
0.0
 13
227.0348701358
 23
131.5882385796
 33
0.0
  0
SOLID
  5
179
330
175
100
AcDbEntity
  8
DIM
100
AcDbTrace
 10
226.5268701358
 20
99.8902385796
 30
0.0
 11
227.0348701358
 21
103.1922385796
 31
0.0
 12
226.0188701358
 22
103.1922385796
 32
0.0
 13
226.0188701358
 23
103.1922385796
 33
0.0
  0
LINE
  5
17A
330
175
100
AcDbEntity
  8
DIM
100
AcDbLine
 10
212.6776226351
 20
134.8902385796
 30
0.0
 11
227.5268701358
 21
134.8902385796
 31
0.0
  0
LINE
  5
17B
330
175
100
AcDbEntity
  8
DIM
100
AcDbLine
 10
212.6776226351
 20
99.8902385796
 30
0.0
 11
227.5268701358
 21
99.8902385796
 31
0.0
  0
LINE
  5
17C
330
175
100
AcDbEntity
  8
DIM
100
AcDbLine
 10
226.5268701358
 20
134.8902385796
 30
0.0
 11
226.5268701358
 21
99.8902385796
 31
0.0
  0
MTEXT
  5
17D
330
175
100
AcDbEntity
  8
DIM
100
AcDbMText
 10
222.7751456686
 20
113.1726944747
 30
0.0
 40
2.9104166667
 41
0.0
 71
     1
 72
     1
  1
%%c
  7
SLDTEXTSTYLE2
 11
-7.044195017643634E-15
 21
1.0
 31
0.0
 73
     1
 44
1.0
  0
MTEXT
  5
17E
330
175
100
AcDbEntity
  8
DIM
100
AcDbMText
 10
222.7751456686
 20
117.6733303743
 30
0.0
 40
2.9104166667
 41
0.0
 71
     1
 72
     1
  1
35
  7
SLDTEXTSTYLE2
 11
-7.044195017643634E-15
 21
1.0
 31
0.0
 73
     1
 44
1.0
  0
ENDBLK
  5
177
330
175
100
AcDbEntity
  8
0
100
AcDbBlockEnd
  0
BLOCK
  5
181
330
180
100
AcDbEntity
  8
0
100
AcDbBlockBegin
  2
_D_3
 70
     0
 10
0.0
 20
0.0
 30
0.0
  3
_D_3
  1
_D_3
  0
SOLID
  5
183
330
180
100
AcDbEntity
  8
DIM
100
AcDbTrace
 10
214.5643739811
 20
77.7234185241
 30
0.0
 11
211.2623739811
 21
78.2314185241
 31
0.0
 12
211.2623739811
 22
77.2154185241
 32
0.0
 13
211.2623739811
 23
77.2154185241
 33
0.0
  0
SOLID
  5
184
330
180
100
AcDbEntity
  8
DIM
100
AcDbTrace
 10
129.5622373059
 20
77.7234185241
 30
0.0
 11
132.8642373059
 21
77.2154185241
 31
0.0
 12
132.8642373059
 22
78.2314185241
 32
0.0
 13
132.8642373059
 23
78.2314185241
 33
0.0
  0
LINE
  5
185
330
180
100
AcDbEntity
  8
DIM
100
AcDbLine
 10
214.5643739811
 20
103.8902385796
 30
0.0
 11
214.5643739811
 21
76.7234185241
 31
0.0
  0
LINE
  5
186
330
180
100
AcDbEntity
  8
DIM
100
AcDbLine
 10
129.5622373059
 20
94.1652385796
 30
0.0
 11
129.5622373059
 21
76.7234185241
 31
0.0
  0
LINE
  5
187
330
180
100
AcDbEntity
  8
DIM
100
AcDbLine
 10
214.5643739811
 20
77.7234185241
 30
0.0
 11
129.5622373059
 21
77.7234185241
 31
0.0
  0
MTEXT
  5
188
330
180
100
AcDbEntity
  8
DIM
100
AcDbMText
 10
170.0960794884
 20
81.4751429913
 30
0.0
 40
2.9104166667
 41
0.0
 71
     1
 72
     1
  1
85
  7
SLDTEXTSTYLE2
 73
     1
 44
1.0
  0
ENDBLK
  5
182
330
180
100
AcDbEntity
  8
0
100
AcDbBlockEnd
  0
BLOCK
  5
18C
330
18B
100
AcDbEntity
  8
0
100
AcDbBlockBegin
  2
_D_4
 70
     0
 10
0.0
 20
0.0
 30
0.0
  3
_D_4
  1
_D_4
  0
SOLID
  5
18E
330
18B
100
AcDbEntity
  8
DIM
100
AcDbTrace
 10
214.5643739811
 20
69.8902135796
 30
0.0
 11
211.2623739811
 21
70.3982135796
 31
0.0
 12
211.2623739811
 22
69.3822135796
 32
0.0
 13
211.2623739811
 23
69.3822135796
 33
0.0
  0
SOLID
  5
18F
330
18B
100
AcDbEntity
  8
DIM
100
AcDbTrace
 10
64.1622373061
 20
69.8902135796
 30
0.0
 11
67.4642373061
 21
69.3822135796
 31
0.0
 12
67.4642373061
 22
70.3982135796
 32
0.0
 13
67.4642373061
 23
70.3982135796
 33
0.0
  0
LINE
  5
190
330
18B
100
AcDbEntity
  8
DIM
100
AcDbLine
 10
214.5643739811
 20
103.8902385796
 30
0.0
 11
214.5643739811
 21
68.8902135796
 31
0.0
  0
LINE
  5
191
330
18B
100
AcDbEntity
  8
DIM
100
AcDbLine
 10
64.1622373061
 20
116.3902385796
 30
0.0
 11
64.1622373061
 21
68.8902135796
 31
0.0
  0
LINE
  5
192
330
18B
100
AcDbEntity
  8
DIM
100
AcDbLine
 10
214.5643739811
 20
69.8902135796
 30
0.0
 11
64.1622373061
 21
69.8902135796
 31
0.0
  0
MTEXT
  5
193
330
18B
100
AcDbEntity
  8
DIM
100
AcDbMText
 10
133.9278328236
 20
73.6419380467
 30
0.0
 40
2.9104166667
 41
0.0
 71
     1
 72
     1
  1
150.40
  7
SLDTEXTSTYLE2
 73
     1
 44
1.0
  0
ENDBLK
  5
18D
330
18B
100
AcDbEntity
  8
0
100
AcDbBlockEnd
  0
ENDSEC
  0
SECTION
  2
ENTITIES
  0
LINE
  5
76
330
1F
100
AcDbEntity
  8
DIM
100
AcDbLine
 10
104.704424689
 20
9.7909914569
 30
0.0
 11
104.704424689
 21
4.7909914569
 31
0.0
  0
LINE
  5
77
330
1F
100
AcDbEntity
  8
DIM
100
AcDbLine
 10
254.4696016953
 20
9.7909914569
 30
0.0
 11
254.4696016953
 21
4.7909914569
 31
0.0
  0
LINE
  5
78
330
1F
100
AcDbEntity
  8
DIM
100
AcDbLine
 10
237.4517099316
 20
9.7909914569
 30
0.0
 11
237.4517099316
 21
4.7909914569
 31
0.0
  0
LINE
  5
79
330
1F
100
AcDbEntity
  8
DIM
100
AcDbLine
 10
278.904424689
 20
4.7909914569
 30
0.0
 11
278.904424689
 21
9.7909914569
 31
0.0
  0
LINE
  5
7A
330
1F
100
AcDbEntity
  8
DIM
100
AcDbLine
 10
112.504424689
 20
9.7909914569
 30
0.0
 11
112.504424689
 21
4.7909914569
 31
0.0
  0
LINE
  5
7B
330
1F
100
AcDbEntity
  8
DIM
100
AcDbLine
 10
131.6953771228
 20
9.7909914569
 30
0.0
 11
131.6953771228
 21
4.7909914569
 31
0.0
  0
LINE
  5
7C
330
1F
100
AcDbEntity
  8
DIM
100
AcDbLine
 10
291.904424689
 20
4.7909914569
 30
0.0
 11
291.904424689
 21
77.0409914569
 31
0.0
  0
LINE
  5
7D
330
1F
100
AcDbEntity
  8
DIM
100
AcDbLine
 10
285.8190046947
 20
60.0409914569
 30
0.0
 11
291.904424689
 21
60.0409914569
 31
0.0
  0
LINE
  5
7E
330
1F
100
AcDbEntity
  8
DIM
100
AcDbLine
 10
149.1033508525
 20
9.0409914569
 30
0.0
 11
149.1033508525
 21
4.7909914569
 31
0.0
  0
LINE
  5
7F
330
1F
100
AcDbEntity
  8
DIM
100
AcDbLine
 10
196.7639491604
 20
9.7909914569
 30
0.0
 11
196.7639491604
 21
4.7909914569
 31
0.0
  0
LINE
  5
80
330
1F
100
AcDbEntity
  8
DIM
100
AcDbLine
 10
149.1033508525
 20
9.7909914569
 30
0.0
 11
149.1033508525
 21
9.0409914569
 31
0.0
  0
LINE
  5
81
330
1F
100
AcDbEntity
  8
DIM
100
AcDbLine
 10
286.904424689
 20
17.5409194569
 30
0.0
 11
291.904424689
 21
17.5409194569
 31
0.0
  0
LINE
  5
82
330
1F
100
AcDbEntity
  8
DIM
100
AcDbLine
 10
286.904424689
 20
199.7909914569
 30
0.0
 11
9.904424689
 21
199.7909914569
 31
0.0
  0
LINE
  5
83
330
1F
100
AcDbEntity
  8
DIM
100
AcDbLine
 10
291.904424689
 20
204.7909914569
 30
0.0
 11
4.904424689
 21
204.7909914569
 31
0.0
  0
LINE
  5
84
330
1F
100
AcDbEntity
  8
DIM
100
AcDbLine
 10
9.904424689
 20
199.7909914569
 30
0.0
 11
9.904424689
 21
9.7909914569
 31
0.0
  0
LINE
  5
85
330
1F
100
AcDbEntity
  8
DIM
100
AcDbLine
 10
4.904424689
 20
204.7909914569
 30
0.0
 11
4.904424689
 21
4.7909914569
 31
0.0
  0
LINE
  5
86
330
1F
100
AcDbEntity
  8
DIM
100
AcDbLine
 10
9.904424689
 20
54.7909914569
 30
0.0
 11
4.904424689
 21
54.7909914569
 31
0.0
  0
LINE
  5
87
330
1F
100
AcDbEntity
  8
DIM
100
AcDbLine
 10
4.904424689
 20
104.7909914569
 30
0.0
 11
9.904424689
 21
104.7909914569
 31
0.0
  0
LINE
  5
88
330
1F
100
AcDbEntity
  8
DIM
100
AcDbLine
 10
4.904424689
 20
4.7909914569
 30
0.0
 11
291.904424689
 21
4.7909914569
 31
0.0
  0
LINE
  5
89
330
1F
100
AcDbEntity
  8
DIM
100
AcDbLine
 10
9.904424689
 20
9.7909914569
 30
0.0
 11
291.904424689
 21
9.7909914569
 31
0.0
  0
LINE
  5
8A
330
1F
100
AcDbEntity
  8
DIM
100
AcDbLine
 10
48.404424689
 20
4.7909914569
 30
0.0
 11
48.404424689
 21
9.7909914569
 31
0.0
  0
LINE
  5
8B
330
1F
100
AcDbEntity
  8
DIM
100
AcDbLine
 10
98.404424689
 20
9.7909914569
 30
0.0
 11
98.404424689
 21
4.7909914569
 31
0.0
  0
LINE
  5
8C
330
1F
100
AcDbEntity
  8
DIM
100
AcDbLine
 10
9.904424689
 20
154.7909914569
 30
0.0
 11
4.904424689
 21
154.7909914569
 31
0.0
  0
LINE
  5
8D
330
1F
100
AcDbEntity
  8
DIM
100
AcDbLine
 10
48.404424689
 20
199.7909914569
 30
0.0
 11
48.404424689
 21
204.7909914569
 31
0.0
  0
LINE
  5
8E
330
1F
100
AcDbEntity
  8
DIM
100
AcDbLine
 10
98.404424689
 20
204.7909914569
 30
0.0
 11
98.404424689
 21
199.7909914569
 31
0.0
  0
LINE
  5
8F
330
1F
100
AcDbEntity
  8
DIM
100
AcDbLine
 10
148.404424689
 20
204.7909914569
 30
0.0
 11
148.404424689
 21
199.7909914569
 31
0.0
  0
LINE
  5
90
330
1F
100
AcDbEntity
  8
DIM
100
AcDbLine
 10
286.904424689
 20
9.7909914569
 30
0.0
 11
286.904424689
 21
199.7909914569
 31
0.0
  0
LINE
  5
91
330
1F
100
AcDbEntity
  8
DIM
100
AcDbLine
 10
291.904424689
 20
77.0409914569
 30
0.0
 11
291.904424689
 21
204.7909914569
 31
0.0
  0
LINE
  5
92
330
1F
100
AcDbEntity
  8
DIM
100
AcDbLine
 10
291.904424689
 20
104.7909914569
 30
0.0
 11
286.904424689
 21
104.7909914569
 31
0.0
  0
LINE
  5
93
330
1F
100
AcDbEntity
  8
DIM
100
AcDbLine
 10
198.404424689
 20
204.7909914569
 30
0.0
 11
198.404424689
 21
199.7909914569
 31
0.0
  0
LINE
  5
94
330
1F
100
AcDbEntity
  8
DIM
100
AcDbLine
 10
248.404424689
 20
199.7909914569
 30
0.0
 11
248.404424689
 21
204.7909914569
 31
0.0
  0
LINE
  5
95
330
1F
100
AcDbEntity
  8
DIM
100
AcDbLine
 10
286.904424689
 20
154.7909914569
 30
0.0
 11
291.904424689
 21
154.7909914569
 31
0.0
  0
MTEXT
  5
97
330
1F
100
AcDbEntity
  8
DIM
 62
     7
100
AcDbMText
 10
197.7327786466
 20
7.8019515263
 30
0.0
 40
1.4986
 41
0.0
 71
     1
 72
     1
  1
WEIGHT:
  7
SLDTEXTSTYLE0
 73
     1
 44
1.0
  0
MTEXT
  5
98
330
1F
100
AcDbEntity
  8
DIM
 62
     7
100
AcDbMText
 10
288.5970767548
 20
81.9406135082
 30
0.0
 40
1.8520833333
 41
0.0
 71
     1
 72
     1
  1
C
  7
SLDTEXTSTYLE0
 73
     1
 44
1.0
  0
MTEXT
  5
99
330
1F
100
AcDbEntity
  8
DIM
 62
     7
100
AcDbMText
 10
283.0435806195
 20
14.8539819836
 30
0.0
 40
2.9104166667
 41
0.0
 71
     1
 72
     1
  1
A4
  7
SLDTEXTSTYLE0
 73
     1
 44
1.0
  0
MTEXT
  5
9A
330
1F
100
AcDbEntity
  8
DIM
 62
     7
100
AcDbMText
 10
272.5710953557
 20
203.4590078604
 30
0.0
 40
1.8520833333
 41
0.0
 71
     1
 72
     1
  1
6
  7
SLDTEXTSTYLE0
 73
     1
 44
1.0
  0
MTEXT
  5
9B
330
1F
100
AcDbEntity
  8
DIM
 62
     7
100
AcDbMText
 10
222.5710953557
 20
203.4590078604
 30
0.0
 40
1.8520833333
 41
0.0
 71
     1
 72
     1
  1
5
  7
SLDTEXTSTYLE0
 73
     1
 44
1.0
  0
MTEXT
  5
9C
330
1F
100
AcDbEntity
  8
DIM
 62
     7
100
AcDbMText
 10
288.5710993557
 20
180.9590078604
 30
0.0
 40
1.8520833333
 41
0.0
 71
     1
 72
     1
  1
A
  7
SLDTEXTSTYLE0
 73
     1
 44
1.0
  0
MTEXT
  5
9D
330
1F
100
AcDbEntity
  8
DIM
 62
     7
100
AcDbMText
 10
288.5710993557
 20
130.9590078604
 30
0.0
 40
1.8520833333
 41
0.0
 71
     1
 72
     1
  1
B
  7
SLDTEXTSTYLE0
 73
     1
 44
1.0
  0
MTEXT
  5
9E
330
1F
100
AcDbEntity
  8
DIM
 62
     7
100
AcDbMText
 10
172.5710953557
 20
203.4590078604
 30
0.0
 40
1.8520833333
 41
0.0
 71
     1
 72
     1
  1
4
  7
SLDTEXTSTYLE0
 73
     1
 44
1.0
  0
MTEXT
  5
9F
330
1F
100
AcDbEntity
  8
DIM
 62
     7
100
AcDbMText
 10
22.9877620223
 20
203.4590078604
 30
0.0
 40
1.8520833333
 41
0.0
 71
     1
 72
     1
  1
1
  7
SLDTEXTSTYLE0
 73
     1
 44
1.0
  0
MTEXT
  5
A0
330
1F
100
AcDbEntity
  8
DIM
 62
     7
100
AcDbMText
 10
72.5710953557
 20
203.4590078604
 30
0.0
 40
1.8520833333
 41
0.0
 71
     1
 72
     1
  1
2
  7
SLDTEXTSTYLE0
 73
     1
 44
1.0
  0
MTEXT
  5
A1
330
1F
100
AcDbEntity
  8
DIM
 62
     7
100
AcDbMText
 10
122.5710953557
 20
203.4590078604
 30
0.0
 40
1.8520833333
 41
0.0
 71
     1
 72
     1
  1
3
  7
SLDTEXTSTYLE0
 73
     1
 44
1.0
  0
MTEXT
  5
A2
330
1F
100
AcDbEntity
  8
DIM
 62
     7
100
AcDbMText
 10
6.5710913557
 20
180.9590078604
 30
0.0
 40
1.8520833333
 41
0.0
 71
     1
 72
     1
  1
A
  7
SLDTEXTSTYLE0
 73
     1
 44
1.0
  0
MTEXT
  5
A3
330
1F
100
AcDbEntity
  8
DIM
 62
     7
100
AcDbMText
 10
72.5710953557
 20
8.4590078604
 30
0.0
 40
1.8520833333
 41
0.0
 71
     1
 72
     1
  1
2
  7
SLDTEXTSTYLE0
 73
     1
 44
1.0
  0
MTEXT
  5
A4
330
1F
100
AcDbEntity
  8
DIM
 62
     7
100
AcDbMText
 10
22.9877620223
 20
8.4590078604
 30
0.0
 40
1.8520833333
 41
0.0
 71
     1
 72
     1
  1
1
  7
SLDTEXTSTYLE0
 73
     1
 44
1.0
  0
MTEXT
  5
A5
330
1F
100
AcDbEntity
  8
DIM
 62
     7
100
AcDbMText
 10
6.5710913557
 20
30.9590078604
 30
0.0
 40
1.8520833333
 41
0.0
 71
     1
 72
     1
  1
D
  7
SLDTEXTSTYLE0
 73
     1
 44
1.0
  0
MTEXT
  5
A6
330
1F
100
AcDbEntity
  8
DIM
 62
     7
100
AcDbMText
 10
6.5710913557
 20
80.9590078604
 30
0.0
 40
1.8520833333
 41
0.0
 71
     1
 72
     1
  1
C
  7
SLDTEXTSTYLE0
 73
     1
 44
1.0
  0
MTEXT
  5
A7
330
1F
100
AcDbEntity
  8
DIM
 62
     7
100
AcDbMText
 10
6.5710913557
 20
130.9590078604
 30
0.0
 40
1.8520833333
 41
0.0
 71
     1
 72
     1
  1
B
  7
SLDTEXTSTYLE0
 73
     1
 44
1.0
  0
MTEXT
  5
A8
330
1F
100
AcDbEntity
  8
DIM
 62
     7
100
AcDbMText
 10
288.5970767548
 20
81.9406135082
 30
0.0
 40
1.8520833333
 41
0.0
 71
     1
 72
     1
  1
C
  7
SLDTEXTSTYLE0
 73
     1
 44
1.0
  0
MTEXT
  5
AA
330
1F
100
AcDbEntity
  8
DIM
 62
     7
100
AcDbMText
 10
256.5253658125
 20
7.6910787314
 30
0.0
 40
1.5
 41
0.0
 71
     1
 72
     1
  1
SHEET 1 OF 1
  7
SLDTEXTSTYLE1
 73
     1
 44
1.0
  0
MTEXT
  5
AB
330
1F
100
AcDbEntity
  8
DIM
 62
     7
100
AcDbMText
 10
150.3717803834
 20
7.8533674836
 30
0.0
 40
1.5
 41
0.0
 71
     1
 72
     1
  1
MATERIAL:
  7
SLDTEXTSTYLE0
 73
     1
 44
1.0
  0
MTEXT
  5
AC
330
1F
100
AcDbEntity
  8
DIM
 62
     7
100
AcDbMText
 10
272.5710953557
 20
203.4590078604
 30
0.0
 40
1.8520833333
 41
0.0
 71
     1
 72
     1
  1
6
  7
SLDTEXTSTYLE0
 73
     1
 44
1.0
  0
MTEXT
  5
AD
330
1F
100
AcDbEntity
  8
DIM
 62
     7
100
AcDbMText
 10
222.5710953557
 20
203.4590078604
 30
0.0
 40
1.8520833333
 41
0.0
 71
     1
 72
     1
  1
5
  7
SLDTEXTSTYLE0
 73
     1
 44
1.0
  0
MTEXT
  5
AE
330
1F
100
AcDbEntity
  8
DIM
 62
     7
100
AcDbMText
 10
288.5710993557
 20
180.9590078604
 30
0.0
 40
1.8520833333
 41
0.0
 71
     1
 72
     1
  1
A
  7
SLDTEXTSTYLE0
 73
     1
 44
1.0
  0
MTEXT
  5
AF
330
1F
100
AcDbEntity
  8
DIM
 62
     7
100
AcDbMText
 10
288.5710993557
 20
130.9590078604
 30
0.0
 40
1.8520833333
 41
0.0
 71
     1
 72
     1
  1
B
  7
SLDTEXTSTYLE0
 73
     1
 44
1.0
  0
MTEXT
  5
B0
330
1F
100
AcDbEntity
  8
DIM
 62
     7
100
AcDbMText
 10
172.5710953557
 20
203.4590078604
 30
0.0
 40
1.8520833333
 41
0.0
 71
     1
 72
     1
  1
4
  7
SLDTEXTSTYLE0
 73
     1
 44
1.0
  0
MTEXT
  5
B1
330
1F
100
AcDbEntity
  8
DIM
 62
     7
100
AcDbMText
 10
22.9877620223
 20
203.4590078604
 30
0.0
 40
1.8520833333
 41
0.0
 71
     1
 72
     1
  1
1
  7
SLDTEXTSTYLE0
 73
     1
 44
1.0
  0
MTEXT
  5
B2
330
1F
100
AcDbEntity
  8
DIM
 62
     7
100
AcDbMText
 10
72.5710953557
 20
203.4590078604
 30
0.0
 40
1.8520833333
 41
0.0
 71
     1
 72
     1
  1
2
  7
SLDTEXTSTYLE0
 73
     1
 44
1.0
  0
MTEXT
  5
B3
330
1F
100
AcDbEntity
  8
DIM
 62
     7
100
AcDbMText
 10
122.5710953557
 20
203.4590078604
 30
0.0
 40
1.8520833333
 41
0.0
 71
     1
 72
     1
  1
3
  7
SLDTEXTSTYLE0
 73
     1
 44
1.0
  0
MTEXT
  5
B4
330
1F
100
AcDbEntity
  8
DIM
 62
     7
100
AcDbMText
 10
6.5710913557
 20
180.9590078604
 30
0.0
 40
1.8520833333
 41
0.0
 71
     1
 72
     1
  1
A
  7
SLDTEXTSTYLE0
 73
     1
 44
1.0
  0
MTEXT
  5
B5
330
1F
100
AcDbEntity
  8
DIM
 62
     7
100
AcDbMText
 10
72.5710953557
 20
8.4590078604
 30
0.0
 40
1.8520833333
 41
0.0
 71
     1
 72
     1
  1
2
  7
SLDTEXTSTYLE0
 73
     1
 44
1.0
  0
MTEXT
  5
B6
330
1F
100
AcDbEntity
  8
DIM
 62
     7
100
AcDbMText
 10
22.9877620223
 20
8.4590078604
 30
0.0
 40
1.8520833333
 41
0.0
 71
     1
 72
     1
  1
1
  7
SLDTEXTSTYLE0
 73
     1
 44
1.0
  0
MTEXT
  5
B7
330
1F
100
AcDbEntity
  8
DIM
 62
     7
100
AcDbMText
 10
6.5710913557
 20
30.9590078604
 30
0.0
 40
1.8520833333
 41
0.0
 71
     1
 72
     1
  1
D
  7
SLDTEXTSTYLE0
 73
     1
 44
1.0
  0
MTEXT
  5
B8
330
1F
100
AcDbEntity
  8
DIM
 62
     7
100
AcDbMText
 10
6.5710913557
 20
80.9590078604
 30
0.0
 40
1.8520833333
 41
0.0
 71
     1
 72
     1
  1
C
  7
SLDTEXTSTYLE0
 73
     1
 44
1.0
  0
MTEXT
  5
B9
330
1F
100
AcDbEntity
  8
DIM
 62
     7
100
AcDbMText
 10
6.5710913557
 20
130.9590078604
 30
0.0
 40
1.8520833333
 41
0.0
 71
     1
 72
     1
  1
B
  7
SLDTEXTSTYLE0
 73
     1
 44
1.0
  0
LINE
  5
BA
330
1F
100
AcDbEntity
  8
0
  6
Continuous
 62
     7
370
    15
100
AcDbLine
 10
151.1409095377
 20
85.8902385796
 30
0.0
 11
155.3965518809
 21
85.8902385796
 31
0.0
  0
LINE
  5
BB
330
1F
100
AcDbEntity
  8
0
  6
Continuous
 62
     7
370
    15
100
AcDbLine
 10
155.3965518809
 20
148.8902385796
 30
0.0
 11
151.1409095377
 21
148.8902385796
 31
0.0
  0
LINE
  5
BC
330
1F
100
AcDbEntity
  8
0
  6
Continuous
 62
     7
370
    15
100
AcDbLine
 10
132.7279227309
 20
85.8902385796
 30
0.0
 11
141.1846979841
 21
85.8902385796
 31
0.0
  0
LINE
  5
BD
330
1F
100
AcDbEntity
  8
0
  6
Continuous
 62
     7
370
    15
100
AcDbLine
 10
141.1846979841
 20
148.8902385796
 30
0.0
 11
132.7279227309
 21
148.8902385796
 31
0.0
  0
SPLINE
  5
BE
330
1F
100
AcDbEntity
  8
0
  6
Continuous
 62
     7
370
    15
100
AcDbSpline
210
0.0
220
0.0
230
1.0
 70
     8
 71
     3
 72
    11
 73
     7
 74
     0
 42
0.000000001
 43
0.00000001
 40
0.0
 40
0.0
 40
0.0
 40
0.0
 40
0.2475748616160096
 40
0.5000000008089294
 40
0.7524251395644649
 40
1.0
 40
1.0
 40
1.0
 40
1.0
 10
155.3965518808777
 20
85.8902385796892
 30
0.0
 10
155.4224871102731
 20
85.89168962854328
 30
0.0
 10
155.4748656701723
 20
85.89462015397498
 30
0.0
 10
155.5504998309684
 20
85.91857535220413
 30
0.0
 10
155.6209201418913
 20
85.95511789718478
 30
0.0
 10
155.6600295708996
 20
85.99008293774827
 30
0.0
 10
155.6793945937878
 20
86.00739586785151
 30
0.0
  0
SPLINE
  5
BF
330
1F
100
AcDbEntity
  8
0
  6
Continuous
 62
     7
370
    15
100
AcDbSpline
210
0.0
220
0.0
230
1.0
 70
     8
 71
     3
 72
    11
 73
     7
 74
     0
 42
0.000000001
 43
0.00000001
 40
0.0
 40
0.0
 40
0.0
 40
0.0
 40
0.2475748604458287
 40
0.4999999992014599
 40
0.7524251383891521
 40
1.0
 40
1.0
 40
1.0
 40
1.0
 10
155.6793945936709
 20
148.7730812914697
 30
0.0
 10
155.6600295707854
 20
148.7903942215571
 30
0.0
 10
155.6209201417835
 20
148.8253592620877
 30
0.0
 10
155.5504998308882
 20
148.8619018070308
 30
0.0
 10
155.4748656701294
 20
148.8858570052342
 30
0.0
 10
155.4224871102589
 20
148.8887875306627
 30
0.0
 10
155.3965518808777
 20
148.8902385795152
 30
0.0
  0
LINE
  5
C0
330
1F
100
AcDbEntity
  8
0
  6
Continuous
 62
     7
370
    15
100
AcDbLine
 10
151.1409095377
 20
148.8902385796
 30
0.0
 11
148.6622373059
 21
144.5970524911
 31
0.0
  0
LINE
  5
C1
330
1F
100
AcDbEntity
  8
0
  6
Continuous
 62
     7
370
    15
100
AcDbLine
 10
148.6622373059
 20
90.1834246681
 30
0.0
 11
151.1409095377
 21
85.8902385796
 31
0.0
  0
LINE
  5
C2
330
1F
100
AcDbEntity
  8
0
  6
Continuous
 62
     7
370
    15
100
AcDbLine
 10
141.1846979841
 20
85.8902385796
 30
0.0
 11
143.6622373059
 21
90.1814625628
 31
0.0
  0
LINE
  5
C3
330
1F
100
AcDbEntity
  8
0
  6
Continuous
 62
     7
370
    15
100
AcDbLine
 10
143.6622373059
 20
144.5990145964
 30
0.0
 11
141.1846979841
 21
148.8902385796
 31
0.0
  0
LINE
  5
C4
330
1F
100
AcDbEntity
  8
0
  6
Continuous
 62
     7
370
    15
100
AcDbLine
 10
155.6793945939
 20
86.0073958676
 30
0.0
 11
156.4450800186
 21
86.7730812923
 31
0.0
  0
LINE
  5
C5
330
1F
100
AcDbEntity
  8
0
  6
Continuous
 62
     7
370
    15
100
AcDbLine
 10
156.4450800186
 20
148.0073958669
 30
0.0
 11
155.6793945939
 21
148.7730812916
 31
0.0
  0
LINE
  5
C6
330
1F
100
AcDbEntity
  8
0
  6
Continuous
 62
     7
370
    15
100
AcDbLine
 10
132.4450800188
 20
148.7730812925
 30
0.0
 11
131.6793945933
 21
148.007395867
 31
0.0
  0
LINE
  5
C7
330
1F
100
AcDbEntity
  8
0
  6
Continuous
 62
     7
370
    15
100
AcDbLine
 10
131.6793945933
 20
86.7730812923
 30
0.0
 11
132.4450800188
 21
86.0073958667
 31
0.0
  0
SPLINE
  5
C8
330
1F
100
AcDbEntity
  8
0
  6
Continuous
 62
     7
370
    15
100
AcDbSpline
210
0.0
220
0.0
230
1.0
 70
     8
 71
     3
 72
    11
 73
     7
 74
     0
 42
0.000000001
 43
0.00000001
 40
0.0
 40
0.0
 40
0.0
 40
0.0
 40
0.1684264053243868
 40
0.5633803198136779
 40
0.8661565539605117
 40
1.0
 40
1.0
 40
1.0
 40
1.0
 10
156.5293309049509
 20
89.73225805381011
 30
0.0
 10
156.5303404845652
 20
89.80437313203072
 30
0.0
 10
156.5337174923742
 20
90.04559549709309
 30
0.0
 10
156.5391144406005
 20
90.46680270494224
 30
0.0
 10
156.5442189838664
 20
90.88602778773928
 30
0.0
 10
156.5478004980163
 20
91.12388193523563
 30
0.0
 10
156.5488983921737
 20
91.19679486197799
 30
0.0
  0
SPLINE
  5
C9
330
1F
100
AcDbEntity
  8
0
  6
Continuous
 62
     7
370
    15
100
AcDbSpline
210
0.0
220
0.0
230
1.0
 70
     8
 71
     3
 72
    11
 73
     7
 74
     0
 42
0.000000001
 43
0.00000001
 40
0.0
 40
0.0
 40
0.0
 40
0.0
 40
0.1096962310937583
 40
0.357747759476894
 40
0.6813164913690344
 40
0.9999999999999999
 40
0.9999999999999999
 40
0.9999999999999999
 40
0.9999999999999999
 10
156.5488996816013
 20
143.5835950737829
 30
0.0
 10
156.5478014199519
 20
143.6565175036224
 30
0.0
 10
156.5442197048785
 20
143.8943363933926
 30
0.0
 10
156.539110334637
 20
144.3146779065891
 30
0.0
 10
156.5323630295288
 20
144.8372669111528
 30
0.0
 10
156.5276751101337
 20
145.1701790073644
 30
0.0
 10
156.5253489795159
 20
145.3353689252695
 30
0.0
  0
LINE
  5
CA
330
1F
100
AcDbEntity
  8
0
  6
Continuous
 62
     7
370
    15
100
AcDbLine
 10
143.6622373059
 20
90.8902385796
 30
0.0
 11
148.6622373059
 21
90.8902385796
 31
0.0
  0
LINE
  5
CB
330
1F
100
AcDbEntity
  8
0
  6
Continuous
 62
     7
370
    15
100
AcDbLine
 10
148.6622373059
 20
143.8902385796
 30
0.0
 11
143.6622373059
 21
143.8902385796
 31
0.0
  0
SPLINE
  5
CC
330
1F
100
AcDbEntity
  8
0
  6
Continuous
 62
     7
370
    15
100
AcDbSpline
210
0.0
220
0.0
230
1.0
 70
     8
 71
     3
 72
    13
 73
     9
 74
     0
 42
0.000000001
 43
0.00000001
 40
0.0
 40
0.0
 40
0.0
 40
0.0
 40
0.2394568445742489
 40
0.3683606604711748
 40
0.5000000002321999
 40
0.6316393399402179
 40
0.7605431557019611
 40
0.9999999999999999
 40
0.9999999999999999
 40
0.9999999999999999
 40
0.9999999999999999
 10
131.562237306173
 20
139.8902385793039
 30
0.0
 10
131.5555583110294
 20
139.8273404189717
 30
0.0
 10
131.5452838957512
 20
139.7305830766472
 30
0.0
 10
131.4829350969416
 20
139.6141750353406
 30
0.0
 10
131.418404213026
 20
139.5340716724648
 30
0.0
 10
131.3383008502122
 20
139.4695407885306
 30
0.0
 10
131.2218928089998
 20
139.4071919897688
 30
0.0
 10
131.1251354667476
 20
139.3969175747072
 30
0.0
 10
131.0622373064646
 20
139.3902385797047
 30
0.0
  0
SPLINE
  5
CD
330
1F
100
AcDbEntity
  8
0
  6
Continuous
 62
     7
370
    15
100
AcDbSpline
210
0.0
220
0.0
230
1.0
 70
     8
 71
     3
 72
    13
 73
     9
 74
     0
 42
0.000000001
 43
0.00000001
 40
0.0
 40
0.0
 40
0.0
 40
0.0
 40
0.2394568442973461
 40
0.3683606600586325
 40
0.4999999997662988
 40
0.6316393395271934
 40
0.7605431554242874
 40
1.0
 40
1.0
 40
1.0
 40
1.0
 10
131.0622373064646
 20
95.39023857949965
 30
0.0
 10
131.1251354667462
 20
95.38355958449743
 30
0.0
 10
131.2218928089964
 20
95.37328516943623
 30
0.0
 10
131.3383008502071
 20
95.31093637067697
 30
0.0
 10
131.4184042130201
 20
95.2464054867452
 30
0.0
 10
131.482935096936
 20
95.16630212387209
 30
0.0
 10
131.5452838957472
 20
95.04989408256857
 30
0.0
 10
131.5555583110278
 20
94.95313674024572
 30
0.0
 10
131.562237306173
 20
94.89023857991441
 30
0.0
  0
LINE
  5
CE
330
1F
100
AcDbEntity
  8
0
  6
Continuous
 62
     7
370
    15
100
AcDbLine
 10
129.5622373059
 20
95.1652385796
 30
0.0
 11
130.0447513629
 21
95.3902385796
 31
0.0
  0
LINE
  5
CF
330
1F
100
AcDbEntity
  8
0
  6
Continuous
 62
     7
370
    15
100
AcDbLine
 10
130.0447513629
 20
139.3902385796
 30
0.0
 11
129.5622373059
 21
139.6152385796
 31
0.0
  0
LINE
  5
D0
330
1F
100
AcDbEntity
  8
0
  6
Continuous
 62
     7
370
    15
100
AcDbLine
 10
129.5622373059
 20
139.6152385796
 30
0.0
 11
65.0179290789
 21
130.2024380866
 31
0.0
  0
LINE
  5
D1
330
1F
100
AcDbEntity
  8
0
  6
Continuous
 62
     7
370
    15
100
AcDbLine
 10
65.0179290789
 20
104.5780390726
 30
0.0
 11
129.5622373059
 21
95.1652385796
 31
0.0
  0
LINE
  5
D2
330
1F
100
AcDbEntity
  8
0
  6
Continuous
 62
     7
370
    15
100
AcDbLine
 10
130.0447513629
 20
95.3902385796
 30
0.0
 11
131.0622373065
 21
95.3902385796
 31
0.0
  0
LINE
  5
D3
330
1F
100
AcDbEntity
  8
0
  6
Continuous
 62
     7
370
    15
100
AcDbLine
 10
131.0622373065
 20
139.3902385796
 30
0.0
 11
130.0447513629
 21
139.3902385796
 31
0.0
  0
SPLINE
  5
D4
330
1F
100
AcDbEntity
  8
0
  6
Continuous
 62
     7
370
    15
100
AcDbSpline
210
0.0
220
0.0
230
1.0
 70
     8
 71
     3
 72
    13
 73
     9
 74
     0
 42
0.000000001
 43
0.00000001
 40
0.0
 40
0.0
 40
0.0
 40
0.0
 40
0.2394568444730328
 40
0.3683606603420056
 40
0.5000000001131568
 40
0.631639339865567
 40
0.7605431556827862
 40
1.0
 40
1.0
 40
1.0
 40
1.0
 10
156.5622373055883
 20
98.39023858054094
 30
0.0
 10
156.5889532859044
 20
98.64183122188456
 30
0.0
 10
156.6300509466232
 20
99.02886059123281
 30
0.0
 10
156.8794461419445
 20
99.49449275649025
 30
0.0
 10
157.137569677797
 20
99.81490620802956
 30
0.0
 10
157.4579831293175
 20
100.0730297438164
 30
0.0
 10
157.9236152944217
 20
100.3224249389469
 30
0.0
 10
158.3106446635868
 20
100.3635225994119
 30
0.0
 10
158.5622373047893
 20
100.3902385795608
 30
0.0
  0
SPLINE
  5
D5
330
1F
100
AcDbEntity
  8
0
  6
Continuous
 62
     7
370
    15
100
AcDbSpline
210
0.0
220
0.0
230
1.0
 70
     8
 71
     3
 72
    13
 73
     9
 74
     0
 42
0.000000001
 43
0.00000001
 40
0.0
 40
0.0
 40
0.0
 40
0.0
 40
0.2394568443172157
 40
0.3683606601344346
 40
0.4999999998868431
 40
0.6316393396579951
 40
0.7605431555269674
 40
1.0
 40
1.0
 40
1.0
 40
1.0
 10
158.5622373047893
 20
134.3902385796436
 30
0.0
 10
158.3106446635868
 20
134.4169545597924
 30
0.0
 10
157.9236152944217
 20
134.4580522202575
 30
0.0
 10
157.4579831293175
 20
134.7074474153879
 30
0.0
 10
157.137569677797
 20
134.9655709511748
 30
0.0
 10
156.8794461419445
 20
135.2859844027141
 30
0.0
 10
156.6300509466232
 20
135.7516165679716
 30
0.0
 10
156.5889532859044
 20
136.1386459373198
 30
0.0
 10
156.5622373055883
 20
136.3902385786634
 30
0.0
  0
LINE
  5
D6
330
1F
100
AcDbEntity
  8
0
  6
Continuous
 62
     7
370
    15
100
AcDbLine
 10
211.6776226351
 20
99.8902385796
 30
0.0
 11
214.5643739811
 21
104.8902385796
 31
0.0
  0
LINE
  5
D7
330
1F
100
AcDbEntity
  8
0
  6
Continuous
 62
     7
370
    15
100
AcDbLine
 10
214.5643739811
 20
129.8902385796
 30
0.0
 11
211.6776226351
 21
134.8902385796
 31
0.0
  0
LINE
  5
D8
330
1F
100
AcDbEntity
  8
0
  6
Continuous
 62
     7
370
    15
100
AcDbLine
 10
196.5643739811
 20
134.8902385796
 30
0.0
 11
195.5643739811
 21
133.8902385796
 31
0.0
  0
LINE
  5
D9
330
1F
100
AcDbEntity
  8
0
  6
Continuous
 62
     7
370
    15
100
AcDbLine
 10
195.5643739811
 20
100.8902385796
 30
0.0
 11
196.5643739811
 21
99.8902385796
 31
0.0
  0
LINE
  5
DA
330
1F
100
AcDbEntity
  8
0
  6
Continuous
 62
     7
370
    15
100
AcDbLine
 10
196.5643739811
 20
99.8902385796
 30
0.0
 11
211.6776226351
 21
99.8902385796
 31
0.0
  0
LINE
  5
DB
330
1F
100
AcDbEntity
  8
0
  6
Continuous
 62
     7
370
    15
100
AcDbLine
 10
211.6776226351
 20
134.8902385796
 30
0.0
 11
196.5643739811
 21
134.8902385796
 31
0.0
  0
LINE
  5
DC
330
1F
100
AcDbEntity
  8
0
  6
Continuous
 62
     7
370
    15
100
AcDbLine
 10
158.5622373048
 20
100.3902385796
 30
0.0
 11
161.6622373059
 21
100.3902385796
 31
0.0
  0
LINE
  5
DD
330
1F
100
AcDbEntity
  8
0
  6
Continuous
 62
     7
370
    15
100
AcDbLine
 10
161.6622373059
 20
134.3902385796
 30
0.0
 11
158.5622373048
 21
134.3902385796
 31
0.0
  0
LINE
  5
DE
330
1F
100
AcDbEntity
  8
0
  6
Continuous
 62
     7
370
    15
100
AcDbLine
 10
161.6622373059
 20
100.3902385796
 30
0.0
 11
161.9622373059
 21
100.6902385796
 31
0.0
  0
LINE
  5
DF
330
1F
100
AcDbEntity
  8
0
  6
Continuous
 62
     7
370
    15
100
AcDbLine
 10
161.9622373059
 20
134.0902385796
 30
0.0
 11
161.6622373059
 21
134.3902385796
 31
0.0
  0
LINE
  5
E0
330
1F
100
AcDbEntity
  8
0
  6
Continuous
 62
     7
370
    15
100
AcDbLine
 10
184.1622373059
 20
134.3902385796
 30
0.0
 11
183.8622373059
 21
134.0902385796
 31
0.0
  0
LINE
  5
E1
330
1F
100
AcDbEntity
  8
0
  6
Continuous
 62
     7
370
    15
100
AcDbLine
 10
183.8622373059
 20
100.6902385796
 30
0.0
 11
184.1622373059
 21
100.3902385796
 31
0.0
  0
LINE
  5
E2
330
1F
100
AcDbEntity
  8
0
  6
Continuous
 62
     7
370
    15
100
AcDbLine
 10
184.1622373059
 20
100.3902385796
 30
0.0
 11
185.3622373059
 21
100.3902385796
 31
0.0
  0
LINE
  5
E3
330
1F
100
AcDbEntity
  8
0
  6
Continuous
 62
     7
370
    15
100
AcDbLine
 10
185.3622373059
 20
134.3902385796
 30
0.0
 11
184.1622373059
 21
134.3902385796
 31
0.0
  0
LINE
  5
E4
330
1F
100
AcDbEntity
  8
0
  6
Continuous
 62
     7
370
    15
100
AcDbLine
 10
185.3622373059
 20
100.3902385796
 30
0.0
 11
188.8552064349
 21
106.4402385796
 31
0.0
  0
LINE
  5
E5
330
1F
100
AcDbEntity
  8
0
  6
Continuous
 62
     7
370
    15
100
AcDbLine
 10
188.8552064349
 20
128.3402385796
 30
0.0
 11
185.3622373059
 21
134.3902385796
 31
0.0
  0
LINE
  5
E6
330
1F
100
AcDbEntity
  8
0
  6
Continuous
 62
     7
370
    15
100
AcDbLine
 10
164.5622373059
 20
134.2902385796
 30
0.0
 11
164.2622373059
 21
133.9902385796
 31
0.0
  0
LINE
  5
E7
330
1F
100
AcDbEntity
  8
0
  6
Continuous
 62
     7
370
    15
100
AcDbLine
 10
164.2622373059
 20
100.7902385796
 30
0.0
 11
164.5622373059
 21
100.4902385796
 31
0.0
  0
LINE
  5
E8
330
1F
100
AcDbEntity
  8
0
  6
Continuous
 62
     7
370
    15
100
AcDbLine
 10
164.5622373059
 20
100.4902385796
 30
0.0
 11
182.9622373059
 21
100.4902385796
 31
0.0
  0
LINE
  5
E9
330
1F
100
AcDbEntity
  8
0
  6
Continuous
 62
     7
370
    15
100
AcDbLine
 10
182.9622373059
 20
134.2902385796
 30
0.0
 11
164.5622373059
 21
134.2902385796
 31
0.0
  0
LINE
  5
EA
330
1F
100
AcDbEntity
  8
0
  6
Continuous
 62
     7
370
    15
100
AcDbLine
 10
182.9622373059
 20
100.4902385796
 30
0.0
 11
183.2622373059
 21
100.7902385796
 31
0.0
  0
LINE
  5
EB
330
1F
100
AcDbEntity
  8
0
  6
Continuous
 62
     7
370
    15
100
AcDbLine
 10
183.2622373059
 20
133.9902385796
 30
0.0
 11
182.9622373059
 21
134.2902385796
 31
0.0
  0
LINE
  5
EC
330
1F
100
AcDbEntity
  8
0
  6
Continuous
 62
     7
370
    15
100
AcDbLine
 10
183.2622373059
 20
102.4402385796
 30
0.0
 11
183.8622373059
 21
102.4402385796
 31
0.0
  0
LINE
  5
ED
330
1F
100
AcDbEntity
  8
0
  6
Continuous
 62
     7
370
    15
100
AcDbLine
 10
183.8622373059
 20
132.3402385796
 30
0.0
 11
183.2622373059
 21
132.3402385796
 31
0.0
  0
LINE
  5
EE
330
1F
100
AcDbEntity
  8
0
  6
Continuous
 62
     7
370
    15
100
AcDbLine
 10
161.9622373059
 20
102.4402385796
 30
0.0
 11
162.1364946259
 21
102.4402385796
 31
0.0
  0
LINE
  5
EF
330
1F
100
AcDbEntity
  8
0
  6
Continuous
 62
     7
370
    15
100
AcDbLine
 10
164.1364946259
 20
102.4402385796
 30
0.0
 11
164.2622373059
 21
102.4402385796
 31
0.0
  0
LINE
  5
F0
330
1F
100
AcDbEntity
  8
0
  6
Continuous
 62
     7
370
    15
100
AcDbLine
 10
164.2622373059
 20
132.3402385796
 30
0.0
 11
164.1364946259
 21
132.3402385796
 31
0.0
  0
LINE
  5
F1
330
1F
100
AcDbEntity
  8
0
  6
Continuous
 62
     7
370
    15
100
AcDbLine
 10
162.1364946259
 20
132.3402385796
 30
0.0
 11
161.9622373059
 21
132.3402385796
 31
0.0
  0
SPLINE
  5
F2
330
1F
100
AcDbEntity
  8
0
  6
Continuous
 62
     7
370
    15
100
AcDbSpline
210
0.0
220
0.0
230
1.0
 70
     8
 71
     3
 72
    11
 73
     7
 74
     0
 42
0.000000001
 43
0.00000001
 40
0.0
 40
0.0
 40
0.0
 40
0.0
 40
0.241885603202425
 40
0.5000000000124177
 40
0.7581143968362158
 40
0.9999999999999999
 40
0.9999999999999999
 40
0.9999999999999999
 40
0.9999999999999999
 10
65.01792907896913
 20
130.2024380865616
 30
0.0
 10
64.90577689763376
 20
130.1743827909369
 30
0.0
 10
64.67394792589397
 20
130.1163898900492
 30
0.0
 10
64.39033240072864
 20
129.8804048372424
 30
0.0
 10
64.19774550763114
 20
129.565703391694
 30
0.0
 10
64.17381445863421
 20
129.3279321706123
 30
0.0
 10
64.16223730619198
 20
129.2129053001567
 30
0.0
  0
SPLINE
  5
F3
330
1F
100
AcDbEntity
  8
0
  6
Continuous
 62
     7
370
    15
100
AcDbSpline
210
0.0
220
0.0
230
1.0
 70
     8
 71
     3
 72
    11
 73
     7
 74
     0
 42
0.000000001
 43
0.00000001
 40
0.0
 40
0.0
 40
0.0
 40
0.0
 40
0.2418856031626122
 40
0.4999999999851694
 40
0.758114396795221
 40
0.9999999999999999
 40
0.9999999999999999
 40
0.9999999999999999
 40
0.9999999999999999
 10
64.16223730619197
 20
105.5675718590476
 30
0.0
 10
64.17381445863325
 20
105.4525449885967
 30
0.0
 10
64.19774550762823
 20
105.2147737675245
 30
0.0
 10
64.39033240071119
 20
104.9000723219847
 30
0.0
 10
64.67394792585822
 20
104.6640872691762
 30
0.0
 10
64.90577689758821
 20
104.6060943682793
 30
0.0
 10
65.01792907891938
 20
104.57803907265
 30
0.0
  0
SPLINE
  5
F4
330
1F
100
AcDbEntity
  8
0
  6
Continuous
 62
     7
370
    15
100
AcDbSpline
210
0.0
220
0.0
230
1.0
 70
     8
 71
     3
 72
    11
 73
     7
 74
     0
 42
0.000000001
 43
0.00000001
 40
0.0
 40
0.0
 40
0.0
 40
0.0
 40
0.2739171952909632
 40
0.5614958874282101
 40
0.786082464034839
 40
1.0
 40
1.0
 40
1.0
 40
1.0
 10
189.2415499629068
 20
128.1422369136022
 30
0.0
 10
189.1957201094545
 20
128.1421897142609
 30
0.0
 10
189.1017746592334
 20
128.1420929615323
 30
0.0
 10
188.9806031494685
 20
128.1995133048829
 30
0.0
 10
188.8892044452465
 20
128.2804142363472
 30
0.0
 10
188.8540969932977
 20
128.3445388452455
 30
0.0
 10
188.8369703589068
 20
128.3758210566022
 30
0.0
  0
SPLINE
  5
F5
330
1F
100
AcDbEntity
  8
0
  6
Continuous
 62
     7
370
    15
100
AcDbSpline
210
0.0
220
0.0
230
1.0
 70
     8
 71
     3
 72
    11
 73
     7
 74
     0
 42
0.000000001
 43
0.00000001
 40
0.0
 40
0.0
 40
0.0
 40
0.0
 40
0.2739171956905185
 40
0.561495887945797
 40
0.7860824643605391
 40
1.0
 40
1.0
 40
1.0
 40
1.0
 10
188.8369703589068
 20
106.4046561026022
 30
0.0
 10
188.8598444099211
 20
106.44436951962
 30
0.0
 10
188.9067333449251
 20
106.5257770424137
 30
0.0
 10
189.0170465759049
 20
106.6020044763773
 30
0.0
 10
189.1328081898423
 20
106.6407076102632
 30
0.0
 10
189.2058954560441
 20
106.6390492508976
 30
0.0
 10
189.2415499629068
 20
106.6382402456022
 30
0.0
  0
LINE
  5
F6
330
1F
100
AcDbEntity
  8
0
  6
Continuous
 62
     7
370
    15
100
AcDbLine
 10
190.9622373059
 20
106.4402385796
 30
0.0
 11
195.5643739811
 21
106.4402385796
 31
0.0
  0
LINE
  5
F7
330
1F
100
AcDbEntity
  8
0
  6
Continuous
 62
     7
370
    15
100
AcDbLine
 10
195.5643739811
 20
128.3402385796
 30
0.0
 11
190.9622373059
 21
128.3402385796
 31
0.0
  0
LINE
  5
F8
330
1F
100
AcDbEntity
  8
0
  6
Continuous
 62
     7
370
    15
100
AcDbLine
 10
190.9622373059
 20
128.3402385796
 30
0.0
 11
190.5333359219
 21
128.1402385796
 31
0.0
  0
LINE
  5
F9
330
1F
100
AcDbEntity
  8
0
  6
Continuous
 62
     7
370
    15
100
AcDbLine
 10
190.5333359219
 20
106.6402385796
 30
0.0
 11
190.9622373059
 21
106.4402385796
 31
0.0
  0
LINE
  5
FA
330
1F
100
AcDbEntity
  8
0
  6
Continuous
 62
     7
370
    15
100
AcDbLine
 10
189.2016165963
 20
106.6402385796
 30
0.0
 11
190.5333359219
 21
106.6402385796
 31
0.0
  0
LINE
  5
FB
330
1F
100
AcDbEntity
  8
0
  6
Continuous
 62
     7
370
    15
100
AcDbLine
 10
190.5333359219
 20
128.1402385796
 30
0.0
 11
189.2016165963
 21
128.1402385796
 31
0.0
  0
ARC
  5
FC
330
1F
100
AcDbEntity
  8
0
  6
Continuous
 62
     7
370
    15
100
AcDbCircle
 10
131.9622373041
 20
147.7245531553
 30
0.0
 40
0.3999999981925555
100
AcDbArc
 50
134.9999999264
 51
180.0000002509
  0
ARC
  5
FD
330
1F
100
AcDbEntity
  8
0
  6
Continuous
 62
     7
370
    15
100
AcDbCircle
 10
131.9622373041
 20
87.0559240039
 30
0.0
 40
0.3999999981925555
100
AcDbArc
 50
179.9999997491
 51
225.0000000736
  0
ARC
  5
FE
330
1F
100
AcDbEntity
  8
0
  6
Continuous
 62
     7
370
    15
100
AcDbCircle
 10
132.7279227302
 20
86.2902385777
 30
0.0
 40
0.3999999981381706
100
AcDbArc
 50
224.9999999501
 51
270.0000001043
  0
ARC
  5
FF
330
1F
100
AcDbEntity
  8
0
  6
Continuous
 62
     7
370
    15
100
AcDbCircle
 10
132.7279227302
 20
148.4902385815
 30
0.0
 40
0.3999999981381563
100
AcDbArc
 50
89.9999998957
 51
135.0000000499
  0
SPLINE
  5
100
330
1F
100
AcDbEntity
  8
0
  6
Continuous
 62
     7
370
    15
100
AcDbSpline
210
0.0
220
0.0
230
1.0
 70
     8
 71
     3
 72
    11
 73
     7
 74
     0
 42
0.000000001
 43
0.00000001
 40
0.0
 40
0.0
 40
0.0
 40
0.0
 40
0.2387703575837256
 40
0.5000000000719494
 40
0.7612296424989216
 40
1.0
 40
1.0
 40
1.0
 40
1.0
 10
163.2363280429068
 20
134.3852427446022
 30
0.0
 10
163.1024415858337
 20
134.3830194855512
 30
0.0
 10
162.8220750058962
 20
134.3783638426275
 30
0.0
 10
162.4458772583933
 20
134.1536163477257
 30
0.0
 10
162.1846954580481
 20
133.8017353325154
 30
0.0
 10
162.1520731203692
 20
133.5232342064781
 30
0.0
 10
162.1364946259068
 20
133.3902385796022
 30
0.0
  0
LINE
  5
101
330
1F
100
AcDbEntity
  8
0
  6
Continuous
 62
     7
370
    15
100
AcDbLine
 10
162.1364946259
 20
133.3902385796
 30
0.0
 11
162.1364946259
 21
117.390933803
 31
0.0
  0
SPLINE
  5
102
330
1F
100
AcDbEntity
  8
0
  6
Continuous
 62
     7
370
    15
100
AcDbSpline
210
0.0
220
0.0
230
1.0
 70
     8
 71
     3
 72
    11
 73
     7
 74
     0
 42
0.000000001
 43
0.00000001
 40
0.0
 40
0.0
 40
0.0
 40
0.0
 40
0.2387703575010785
 40
0.4999999999280505
 40
0.7612296424162743
 40
1.0
 40
1.0
 40
1.0
 40
1.0
 10
162.1364946259068
 20
101.3902385796022
 30
0.0
 10
162.1520731203692
 20
101.2572429527263
 30
0.0
 10
162.1846954580481
 20
100.978741826689
 30
0.0
 10
162.4458772583933
 20
100.6268608114787
 30
0.0
 10
162.8220750058962
 20
100.4021133165768
 30
0.0
 10
163.1024415858336
 20
100.3974576736532
 30
0.0
 10
163.2363280429068
 20
100.3952344146022
 30
0.0
  0
LINE
  5
103
330
1F
100
AcDbEntity
  8
0
  6
Continuous
 62
     7
370
    15
100
AcDbLine
 10
162.1364946259
 20
117.390933803
 30
0.0
 11
162.1364946259
 21
101.3902385796
 31
0.0
  0
SPLINE
  5
104
330
1F
100
AcDbEntity
  8
0
  6
Continuous
 62
     7
370
    15
100
AcDbSpline
210
0.0
220
0.0
230
1.0
 70
     8
 71
     3
 72
    11
 73
     7
 74
     0
 42
0.000000001
 43
0.00000001
 40
0.0
 40
0.0
 40
0.0
 40
0.0
 40
0.23877035758297
 40
0.4999999999937021
 40
0.7612296424031315
 40
1.0
 40
1.0
 40
1.0
 40
1.0
 10
164.1364946259068
 20
133.3902385796022
 30
0.0
 10
164.1209161314837
 20
133.5232342064678
 30
0.0
 10
164.0882937938941
 20
133.8017353324248
 30
0.0
 10
163.8271119939806
 20
134.153616347696
 30
0.0
 10
163.4509142467258
 20
134.3783638426526
 30
0.0
 10
163.1705476669349
 20
134.383019485559
 30
0.0
 10
163.0366612099068
 20
134.3852427446022
 30
0.0
  0
LINE
  5
105
330
1F
100
AcDbEntity
  8
0
  6
Continuous
 62
     7
370
    15
100
AcDbLine
 10
164.1364946259
 20
117.3895433562
 30
0.0
 11
164.1364946259
 21
133.3902385796
 31
0.0
  0
SPLINE
  5
106
330
1F
100
AcDbEntity
  8
0
  6
Continuous
 62
     7
370
    15
100
AcDbSpline
210
0.0
220
0.0
230
1.0
 70
     8
 71
     3
 72
    11
 73
     7
 74
     0
 42
0.000000001
 43
0.00000001
 40
0.0
 40
0.0
 40
0.0
 40
0.0
 40
0.2387703575968685
 40
0.5000000000062979
 40
0.7612296424170301
 40
1.0
 40
1.0
 40
1.0
 40
1.0
 10
163.0366612099068
 20
100.3952344146022
 30
0.0
 10
163.1705476669349
 20
100.3974576736453
 30
0.0
 10
163.4509142467257
 20
100.4021133165517
 30
0.0
 10
163.8271119939806
 20
100.6268608115084
 30
0.0
 10
164.0882937938941
 20
100.9787418267796
 30
0.0
 10
164.1209161314837
 20
101.2572429527365
 30
0.0
 10
164.1364946259068
 20
101.3902385796022
 30
0.0
  0
LINE
  5
107
330
1F
100
AcDbEntity
  8
0
  6
Continuous
 62
     7
370
    15
100
AcDbLine
 10
164.1364946259
 20
101.3902385796
 30
0.0
 11
164.1364946259
 21
117.3895433562
 31
0.0
  0
LINE
  5
108
330
1F
100
AcDbEntity
  8
0
  6
Continuous
 62
     7
370
    15
100
AcDbLine
 10
151.1409095377
 20
148.8902385796
 30
0.0
 11
151.1409095377
 21
85.8902385796
 31
0.0
  0
LINE
  5
109
330
1F
100
AcDbEntity
  8
0
  6
Continuous
 62
     7
370
    15
100
AcDbLine
 10
141.1846979841
 20
148.8902385796
 30
0.0
 11
141.1846979841
 21
85.8902385796
 31
0.0
  0
LINE
  5
10A
330
1F
100
AcDbEntity
  8
0
  6
Continuous
 62
     7
370
    15
100
AcDbLine
 10
132.7279227317
 20
87.1205176247
 30
0.0
 11
132.7279227309
 21
117.3902385739
 31
0.0
  0
LINE
  5
10B
330
1F
100
AcDbEntity
  8
0
  6
Continuous
 62
     7
370
    15
100
AcDbLine
 10
132.7279227309
 20
117.3902385796
 30
0.0
 11
132.7279227313
 21
147.6936984579
 31
0.0
  0
SPLINE
  5
10C
330
1F
100
AcDbEntity
  8
0
  6
Continuous
 62
     7
370
    15
100
AcDbSpline
210
0.0
220
0.0
230
1.0
 70
    24
 71
     3
 72
    10
 73
     6
 74
     0
 42
0.000000001
 43
0.00000001
 40
0.0
 40
0.0
 40
0.0
 40
0.0
 40
0.5
 40
0.5
 40
1.0
 40
1.0
 40
1.0
 40
1.0
 10
132.4450800187552
 20
117.3902385796022
 30
0.0
 10
132.4811597585767
 20
117.3902385796022
 30
0.0
 10
132.5258437405847
 20
117.3902385796022
 30
0.0
 10
132.6238549750893
 20
117.3902385796022
 30
0.0
 10
132.676898273089
 20
117.3902385796022
 30
0.0
 10
132.7279227309327
 20
117.3902385796022
 30
0.0
  0
SPLINE
  5
10D
330
1F
100
AcDbEntity
  8
0
  6
Continuous
 62
     7
370
    15
100
AcDbSpline
210
0.0
220
0.0
230
1.0
 70
     8
 71
     3
 72
    10
 73
     6
 74
     0
 42
0.000000001
 43
0.00000001
 40
0.0
 40
0.0
 40
0.0
 40
0.0
 40
0.5
 40
0.5
 40
1.0
 40
1.0
 40
1.0
 40
1.0
 10
132.4450800197904
 20
87.20221142102324
 30
0.0
 10
132.4782662870774
 20
87.17903072102254
 30
0.0
 10
132.5189947802413
 20
87.1587398470771
 30
0.0
 10
132.615287176672
 20
87.12928632732785
 30
0.0
 10
132.6708516950012
 20
87.12051762453015
 30
0.0
 10
132.7279227325394
 20
87.12051762482014
 30
0.0
  0
LINE
  5
10E
330
1F
100
AcDbEntity
  8
0
  6
Continuous
 62
     7
370
    15
100
AcDbLine
 10
132.4450800188
 20
117.3902385796
 30
0.0
 11
132.4450800183
 21
87.202211422
 31
0.0
  0
LINE
  5
10F
330
1F
100
AcDbEntity
  8
0
  6
Continuous
 62
     7
370
    15
100
AcDbLine
 10
132.445080018
 20
147.5987800473
 30
0.0
 11
132.4450800188
 21
117.3902385796
 31
0.0
  0
SPLINE
  5
110
330
1F
100
AcDbEntity
  8
0
  6
Continuous
 62
     7
370
    15
100
AcDbSpline
210
0.0
220
0.0
230
1.0
 70
     8
 71
     3
 72
     8
 73
     4
 74
     0
 42
0.000000001
 43
0.00000001
 40
0.0
 40
0.0
 40
0.0
 40
0.0
 40
1.0
 40
1.0
 40
1.0
 40
1.0
 10
132.727922731596
 20
147.693698458161
 30
0.0
 10
132.6194480773156
 20
147.6936984582256
 30
0.0
 10
132.5162758463356
 20
147.6564951306362
 30
0.0
 10
132.4450800179752
 20
147.5987800472807
 30
0.0
  0
SPLINE
  5
111
330
1F
100
AcDbEntity
  8
0
  6
Continuous
 62
     7
370
    15
100
AcDbSpline
210
0.0
220
0.0
230
1.0
 70
    24
 71
     3
 72
    10
 73
     6
 74
     0
 42
0.000000001
 43
0.00000001
 40
0.0
 40
0.0
 40
0.0
 40
0.0
 40
0.5
 40
0.5
 40
1.0
 40
1.0
 40
1.0
 40
1.0
 10
155.3965518808809
 20
117.3902385796022
 30
0.0
 10
155.4475763387246
 20
117.3902385796022
 30
0.0
 10
155.5006196367243
 20
117.3902385796022
 30
0.0
 10
155.5986308712289
 20
117.3902385796022
 30
0.0
 10
155.6433148532369
 20
117.3902385796022
 30
0.0
 10
155.6793945930584
 20
117.3902385796022
 30
0.0
  0
LINE
  5
112
330
1F
100
AcDbEntity
  8
0
  6
Continuous
 62
     7
370
    15
100
AcDbLine
 10
148.6622373059
 20
144.5970524911
 30
0.0
 11
148.6622373059
 21
90.1834246681
 31
0.0
  0
LINE
  5
113
330
1F
100
AcDbEntity
  8
0
  6
Continuous
 62
     7
370
    15
100
AcDbLine
 10
143.6622373059
 20
144.5990145964
 30
0.0
 11
143.6622373059
 21
90.1814625628
 31
0.0
  0
LINE
  5
114
330
1F
100
AcDbEntity
  8
0
  6
Continuous
 62
     7
370
    15
100
AcDbLine
 10
131.6793945926
 20
88.0153454386
 30
0.0
 11
131.6793945932
 21
117.3902385796
 31
0.0
  0
LINE
  5
115
330
1F
100
AcDbEntity
  8
0
  6
Continuous
 62
     7
370
    15
100
AcDbLine
 10
131.6793945932
 20
117.3902385796
 30
0.0
 11
131.6793945939
 21
146.7651317211
 31
0.0
  0
SPLINE
  5
116
330
1F
100
AcDbEntity
  8
0
  6
Continuous
 62
     7
370
    15
100
AcDbSpline
210
0.0
220
0.0
230
1.0
 70
    24
 71
     3
 72
    10
 73
     6
 74
     0
 42
0.000000001
 43
0.00000001
 40
0.0
 40
0.0
 40
0.0
 40
0.0
 40
0.5
 40
0.5
 40
1.0
 40
1.0
 40
1.0
 40
1.0
 10
131.5622373058887
 20
117.3902385796022
 30
0.0
 10
131.5622373057775
 20
117.3902385796022
 30
0.0
 10
131.5723867014624
 20
117.3902385796022
 30
0.0
 10
131.6129842841384
 20
117.3902385796022
 30
0.0
 10
131.6433148533165
 20
117.3902385796022
 30
0.0
 10
131.679394593164
 20
117.3902385796022
 30
0.0
  0
SPLINE
  5
117
330
1F
100
AcDbEntity
  8
0
  6
Continuous
 62
     7
370
    15
100
AcDbSpline
210
0.0
220
0.0
230
1.0
 70
    24
 71
     3
 72
    31
 73
    27
 74
     0
 42
0.000000001
 43
0.00000001
 40
0.0
 40
0.0
 40
0.0
 40
0.0
 40
0.0132582450147432
 40
0.0265035409798891
 40
0.0397396742323897
 40
0.0529704389756644
 40
0.0661996340322853
 40
0.0794310595768233
 40
0.0926685138628822
 40
0.1059157899583907
 40
0.1191766725031561
 40
0.1811173391905006
 40
0.2430716069741827
 40
0.3067153881404526
 40
0.3703731444094577
 40
0.4993814642183667
 40
0.6284749664215175
 40
0.6922434269622426
 40
0.7560258899798421
 40
0.8181636483429916
 40
0.8803150510841169
 40
0.9042723331723326
 40
0.9281970335199773
 40
0.9521115797524011
 40
0.9760384280485885
 40
1.0
 40
1.0
 40
1.0
 40
1.0
 10
131.5622373059068
 20
117.3902385796022
 30
0.0
 10
131.5622373059068
 20
117.5615200415138
 30
0.0
 10
131.5622373059068
 20
117.9039156783285
 30
0.0
 10
131.5622373059068
 20
118.4171609355489
 30
0.0
 10
131.5622373059068
 20
118.9297581001165
 30
0.0
 10
131.5622373059068
 20
119.441707096861
 30
0.0
 10
131.5622373059068
 20
119.9530076604869
 30
0.0
 10
131.5622373059068
 20
120.4636601670645
 30
0.0
 10
131.5622373059068
 20
120.9736626182872
 30
0.0
 10
131.5622373059068
 20
121.4830218859111
 30
0.0
 10
131.5622373059068
 20
122.6138855386157
 30
0.0
 10
131.5622373059068
 20
124.3554133558638
 30
0.0
 10
131.5622373059068
 20
126.6919276553026
 30
0.0
 10
131.5622373059068
 20
128.9903995655675
 30
0.0
 10
131.5622373059068
 20
131.9991460089705
 30
0.0
 10
131.5622373059068
 20
135.5477335528506
 30
0.0
 10
131.5622373059068
 20
138.686134295293
 30
0.0
 10
131.5622373059068
 20
140.891099486857
 30
0.0
 10
131.5622373059068
 20
142.3659790238677
 30
0.0
 10
131.5622373059068
 20
143.667835195882
 30
0.0
 10
131.5622373059068
 20
144.5618345515805
 30
0.0
 10
131.5622373059068
 20
145.1548447150157
 30
0.0
 10
131.5622373059068
 20
145.5159710382555
 30
0.0
 10
131.5622373059068
 20
145.8500703245608
 30
0.0
 10
131.5622373059068
 20
146.1596083281017
 30
0.0
 10
131.5622373059068
 20
146.3432728610152
 30
0.0
 10
131.5622373059068
 20
146.4351717145913
 30
0.0
  0
SPLINE
  5
118
330
1F
100
AcDbEntity
  8
0
  6
Continuous
 62
     7
370
    15
100
AcDbSpline
210
0.0
220
0.0
230
1.0
 70
     8
 71
     3
 72
    10
 73
     6
 74
     0
 42
0.000000001
 43
0.00000001
 40
0.0
 40
0.0
 40
0.0
 40
0.0
 40
0.5
 40
0.5
 40
1.0
 40
1.0
 40
1.0
 40
1.0
 10
131.6793945933856
 20
146.7651317207853
 30
0.0
 10
131.6467406144722
 20
146.72150028813
 30
0.0
 10
131.6187604329877
 20
146.6728381170162
 30
0.0
 10
131.5761151296039
 20
146.561181835214
 30
0.0
 10
131.5622373053837
 20
146.4991474488606
 30
0.0
 10
131.5622373058903
 20
146.4351717109569
 30
0.0
  0
SPLINE
  5
119
330
1F
100
AcDbEntity
  8
0
  6
Continuous
 62
     7
370
    15
100
AcDbSpline
210
0.0
220
0.0
230
1.0
 70
     8
 71
     3
 72
    10
 73
     6
 74
     0
 42
0.000000001
 43
0.00000001
 40
0.0
 40
0.0
 40
0.0
 40
0.0
 40
0.5
 40
0.5
 40
1.0
 40
1.0
 40
1.0
 40
1.0
 10
131.5622373058887
 20
88.34530544740142
 30
0.0
 10
131.5622373055057
 20
88.28127045674681
 30
0.0
 10
131.576077956334
 20
88.21962154167869
 30
0.0
 10
131.6182315894923
 20
88.10879784783279
 30
0.0
 10
131.6467189812747
 20
88.05900577684656
 30
0.0
 10
131.6793945932502
 20
88.01534543860001
 30
0.0
  0
SPLINE
  5
11A
330
1F
100
AcDbEntity
  8
0
  6
Continuous
 62
     7
370
    15
100
AcDbSpline
210
0.0
220
0.0
230
1.0
 70
    24
 71
     3
 72
    31
 73
    27
 74
     0
 42
0.000000001
 43
0.00000001
 40
0.0
 40
0.0
 40
0.0
 40
0.0
 40
0.0133152966052435
 40
0.0266174735784236
 40
0.0399103661796725
 40
0.0531978177085856
 40
0.0664836761866984
 40
0.0797717910195109
 40
0.0930660096525079
 40
0.1063701742356818
 40
0.1196881183109806
 40
0.1818258734533437
 40
0.2439772729742962
 40
0.3077457304648086
 40
0.3715281904360387
 40
0.5006216873931876
 40
0.6296300019595564
 40
0.6932737810220133
 40
0.7569315351883792
 40
0.8188722000697766
 40
0.8808264660516522
 40
0.9046811864454917
 40
0.9285037511620373
 40
0.9523163012962788
 40
0.9761410058638814
 40
1.0
 40
1.0
 40
1.0
 40
1.0
 10
131.5622373059068
 20
88.34530544460041
 30
0.0
 10
131.5622373059068
 20
88.39572892353078
 30
0.0
 10
131.5622373059068
 20
88.49652619887148
 30
0.0
 10
131.5622373059068
 20
88.65823266946168
 30
0.0
 10
131.5622373059068
 20
88.82752167408056
 30
0.0
 10
131.5622373059068
 20
89.00515289714363
 30
0.0
 10
131.5622373059068
 20
89.19092282636912
 30
0.0
 10
131.5622373059068
 20
89.38488625502133
 30
0.0
 10
131.5622373059068
 20
89.58702714250771
 30
0.0
 10
131.5622373059068
 20
89.79735453451748
 30
0.0
 10
131.5622373059068
 20
90.28270436241401
 30
0.0
 10
131.5622373059068
 20
91.11256378307398
 30
0.0
 10
131.5622373059068
 20
92.41429218627442
 30
0.0
 10
131.5622373059068
 20
93.88926368611226
 30
0.0
 10
131.5622373059068
 20
96.09420578445936
 30
0.0
 10
131.5622373059068
 20
99.23274382980743
 30
0.0
 10
131.5622373059068
 20
102.7811769130045
 30
0.0
 10
131.5622373059068
 20
105.7899104447193
 30
0.0
 10
131.5622373059068
 20
108.0882063554681
 30
0.0
 10
131.5622373059068
 20
110.4249068627532
 30
0.0
 10
131.5622373059068
 20
112.3008894648803
 30
0.0
 10
131.5622373059068
 20
113.704043780439
 30
0.0
 10
131.5622373059068
 20
114.6225064750524
 30
0.0
 10
131.5622373059068
 20
115.5431409284537
 30
0.0
 10
131.5622373059068
 20
116.4659635105906
 30
0.0
 10
131.5622373059068
 20
117.0819992252201
 30
0.0
 10
131.5622373059068
 20
117.3902385796022
 30
0.0
  0
SPLINE
  5
11B
330
1F
100
AcDbEntity
  8
0
  6
Continuous
 62
     7
370
    15
100
AcDbSpline
210
0.0
220
0.0
230
1.0
 70
    24
 71
     3
 72
    34
 73
    30
 74
     0
 42
0.000000001
 43
0.00000001
 40
0.0
 40
0.0
 40
0.0
 40
0.0
 40
0.0095930006214599
 40
0.0191783340083746
 40
0.0287586535186303
 40
0.0383366166770566
 40
0.0479148829698189
 40
0.0574961116306572
 40
0.0670829594281753
 40
0.0766780784633719
 40
0.1200481628554055
 40
0.1634279673710554
 40
0.2123071650555933
 40
0.2611960278846037
 40
0.3144055304797739
 40
0.3705283148248498
 40
0.4295218252467548
 40
0.4912790545115021
 40
0.5556195739686334
 40
0.6222835997216206
 40
0.6909306308689073
 40
0.7611439555086141
 40
0.8324417199911538
 40
0.8683803487140193
 40
0.9043294149386241
 40
0.9402680437016334
 40
0.9762171099655658
 40
0.9881130541258186
 40
1.0
 40
1.0
 40
1.0
 40
1.0
 10
156.5622373059068
 20
117.3902385796022
 30
0.0
 10
156.5622373059068
 20
117.2218187397503
 30
0.0
 10
156.5622373059068
 20
116.8851136701091
 30
0.0
 10
156.5622373059068
 20
116.3803507226571
 30
0.0
 10
156.5622373059068
 20
115.8761309488436
 30
0.0
 10
156.5622373059068
 20
115.3724545781468
 30
0.0
 10
156.5622373059068
 20
114.8693212618921
 30
0.0
 10
156.5622373059068
 20
114.3667328648095
 30
0.0
 10
156.5622373059068
 20
113.8646829674312
 30
0.0
 10
156.5622373059068
 20
112.7750265211575
 30
0.0
 10
156.5622373059068
 20
111.1063073883934
 30
0.0
 10
156.5622373059068
 20
108.7949669096942
 30
0.0
 10
156.5622373059068
 20
106.4445569118716
 30
0.0
 10
156.5622373059068
 20
104.0121497745682
 30
0.0
 10
156.5622373059068
 20
101.5705985039824
 30
0.0
 10
156.5622373059068
 20
99.1190080869304
 30
0.0
 10
156.5622373059068
 20
96.72929528229163
 30
0.0
 10
156.5622373059068
 20
94.46007740692774
 30
0.0
 10
156.5622373059068
 20
92.37640485318002
 30
0.0
 10
156.5622373059068
 20
90.54659757072042
 30
0.0
 10
156.5622373059068
 20
89.03777040598717
 30
0.0
 10
156.5622373059068
 20
87.91044949107558
 30
0.0
 10
156.5622373059068
 20
87.3305225823025
 30
0.0
 10
156.5622373059068
 20
87.09523199966965
 30
0.0
 10
156.5622373059068
 20
87.03632353535434
 30
0.0
 10
156.5622373059068
 20
87.09501793665503
 30
0.0
 10
156.5622373059068
 20
87.23346969353719
 30
0.0
 10
156.5622373059068
 20
87.37368747959907
 30
0.0
 10
156.5622373059068
 20
87.44025459938575
 30
0.0
 10
156.5622373059068
 20
87.47352556640274
 30
0.0
  0
SPLINE
  5
11C
330
1F
100
AcDbEntity
  8
0
  6
Continuous
 62
     7
370
    15
100
AcDbSpline
210
0.0
220
0.0
230
1.0
 70
    24
 71
     3
 72
    10
 73
     6
 74
     0
 42
0.000000001
 43
0.00000001
 40
0.0
 40
0.0
 40
0.0
 40
0.0
 40
0.5
 40
0.5
 40
1.0
 40
1.0
 40
1.0
 40
1.0
 10
156.4450800186496
 20
117.3902385796022
 30
0.0
 10
156.4811597584971
 20
117.3902385796022
 30
0.0
 10
156.5114903276752
 20
117.3902385796022
 30
0.0
 10
156.5520879103512
 20
117.3902385796022
 30
0.0
 10
156.5622373060361
 20
117.3902385796022
 30
0.0
 10
156.5622373059249
 20
117.3902385796022
 30
0.0
  0
SPLINE
  5
11D
330
1F
100
AcDbEntity
  8
0
  6
Continuous
 62
     7
370
    15
100
AcDbSpline
210
0.0
220
0.0
230
1.0
 70
    24
 71
     3
 72
    35
 73
    31
 74
     0
 42
0.000000001
 43
0.00000001
 40
0.0
 40
0.0
 40
0.0
 40
0.0
 40
0.0097343062287828
 40
0.0194617938946311
 40
0.0291855111019707
 40
0.0389085094870969
 40
0.0486338413629651
 40
0.0583645568466364
 40
0.0681037009970383
 40
0.1024107879243037
 40
0.1367278385098949
 40
0.1710349254755392
 40
0.205351976098622
 40
0.2734129648086444
 40
0.3404387450736977
 40
0.4059693384352359
 40
0.4696069508774863
 40
0.531026539558155
 40
0.5899801142495408
 40
0.6462954374007056
 40
0.699870359691862
 40
0.7506642573922961
 40
0.7973244369523045
 40
0.8439938431179563
 40
0.8853950124416289
 40
0.9268054608558751
 40
0.9451125162749525
 40
0.9634004181259199
 40
0.9816894770905298
 40
1.0
 40
1.0
 40
1.0
 40
1.0
 10
156.5622373059068
 20
146.7911896293095
 30
0.0
 10
156.5622373059068
 20
146.8343769786991
 30
0.0
 10
156.5622373059068
 20
146.9207214261534
 30
0.0
 10
156.5622373059068
 20
147.0385000469344
 30
0.0
 10
156.5622373059068
 20
147.1476032620156
 30
0.0
 10
156.5622373059068
 20
147.2471952639659
 30
0.0
 10
156.5622373059068
 20
147.3375002424552
 30
0.0
 10
156.5622373059068
 20
147.4184567219077
 30
0.0
 10
156.5622373059068
 20
147.5502828454152
 30
0.0
 10
156.5622373059068
 20
147.6852551797055
 30
0.0
 10
156.5622373059068
 20
147.7442051269045
 30
0.0
 10
156.5622373059068
 20
147.6852432448516
 30
0.0
 10
156.5622373059068
 20
147.4499963461481
 30
0.0
 10
156.5622373059068
 20
146.8700251128327
 30
0.0
 10
156.5622373059068
 20
145.7427074172533
 30
0.0
 10
156.5622373059068
 20
144.2338794178758
 30
0.0
 10
156.5622373059068
 20
142.4040723488408
 30
0.0
 10
156.5622373059068
 20
140.3203997437429
 30
0.0
 10
156.5622373059068
 20
138.0511818710649
 30
0.0
 10
156.5622373059068
 20
135.6614691015153
 30
0.0
 10
156.5622373059068
 20
133.2098785518778
 30
0.0
 10
156.5622373059068
 20
130.7684768886683
 30
0.0
 10
156.5622373059068
 20
128.3360779267813
 30
0.0
 10
156.5622373059068
 20
125.9858420739918
 30
0.0
 10
156.5622373059068
 20
123.6743198590436
 30
0.0
 10
156.5622373059068
 20
121.8396988437208
 30
0.0
 10
156.5622373059068
 20
120.4146189175638
 30
0.0
 10
156.5622373059068
 20
119.4085294757633
 30
0.0
 10
156.5622373059068
 20
118.4001520111051
 30
0.0
 10
156.5622373059068
 20
117.7270079792784
 30
0.0
 10
156.5622373059068
 20
117.3902385796022
 30
0.0
  0
SPLINE
  5
11E
330
1F
100
AcDbEntity
  8
0
  6
Continuous
 62
     7
370
    15
100
AcDbSpline
210
0.0
220
0.0
230
1.0
 70
    24
 71
     3
 72
    14
 73
    10
 74
     0
 42
0.000000001
 43
0.00000001
 40
0.0
 40
0.0
 40
0.0
 40
0.0
 40
0.2500000000000002
 40
0.2500000000000002
 40
0.5000000000000001
 40
0.5000000000000001
 40
0.7500000000000001
 40
0.7500000000000001
 40
1.0
 40
1.0
 40
1.0
 40
1.0
 10
131.562237306173
 20
117.3902385796022
 30
0.0
 10
131.5622373060468
 20
117.3902385796022
 30
0.0
 10
131.5514979365601
 20
117.3902385796022
 30
0.0
 10
131.5027649763888
 20
117.3902385796022
 30
0.0
 10
131.4646062330155
 20
117.3902385796022
 30
0.0
 10
131.3669751602126
 20
117.3902385796022
 30
0.0
 10
131.30783313616
 20
117.3902385796022
 30
0.0
 10
131.1847361859493
 20
117.3902385796022
 30
0.0
 10
131.1211628715314
 20
117.3902385796022
 30
0.0
 10
131.0622373064645
 20
117.3902385796022
 30
0.0
  0
LINE
  5
11F
330
1F
100
AcDbEntity
  8
0
  6
Continuous
 62
     7
370
    15
100
AcDbLine
 10
129.5622373059
 20
117.3902385796
 30
0.0
 11
129.5622373059
 21
139.6152385796
 31
0.0
  0
LINE
  5
120
330
1F
100
AcDbEntity
  8
0
  6
Continuous
 62
     7
370
    15
100
AcDbLine
 10
129.5622373059
 20
95.1652385796
 30
0.0
 11
129.5622373059
 21
117.3902385796
 31
0.0
  0
LINE
  5
121
330
1F
100
AcDbEntity
  8
0
  6
Continuous
 62
     7
370
    15
100
AcDbLine
 10
130.0447513629
 20
117.3902385796
 30
0.0
 11
130.0447513629
 21
139.3902385796
 31
0.0
  0
LINE
  5
122
330
1F
100
AcDbEntity
  8
0
  6
Continuous
 62
     7
370
    15
100
AcDbLine
 10
130.0447513629
 20
95.3902385796
 30
0.0
 11
130.0447513629
 21
117.3902385796
 31
0.0
  0
SPLINE
  5
123
330
1F
100
AcDbEntity
  8
0
  6
Continuous
 62
     7
370
    15
100
AcDbSpline
210
0.0
220
0.0
230
1.0
 70
    24
 71
     3
 72
    14
 73
    10
 74
     0
 42
0.000000001
 43
0.00000001
 40
0.0
 40
0.0
 40
0.0
 40
0.0
 40
0.25
 40
0.25
 40
0.5
 40
0.5
 40
0.75
 40
0.75
 40
1.0
 40
1.0
 40
1.0
 40
1.0
 10
156.5622373055883
 20
117.3902385796022
 30
0.0
 10
156.5622373058386
 20
117.3902385796022
 30
0.0
 10
156.6051947836779
 20
117.3902385796022
 30
0.0
 10
156.8001266244084
 20
117.3902385796022
 30
0.0
 10
156.9527615980541
 20
117.3902385796022
 30
0.0
 10
157.3432858896391
 20
117.3902385796022
 30
0.0
 10
157.5798539860643
 20
117.3902385796022
 30
0.0
 10
158.0722417871713
 20
117.3902385796022
 30
0.0
 10
158.3265350448888
 20
117.3902385796022
 30
0.0
 10
158.5622373050688
 20
117.3902385796022
 30
0.0
  0
LINE
  5
124
330
1F
100
AcDbEntity
  8
0
  6
Continuous
 62
     7
370
    15
100
AcDbLine
 10
214.5643739811
 20
117.3902385796
 30
0.0
 11
214.5643739811
 21
129.8902385796
 31
0.0
  0
LINE
  5
125
330
1F
100
AcDbEntity
  8
0
  6
Continuous
 62
     7
370
    15
100
AcDbLine
 10
214.5643739811
 20
104.8902385796
 30
0.0
 11
214.5643739811
 21
117.3902385796
 31
0.0
  0
LINE
  5
126
330
1F
100
AcDbEntity
  8
0
  6
Continuous
 62
     7
370
    15
100
AcDbLine
 10
211.6776226351
 20
117.3902385796
 30
0.0
 11
211.6776226351
 21
134.8902385796
 31
0.0
  0
LINE
  5
127
330
1F
100
AcDbEntity
  8
0
  6
Continuous
 62
     7
370
    15
100
AcDbLine
 10
211.6776226351
 20
99.8902385796
 30
0.0
 11
211.6776226351
 21
117.3902385796
 31
0.0
  0
LINE
  5
128
330
1F
100
AcDbEntity
  8
0
  6
Continuous
 62
     7
370
    15
100
AcDbLine
 10
196.5643739811
 20
117.3902385796
 30
0.0
 11
196.5643739811
 21
134.8902385796
 31
0.0
  0
LINE
  5
129
330
1F
100
AcDbEntity
  8
0
  6
Continuous
 62
     7
370
    15
100
AcDbLine
 10
196.5643739811
 20
99.8902385796
 30
0.0
 11
196.5643739811
 21
117.3902385796
 31
0.0
  0
LINE
  5
12A
330
1F
100
AcDbEntity
  8
0
  6
Continuous
 62
     7
370
    15
100
AcDbLine
 10
195.5643739811
 20
117.3902385796
 30
0.0
 11
195.5643739811
 21
133.8902385796
 31
0.0
  0
LINE
  5
12B
330
1F
100
AcDbEntity
  8
0
  6
Continuous
 62
     7
370
    15
100
AcDbLine
 10
195.5643739811
 20
100.8902385796
 30
0.0
 11
195.5643739811
 21
117.3902385796
 31
0.0
  0
LINE
  5
12C
330
1F
100
AcDbEntity
  8
0
  6
Continuous
 62
     7
370
    15
100
AcDbLine
 10
161.6622373059
 20
117.3902385796
 30
0.0
 11
161.6622373059
 21
100.3902385796
 31
0.0
  0
LINE
  5
12D
330
1F
100
AcDbEntity
  8
0
  6
Continuous
 62
     7
370
    15
100
AcDbLine
 10
161.6622373059
 20
134.3902385796
 30
0.0
 11
161.6622373059
 21
117.3902385796
 31
0.0
  0
LINE
  5
12E
330
1F
100
AcDbEntity
  8
0
  6
Continuous
 62
     7
370
    15
100
AcDbLine
 10
161.9622373059
 20
117.3902385796
 30
0.0
 11
161.9622373059
 21
100.6902385796
 31
0.0
  0
LINE
  5
12F
330
1F
100
AcDbEntity
  8
0
  6
Continuous
 62
     7
370
    15
100
AcDbLine
 10
161.9622373059
 20
134.0902385796
 30
0.0
 11
161.9622373059
 21
117.3902385796
 31
0.0
  0
LINE
  5
130
330
1F
100
AcDbEntity
  8
0
  6
Continuous
 62
     7
370
    15
100
AcDbLine
 10
184.1622373059
 20
134.3902385796
 30
0.0
 11
184.1622373059
 21
100.3902385796
 31
0.0
  0
LINE
  5
131
330
1F
100
AcDbEntity
  8
0
  6
Continuous
 62
     7
370
    15
100
AcDbLine
 10
183.8622373059
 20
134.0902385796
 30
0.0
 11
183.8622373059
 21
100.6902385796
 31
0.0
  0
LINE
  5
132
330
1F
100
AcDbEntity
  8
0
  6
Continuous
 62
     7
370
    15
100
AcDbLine
 10
185.3622373059
 20
117.3902385796
 30
0.0
 11
185.3622373059
 21
100.3902385796
 31
0.0
  0
LINE
  5
133
330
1F
100
AcDbEntity
  8
0
  6
Continuous
 62
     7
370
    15
100
AcDbLine
 10
185.3622373059
 20
134.3902385796
 30
0.0
 11
185.3622373059
 21
117.3902385796
 31
0.0
  0
LINE
  5
134
330
1F
100
AcDbEntity
  8
0
  6
Continuous
 62
     7
370
    15
100
AcDbLine
 10
164.5622373059
 20
134.2902385796
 30
0.0
 11
164.5622373059
 21
100.4902385796
 31
0.0
  0
LINE
  5
135
330
1F
100
AcDbEntity
  8
0
  6
Continuous
 62
     7
370
    15
100
AcDbLine
 10
164.2622373059
 20
133.9902385796
 30
0.0
 11
164.2622373059
 21
100.7902385796
 31
0.0
  0
LINE
  5
136
330
1F
100
AcDbEntity
  8
0
  6
Continuous
 62
     7
370
    15
100
AcDbLine
 10
182.9622373059
 20
117.3902385796
 30
0.0
 11
182.9622373059
 21
100.4902385796
 31
0.0
  0
LINE
  5
137
330
1F
100
AcDbEntity
  8
0
  6
Continuous
 62
     7
370
    15
100
AcDbLine
 10
182.9622373059
 20
134.2902385796
 30
0.0
 11
182.9622373059
 21
117.3902385796
 31
0.0
  0
LINE
  5
138
330
1F
100
AcDbEntity
  8
0
  6
Continuous
 62
     7
370
    15
100
AcDbLine
 10
183.2622373059
 20
133.9902385796
 30
0.0
 11
183.2622373059
 21
100.7902385796
 31
0.0
  0
SPLINE
  5
139
330
1F
100
AcDbEntity
  8
0
  6
Continuous
 62
     7
370
    15
100
AcDbSpline
210
0.0
220
0.0
230
1.0
 70
    24
 71
     3
 72
    14
 73
    10
 74
     0
 42
0.000000001
 43
0.00000001
 40
0.0
 40
0.0
 40
0.0
 40
0.0
 40
0.25
 40
0.25
 40
0.5
 40
0.5
 40
0.75
 40
0.75
 40
1.0
 40
1.0
 40
1.0
 40
1.0
 10
64.16223730619198
 20
117.3902385796022
 30
0.0
 10
64.1622373061839
 20
117.3902385796022
 30
0.0
 10
64.1805414880391
 20
117.3902385796022
 30
0.0
 10
64.26164741216377
 20
117.3902385796022
 30
0.0
 10
64.32463150945911
 20
117.3902385796022
 30
0.0
 10
64.48702571283638
 20
117.3902385796022
 30
0.0
 10
64.58607110886913
 20
117.3902385796022
 30
0.0
 10
64.79783209492342
 20
117.3902385796022
 30
0.0
 10
64.9100536292805
 20
117.3902385796022
 30
0.0
 10
65.01792907887254
 20
117.3902385796022
 30
0.0
  0
SPLINE
  5
13A
330
1F
100
AcDbEntity
  8
0
  6
Continuous
 62
     7
370
    15
100
AcDbSpline
210
0.0
220
0.0
230
1.0
 70
    24
 71
     3
 72
    22
 73
    18
 74
     0
 42
0.000000001
 43
0.00000001
 40
0.0
 40
0.0
 40
0.0
 40
0.0
 40
0.125
 40
0.125
 40
0.25
 40
0.25
 40
0.375
 40
0.375
 40
0.5
 40
0.5
 40
0.625
 40
0.625
 40
0.75
 40
0.75
 40
0.875
 40
0.875
 40
1.0
 40
1.0
 40
1.0
 40
1.0
 10
64.162237306192
 20
117.3902385796022
 30
0.0
 10
64.162237306192
 20
117.882849692956
 30
0.0
 10
64.16223730619201
 20
118.4065552191346
 30
0.0
 10
64.16223730619201
 20
119.5126830163053
 30
0.0
 10
64.16223730619201
 20
120.0952647252493
 30
0.0
 10
64.16223730619203
 20
121.3059057974266
 30
0.0
 10
64.16223730619201
 20
121.9341267737772
 30
0.0
 10
64.16223730619201
 20
123.2077886348404
 30
0.0
 10
64.162237306192
 20
123.8532963868008
 30
0.0
 10
64.16223730619201
 20
125.1143808369878
 30
0.0
 10
64.16223730619198
 20
125.7297777431081
 30
0.0
 10
64.162237306192
 20
126.8656766661554
 30
0.0
 10
64.162237306192
 20
127.3856419315368
 30
0.0
 10
64.16223730619201
 20
128.2583647344442
 30
0.0
 10
64.162237306192
 20
128.610345718152
 30
0.0
 10
64.162237306192
 20
129.0879161608427
 30
0.0
 10
64.16223730619198
 20
129.2129053001461
 30
0.0
 10
64.162237306192
 20
129.2129053001567
 30
0.0
  0
SPLINE
  5
13B
330
1F
100
AcDbEntity
  8
0
  6
Continuous
 62
     7
370
    15
100
AcDbSpline
210
0.0
220
0.0
230
1.0
 70
    24
 71
     3
 72
    22
 73
    18
 74
     0
 42
0.000000001
 43
0.00000001
 40
0.0
 40
0.0
 40
0.0
 40
0.0
 40
0.125
 40
0.125
 40
0.25
 40
0.25
 40
0.375
 40
0.375
 40
0.5
 40
0.5
 40
0.625
 40
0.625
 40
0.75
 40
0.75
 40
0.875
 40
0.875
 40
1.0
 40
1.0
 40
1.0
 40
1.0
 10
64.16223730619197
 20
105.5675718590476
 30
0.0
 10
64.16223730619197
 20
105.5675718590371
 30
0.0
 10
64.16223730619197
 20
105.6925609983221
 30
0.0
 10
64.16223730619198
 20
106.1701314409843
 30
0.0
 10
64.16223730619197
 20
106.5221124246819
 30
0.0
 10
64.16223730619201
 20
107.3948352275772
 30
0.0
 10
64.16223730619197
 20
107.9148004929566
 30
0.0
 10
64.16223730619198
 20
109.0506994160057
 30
0.0
 10
64.16223730619195
 20
109.6660963221299
 30
0.0
 10
64.16223730619197
 20
110.9271807723278
 30
0.0
 10
64.16223730619197
 20
111.5726885242951
 30
0.0
 10
64.16223730619197
 20
112.846350385373
 30
0.0
 10
64.16223730619197
 20
113.4745713617313
 30
0.0
 10
64.16223730619198
 20
114.6852124339235
 30
0.0
 10
64.16223730619198
 20
115.2677941428747
 30
0.0
 10
64.16223730619198
 20
116.3739219400585
 30
0.0
 10
64.16223730619197
 20
116.8976274662431
 30
0.0
 10
64.16223730619197
 20
117.3902385796022
 30
0.0
  0
SPLINE
  5
13C
330
1F
100
AcDbEntity
  8
0
  6
Continuous
 62
     7
370
    15
100
AcDbSpline
210
0.0
220
0.0
230
1.0
 70
    24
 71
     3
 72
    10
 73
     6
 74
     0
 42
0.000000001
 43
0.00000001
 40
0.0
 40
0.0
 40
0.0
 40
0.0
 40
0.5
 40
0.5
 40
1.0
 40
1.0
 40
1.0
 40
1.0
 10
189.2016165962923
 20
117.3902385796022
 30
0.0
 10
189.1349499297233
 20
117.3902385796022
 30
0.0
 10
189.0634968117886
 20
117.3902385796022
 30
0.0
 10
188.9397363810131
 20
117.3902385796022
 30
0.0
 10
188.8885397680642
 20
117.3902385796022
 30
0.0
 10
188.8552064345671
 20
117.3902385796022
 30
0.0
  0
LINE
  5
13D
330
1F
100
AcDbEntity
  8
0
  6
Continuous
 62
     7
370
    15
100
AcDbLine
 10
190.9622373059
 20
128.3402385796
 30
0.0
 11
190.9622373059
 21
106.4402385796
 31
0.0
  0
LINE
  5
13E
330
1F
100
AcDbEntity
  8
0
  6
Continuous
 62
     7
370
    15
100
AcDbLine
 10
190.5333359219
 20
117.3902385796
 30
0.0
 11
190.5333359219
 21
106.6402385796
 31
0.0
  0
LINE
  5
13F
330
1F
100
AcDbEntity
  8
0
  6
Continuous
 62
     7
370
    15
100
AcDbLine
 10
190.5333359219
 20
128.1402385796
 30
0.0
 11
190.5333359219
 21
117.3902385796
 31
0.0
  0
LINE
  5
140
330
1F
100
AcDbEntity
  8
0
  6
Continuous
 62
     7
370
    15
100
AcDbLine
 10
131.5622373059
 20
147.7245531518
 30
0.0
 11
131.5622373059
 21
146.4351717103
 31
0.0
  0
LINE
  5
141
330
1F
100
AcDbEntity
  8
0
  6
Continuous
 62
     7
370
    15
100
AcDbLine
 10
131.5622373059
 20
88.3453054489
 30
0.0
 11
131.5622373059
 21
87.0559240074
 31
0.0
  0
LINE
  5
142
330
1F
100
AcDbEntity
  8
0
  6
Continuous
 62
     8
370
    15
100
AcDbLine
 10
155.3965518809
 20
148.8902385796
 30
0.0
 11
155.3965518809
 21
117.3902385796
 31
0.0
  0
LINE
  5
143
330
1F
100
AcDbEntity
  8
0
  6
Continuous
 62
     8
370
    15
100
AcDbLine
 10
155.3965518809
 20
117.3902385796
 30
0.0
 11
155.3965518809
 21
85.8902385796
 31
0.0
  0
LINE
  5
144
330
1F
100
AcDbEntity
  8
0
  6
Continuous
 62
     8
370
    15
100
AcDbLine
 10
132.7279227309
 20
148.8902385796
 30
0.0
 11
132.7279227313
 21
147.6936984579
 31
0.0
  0
LINE
  5
145
330
1F
100
AcDbEntity
  8
0
  6
Continuous
 62
     8
370
    15
100
AcDbLine
 10
132.7279227309
 20
87.1205176246
 30
0.0
 11
132.7279227309
 21
85.8902385796
 31
0.0
  0
LINE
  5
146
330
1F
100
AcDbEntity
  8
0
  6
Continuous
 62
     8
370
    15
100
AcDbLine
 10
155.6793945939
 20
86.0073958677
 30
0.0
 11
155.6793945939
 21
117.390238574
 31
0.0
  0
LINE
  5
147
330
1F
100
AcDbEntity
  8
0
  6
Continuous
 62
     8
370
    15
100
AcDbLine
 10
155.6793945939
 20
117.3902385796
 30
0.0
 11
155.6793945939
 21
148.7730812916
 31
0.0
  0
LINE
  5
148
330
1F
100
AcDbEntity
  8
0
  6
Continuous
 62
     8
370
    15
100
AcDbLine
 10
156.4450800186
 20
148.0073958669
 30
0.0
 11
156.4450800186
 21
117.3902385796
 31
0.0
  0
LINE
  5
149
330
1F
100
AcDbEntity
  8
0
  6
Continuous
 62
     8
370
    15
100
AcDbLine
 10
156.4450800186
 20
117.3902385796
 30
0.0
 11
156.4450800186
 21
86.7730812923
 31
0.0
  0
LINE
  5
14A
330
1F
100
AcDbEntity
  8
0
  6
Continuous
 62
     8
370
    15
100
AcDbLine
 10
131.6793945933
 20
148.007395867
 30
0.0
 11
131.6793945933
 21
146.7651317207
 31
0.0
  0
LINE
  5
14B
330
1F
100
AcDbEntity
  8
0
  6
Continuous
 62
     8
370
    15
100
AcDbLine
 10
131.6793945933
 20
88.0153454385
 30
0.0
 11
131.6793945933
 21
86.7730812923
 31
0.0
  0
LINE
  5
14C
330
1F
100
AcDbEntity
  8
0
  6
Continuous
 62
     8
370
    15
100
AcDbLine
 10
132.4450800188
 20
148.7730812925
 30
0.0
 11
132.4450800188
 21
147.5987800478
 31
0.0
  0
LINE
  5
14D
330
1F
100
AcDbEntity
  8
0
  6
Continuous
 62
     8
370
    15
100
AcDbLine
 10
132.4450800188
 20
87.2022114218
 30
0.0
 11
132.4450800188
 21
86.0073958667
 31
0.0
  0
LINE
  5
14E
330
1F
100
AcDbEntity
  8
0
  6
Continuous
 62
     8
370
    15
100
AcDbLine
 10
131.0622373065
 20
117.3902385796
 30
0.0
 11
131.0622373065
 21
139.3902385793
 31
0.0
  0
LINE
  5
14F
330
1F
100
AcDbEntity
  8
0
  6
Continuous
 62
     8
370
    15
100
AcDbLine
 10
131.0622373065
 20
95.3902385799
 30
0.0
 11
131.0622373065
 21
117.3902385776
 31
0.0
  0
LINE
  5
150
330
1F
100
AcDbEntity
  8
0
  6
Continuous
 62
     8
370
    15
100
AcDbLine
 10
65.0179290789
 20
117.3902385743
 30
0.0
 11
65.0179290789
 21
130.2024380866
 31
0.0
  0
LINE
  5
151
330
1F
100
AcDbEntity
  8
0
  6
Continuous
 62
     8
370
    15
100
AcDbLine
 10
65.0179290789
 20
104.5780390726
 30
0.0
 11
65.0179290789
 21
117.3902385743
 31
0.0
  0
LINE
  5
152
330
1F
100
AcDbEntity
  8
0
  6
Continuous
 62
     8
370
    15
100
AcDbLine
 10
158.5622373048
 20
117.3902385788
 30
0.0
 11
158.5622373048
 21
100.3902386205
 31
0.0
  0
LINE
  5
153
330
1F
100
AcDbEntity
  8
0
  6
Continuous
 62
     8
370
    15
100
AcDbLine
 10
158.5622373048
 20
117.3902385788
 30
0.0
 11
158.5622373048
 21
134.3902385793
 31
0.0
  0
LINE
  5
154
330
1F
100
AcDbEntity
  8
0
  6
Continuous
 62
     8
370
    15
100
AcDbLine
 10
188.8552064349
 20
128.3402385796
 30
0.0
 11
188.8552064349
 21
117.3902385796
 31
0.0
  0
LINE
  5
155
330
1F
100
AcDbEntity
  8
0
  6
Continuous
 62
     8
370
    15
100
AcDbLine
 10
188.8552064349
 20
117.3902385776
 30
0.0
 11
188.8552064349
 21
106.4402385796
 31
0.0
  0
LINE
  5
156
330
1F
100
AcDbEntity
  8
0
  6
Continuous
 62
     8
370
    15
100
AcDbLine
 10
189.2016165963
 20
128.1402385462
 30
0.0
 11
189.2016165963
 21
117.3902385796
 31
0.0
  0
LINE
  5
157
330
1F
100
AcDbEntity
  8
0
  6
Continuous
 62
     8
370
    15
100
AcDbLine
 10
189.2016165963
 20
117.3902385796
 30
0.0
 11
189.2016165963
 21
106.6402386094
 31
0.0
  0
LINE
  5
158
330
1F
100
AcDbEntity
  8
0
  6
Continuous
 62
     8
370
    15
100
AcDbLine
 10
163.136494627
 20
117.3902385796
 30
0.0
 11
163.1364946251
 21
134.3902385793
 31
0.0
  0
SPLINE
  5
159
330
1F
100
AcDbEntity
  8
0
  6
Continuous
 62
     8
370
    15
100
AcDbSpline
210
0.0
220
0.0
230
1.0
 70
    24
 71
     3
 72
    12
 73
     8
 74
     0
 42
0.000000001
 43
0.00000001
 40
0.0
 40
0.0
 40
0.0
 40
0.0
 40
0.2241662326834026
 40
0.4643897436992773
 40
0.7395482161148521
 40
0.991049868904867
 40
1.0
 40
1.0
 40
1.0
 40
1.0
 10
163.1364946270498
 20
117.3902385796022
 30
0.0
 10
163.0184494645157
 20
117.3902385796022
 30
0.0
 10
162.7739034322344
 20
117.3902385796022
 30
0.0
 10
162.430217736169
 20
117.3902385796022
 30
0.0
 10
162.2050508733575
 20
117.3902385796022
 30
0.0
 10
162.1104095231836
 20
117.3902385796022
 30
0.0
 10
162.138325947303
 20
117.3902385796022
 30
0.0
 10
162.1392852636565
 20
117.3902385796022
 30
0.0
  0
LINE
  5
15A
330
1F
100
AcDbEntity
  8
0
  6
Continuous
 62
     8
370
    15
100
AcDbLine
 10
163.1364946251
 20
100.39023858
 30
0.0
 11
163.136494627
 21
117.3902385796
 31
0.0
  0
SPLINE
  5
15B
330
1F
100
AcDbEntity
  8
0
  6
Continuous
 62
     8
370
    15
100
AcDbSpline
210
0.0
220
0.0
230
1.0
 70
    24
 71
     3
 72
    12
 73
     8
 74
     0
 42
0.000000001
 43
0.00000001
 40
0.0
 40
0.0
 40
0.0
 40
0.0
 40
0.0089501311068565
 40
0.2604517841901782
 40
0.5356102568151716
 40
0.7758337675077833
 40
1.0
 40
1.0
 40
1.0
 40
1.0
 10
164.1337039881618
 20
117.3902385796022
 30
0.0
 10
164.1346633045137
 20
117.3902385796022
 30
0.0
 10
164.1625797285822
 20
117.3902385796022
 30
0.0
 10
164.0679383786371
 20
117.3902385796022
 30
0.0
 10
163.8427715162968
 20
117.3902385796022
 30
0.0
 10
163.4990858209999
 20
117.3902385796022
 30
0.0
 10
163.2545397893225
 20
117.3902385796022
 30
0.0
 10
163.1364946270498
 20
117.3902385796022
 30
0.0
  0
DIMENSION
  5
15C
330
1F
100
AcDbEntity
  8
DIM
100
AcDbDimension
  2
_D
 10
221.3685909225
 20
134.3902385796
 30
0.0
 11
221.3685909225
 21
117.3902385796
 31
0.0
 70
   160
  1
%%c<>
 71
     2
 42
-1.0
  3
SLDDIMSTYLE0
100
AcDbAlignedDimension
 13
185.3622373059
 23
100.3902385796
 33
0.0
 14
185.3622373059
 24
134.3902385796
 34
0.0
 50
90.0
100
AcDbRotatedDimension
  0
DIMENSION
  5
169
330
1F
100
AcDbEntity
  8
DIM
100
AcDbDimension
  2
_D_1
 10
59.2429788737
 20
85.8902385796
 30
0.0
 11
59.2429788737
 21
117.3902385796
 31
0.0
 70
   160
  1
%%c<>
 71
     2
 42
-1.0
  3
SLDDIMSTYLE0
100
AcDbAlignedDimension
 13
132.7279227309
 23
148.8902385796
 33
0.0
 14
132.7279227309
 24
85.8902385796
 34
0.0
 50
90.0
100
AcDbRotatedDimension
  0
DIMENSION
  5
174
330
1F
100
AcDbEntity
  8
DIM
100
AcDbDimension
  2
_D_2
 10
226.5268701358
 20
99.8902385796
 30
0.0
 11
226.5268701358
 21
117.3902385796
 31
0.0
 70
   160
  1
%%c<>
 71
     2
 42
-1.0
  3
SLDDIMSTYLE0
100
AcDbAlignedDimension
 13
211.6776226351
 23
134.8902385796
 33
0.0
 14
211.6776226351
 24
99.8902385796
 34
0.0
 50
90.0
100
AcDbRotatedDimension
  0
DIMENSION
  5
17F
330
1F
100
AcDbEntity
  8
DIM
100
AcDbDimension
  2
_D_3
 10
129.5622373059
 20
77.7234185241
 30
0.0
 11
172.0633056435
 21
77.7234185241
 31
0.0
 70
   160
  1
<>
 71
     2
 42
-1.0
  3
SLDDIMSTYLE0
100
AcDbAlignedDimension
 13
214.5643739811
 23
104.8902385796
 33
0.0
 14
129.5622373059
 24
95.1652385796
 34
0.0
100
AcDbRotatedDimension
  0
DIMENSION
  5
189
330
1F
100
AcDbEntity
  8
DIM
100
AcDbDimension
  2
_D_4
 10
64.1622373061
 20
69.8902135796
 30
0.0
 11
139.3633056436
 21
69.8902135796
 31
0.0
 70
   160
  1
<>
 71
     2
 42
-1.0
  3
SLDDIMSTYLE1
100
AcDbAlignedDimension
 13
214.5643739811
 23
104.8902385796
 33
0.0
 14
64.1622373061
 24
117.3902385796
 34
0.0
 50
0.0
100
AcDbRotatedDimension
  0
MTEXT
  5
195
330
1F
100
AcDbEntity
  8
DIM
100
AcDbMText
 10
15.8401881644
 20
192.0889522029
 30
0.0
 40
4.2333333333
 41
0.0
 71
     1
 72
     1
  1
BT40 ER 20 085 AD+B MLC
  7
SLDTEXTSTYLE3
 73
     1
 44
1.0
  0
LINE
  5
196
330
1F
100
AcDbEntity
  8
DIM
  6
CENTERX2
370
     0
100
AcDbLine
 10
214.4773370072
 20
117.3902385796
 30
0.0
 11
63.0179290789
 21
117.3902385796
 31
0.0
  0
ENDSEC
  0
SECTION
  2
OBJECTS
  0
DICTIONARY
  5
C
330
0
100
AcDbDictionary
281
     1
  3
ACAD_GROUP
350
D
  3
ACAD_LAYOUT
350
1A
  3
ACAD_MLINESTYLE
350
17
  3
ACAD_PLOTSETTINGS
350
19
  3
ACAD_PLOTSTYLENAME
350
E
  3
ACAD_SCALELIST
350
47
  0
DICTIONARY
  5
D
102
{ACAD_REACTORS
330
C
102
}
330
C
100
AcDbDictionary
281
     1
  0
DICTIONARY
  5
1A
102
{ACAD_REACTORS
330
C
102
}
330
C
100
AcDbDictionary
281
     1
  3
Layout1
350
1E
  3
Layout2
350
26
  3
Model
350
22
  0
DICTIONARY
  5
17
102
{ACAD_REACTORS
330
C
102
}
330
C
100
AcDbDictionary
281
     1
  3
Standard
350
18
  0
DICTIONARY
  5
19
102
{ACAD_REACTORS
330
C
102
}
330
C
100
AcDbDictionary
281
     1
  0
ACDBDICTIONARYWDFLT
  5
E
102
{ACAD_REACTORS
330
C
102
}
330
C
100
AcDbDictionary
281
     1
  3
Normal
350
F
100
AcDbDictionaryWithDefault
340
F
  0
DICTIONARY
  5
47
102
{ACAD_REACTORS
330
C
102
}
330
C
100
AcDbDictionary
281
     1
  3
A0
350
48
  3
A1
350
49
  3
A2
350
4A
  3
A3
350
4B
  3
A4
350
4C
  3
A5
350
4D
  3
A6
350
4E
  3
A7
350
4F
  3
A8
350
50
  3
A9
350
51
  3
B0
350
52
  3
B1
350
53
  3
B2
350
54
  3
B3
350
55
  3
B4
350
56
  3
B5
350
57
  3
B6
350
58
  3
B7
350
59
  3
B8
350
5A
  3
B9
350
5B
  3
C0
350
5C
  3
C1
350
5D
  3
C2
350
5E
  3
C3
350
5F
  3
C4
350
60
  3
C5
350
61
  3
C6
350
62
  3
C7
350
63
  3
C8
350
64
  3
C9
350
65
  3
D0
350
66
  3
D1
350
67
  3
D2
350
68
  0
LAYOUT
  5
1E
102
{ACAD_REACTORS
330
1A
102
}
330
1A
100
AcDbPlotSettings
  1

  2
none_device
  4

  6

 40
0.0
 41
0.0
 42
0.0
 43
0.0
 44
0.0
 45
0.0
 46
0.0
 47
0.0
 48
0.0
 49
0.0
140
0.0
141
0.0
142
1.0
143
1.0
 70
   688
 72
     1
 73
     0
 74
     5
  7

 75
    16
147
1.0
148
0.0
149
0.0
100
AcDbLayout
  1
Layout1
 70
     1
 71
     1
 10
0.0
 20
0.0
 11
420.0
 21
297.0
 12
0.0
 22
0.0
 32
0.0
 14
1.0000000000E+20
 24
1.0000000000E+20
 34
1.0000000000E+20
 15
-1.0000000000E+20
 25
-1.0000000000E+20
 35
-1.0000000000E+20
146
0.0
 13
0.0
 23
0.0
 33
0.0
 16
1.0
 26
0.0
 36
0.0
 17
0.0
 27
1.0
 37
0.0
 76
     0
330
1B
  0
LAYOUT
  5
26
102
{ACAD_REACTORS
330
1A
102
}
330
1A
100
AcDbPlotSettings
  1

  2
none_device
  4

  6

 40
0.0
 41
0.0
 42
0.0
 43
0.0
 44
0.0
 45
0.0
 46
0.0
 47
0.0
 48
0.0
 49
0.0
140
0.0
141
0.0
142
1.0
143
1.0
 70
   688
 72
     1
 73
     0
 74
     5
  7

 75
    16
147
1.0
148
0.0
149
0.0
100
AcDbLayout
  1
Layout2
 70
     1
 71
     2
 10
0.0
 20
0.0
 11
0.0
 21
0.0
 12
0.0
 22
0.0
 32
0.0
 14
0.0
 24
0.0
 34
0.0
 15
0.0
 25
0.0
 35
0.0
146
0.0
 13
0.0
 23
0.0
 33
0.0
 16
1.0
 26
0.0
 36
0.0
 17
0.0
 27
1.0
 37
0.0
 76
     0
330
23
  0
LAYOUT
  5
22
102
{ACAD_REACTORS
330
1A
102
}
330
1A
100
AcDbPlotSettings
  1

  2
none_device
  4
Letter_(8.50_x_11.00_Inches)
  6

 40
6.35
 41
6.35
 42
6.35000508
 43
6.35000508
 44
215.9
 45
279.4
 46
0.0
 47
0.0
 48
0.0
 49
0.0
140
0.0
141
0.0
142
1.0
143
1.0
 70
  1712
 72
     1
 73
     0
 74
     0
  7

 75
     0
147
1.0
148
0.0
149
0.0
100
AcDbLayout
  1
Model
 70
     1
 71
     0
 10
0.0
 20
0.0
 11
297.0
 21
210.0
 12
0.0
 22
0.0
 32
0.0
 14
0.0
 24
0.0
 34
0.0
 15
297.0
 25
210.0
 35
0.0
146
0.0
 13
0.0
 23
0.0
 33
0.0
 16
1.0
 26
0.0
 36
0.0
 17
0.0
 27
1.0
 37
0.0
 76
     0
330
1F
331
29
  0
MLINESTYLE
  5
18
102
{ACAD_REACTORS
330
17
102
}
330
17
100
AcDbMlineStyle
  2
Standard
 70
     0
  3

 62
   256
 51
90.0
 52
90.0
 71
     2
 49
0.5
 62
   256
  6
BYLAYER
 49
-0.5
 62
   256
  6
BYLAYER
  0
ACDBPLACEHOLDER
  5
F
102
{ACAD_REACTORS
330
E
102
}
330
E
  0
SCALE
  5
48
102
{ACAD_REACTORS
330
47
102
}
330
47
100
AcDbScale
 70
     0
300
1:1
140
1.0
141
1.0
290
     1
  0
SCALE
  5
49
102
{ACAD_REACTORS
330
47
102
}
330
47
100
AcDbScale
 70
     0
300
1:2
140
1.0
141
2.0
290
     0
  0
SCALE
  5
4A
102
{ACAD_REACTORS
330
47
102
}
330
47
100
AcDbScale
 70
     0
300
1:4
140
1.0
141
4.0
290
     0
  0
SCALE
  5
4B
102
{ACAD_REACTORS
330
47
102
}
330
47
100
AcDbScale
 70
     0
300
1:5
140
1.0
141
5.0
290
     0
  0
SCALE
  5
4C
102
{ACAD_REACTORS
330
47
102
}
330
47
100
AcDbScale
 70
     0
300
1:8
140
1.0
141
8.0
290
     0
  0
SCALE
  5
4D
102
{ACAD_REACTORS
330
47
102
}
330
47
100
AcDbScale
 70
     0
300
1:10
140
1.0
141
10.0
290
     0
  0
SCALE
  5
4E
102
{ACAD_REACTORS
330
47
102
}
330
47
100
AcDbScale
 70
     0
300
1:16
140
1.0
141
16.0
290
     0
  0
SCALE
  5
4F
102
{ACAD_REACTORS
330
47
102
}
330
47
100
AcDbScale
 70
     0
300
1:20
140
1.0
141
20.0
290
     0
  0
SCALE
  5
50
102
{ACAD_REACTORS
330
47
102
}
330
47
100
AcDbScale
 70
     0
300
1:30
140
1.0
141
30.0
290
     0
  0
SCALE
  5
51
102
{ACAD_REACTORS
330
47
102
}
330
47
100
AcDbScale
 70
     0
300
1:40
140
1.0
141
40.0
290
     0
  0
SCALE
  5
52
102
{ACAD_REACTORS
330
47
102
}
330
47
100
AcDbScale
 70
     0
300
1:50
140
1.0
141
50.0
290
     0
  0
SCALE
  5
53
102
{ACAD_REACTORS
330
47
102
}
330
47
100
AcDbScale
 70
     0
300
1:100
140
1.0
141
100.0
290
     0
  0
SCALE
  5
54
102
{ACAD_REACTORS
330
47
102
}
330
47
100
AcDbScale
 70
     0
300
2:1
140
2.0
141
1.0
290
     0
  0
SCALE
  5
55
102
{ACAD_REACTORS
330
47
102
}
330
47
100
AcDbScale
 70
     0
300
4:1
140
4.0
141
1.0
290
     0
  0
SCALE
  5
56
102
{ACAD_REACTORS
330
47
102
}
330
47
100
AcDbScale
 70
     0
300
8:1
140
8.0
141
1.0
290
     0
  0
SCALE
  5
57
102
{ACAD_REACTORS
330
47
102
}
330
47
100
AcDbScale
 70
     0
300
10:1
140
10.0
141
1.0
290
     0
  0
SCALE
  5
58
102
{ACAD_REACTORS
330
47
102
}
330
47
100
AcDbScale
 70
     0
300
100:1
140
100.0
141
1.0
290
     0
  0
SCALE
  5
59
102
{ACAD_REACTORS
330
47
102
}
330
47
100
AcDbScale
 70
     0
300
1/128" = 1'-0"
140
0.0078125
141
12.0
290
     0
  0
SCALE
  5
5A
102
{ACAD_REACTORS
330
47
102
}
330
47
100
AcDbScale
 70
     0
300
1/64" = 1'-0"
140
0.015625
141
12.0
290
     0
  0
SCALE
  5
5B
102
{ACAD_REACTORS
330
47
102
}
330
47
100
AcDbScale
 70
     0
300
1/32" = 1'-0"
140
0.03125
141
12.0
290
     0
  0
SCALE
  5
5C
102
{ACAD_REACTORS
330
47
102
}
330
47
100
AcDbScale
 70
     0
300
1/16" = 1'-0"
140
0.0625
141
12.0
290
     0
  0
SCALE
  5
5D
102
{ACAD_REACTORS
330
47
102
}
330
47
100
AcDbScale
 70
     0
300
3/32" = 1'-0"
140
0.09375
141
12.0
290
     0
  0
SCALE
  5
5E
102
{ACAD_REACTORS
330
47
102
}
330
47
100
AcDbScale
 70
     0
300
1/8" = 1'-0"
140
0.125
141
12.0
290
     0
  0
SCALE
  5
5F
102
{ACAD_REACTORS
330
47
102
}
330
47
100
AcDbScale
 70
     0
300
3/16" = 1'-0"
140
0.1875
141
12.0
290
     0
  0
SCALE
  5
60
102
{ACAD_REACTORS
330
47
102
}
330
47
100
AcDbScale
 70
     0
300
1/4" = 1'-0"
140
0.25
141
12.0
290
     0
  0
SCALE
  5
61
102
{ACAD_REACTORS
330
47
102
}
330
47
100
AcDbScale
 70
     0
300
3/8" = 1'-0"
140
0.375
141
12.0
290
     0
  0
SCALE
  5
62
102
{ACAD_REACTORS
330
47
102
}
330
47
100
AcDbScale
 70
     0
300
1/2" = 1'-0"
140
0.5
141
12.0
290
     0
  0
SCALE
  5
63
102
{ACAD_REACTORS
330
47
102
}
330
47
100
AcDbScale
 70
     0
300
3/4" = 1'-0"
140
0.75
141
12.0
290
     0
  0
SCALE
  5
64
102
{ACAD_REACTORS
330
47
102
}
330
47
100
AcDbScale
 70
     0
300
1" = 1'-0"
140
1.0
141
12.0
290
     0
  0
SCALE
  5
65
102
{ACAD_REACTORS
330
47
102
}
330
47
100
AcDbScale
 70
     0
300
1-1/2" = 1'-0"
140
1.5
141
12.0
290
     0
  0
SCALE
  5
66
102
{ACAD_REACTORS
330
47
102
}
330
47
100
AcDbScale
 70
     0
300
3" = 1'-0"
140
3.0
141
12.0
290
     0
  0
SCALE
  5
67
102
{ACAD_REACTORS
330
47
102
}
330
47
100
AcDbScale
 70
     0
300
6" = 1'-0"
140
6.0
141
12.0
290
     0
  0
SCALE
  5
68
102
{ACAD_REACTORS
330
47
102
}
330
47
100
AcDbScale
 70
     0
300
1'-0" = 1'-0"
140
12.0
141
12.0
290
     0
  0
ENDSEC
  0
EOF
