  0
SECTION
  2
HEADER
  9
$ACADVER
  1
AC1015
  9
$ACADMAINTVER
 70
     6
  9
$DWGCODEPAGE
  3
ANSI_1252
  9
$INSBASE
 10
0.0
 20
0.0
 30
0.0
  9
$EXTMIN
 10
0.0
 20
0.0
 30
0.0
  9
$EXTMAX
 10
475.2
 20
336.0
 30
0.0
  9
$LIMMIN
 10
0.0
 20
0.0
  9
$LIMMAX
 10
475.2
 20
336.0
  9
$ORTHOMODE
 70
     0
  9
$REGENMODE
 70
     1
  9
$FILLMODE
 70
     1
  9
$QTEXTMODE
 70
     0
  9
$MIRRTEXT
 70
     1
  9
$LTSCALE
 40
1.6
  9
$ATTMODE
 70
     1
  9
$TEXTSIZE
 40
6.2088888889
  9
$TRACEWID
 40
1.0
  9
$TEXTSTYLE
  7
Standard
  9
$CLAYER
  8
0
  9
$CELTYPE
  6
ByLayer
  9
$CECOLOR
 62
   256
  9
$CELTSCALE
 40
1.0
  9
$DISPSILH
 70
     0
  9
$DIMSCALE
 40
1.0
  9
$DIMASZ
 40
5.2832
  9
$DIMEXO
 40
1.6
  9
$DIMDLI
 40
3.75
  9
$DIMRND
 40
0.0
  9
$DIMDLE
 40
0.0
  9
$DIMEXE
 40
1.6
  9
$DIMTP
 40
0.0
  9
$DIMTM
 40
0.0
  9
$DIMTXT
 40
6.2088888889
  9
$DIMCEN
 40
2.5
  9
$DIMTSZ
 40
0.0
  9
$DIMTOL
 70
     0
  9
$DIMLIM
 70
     0
  9
$DIMTIH
 70
     1
  9
$DIMTOH
 70
     1
  9
$DIMSE1
 70
     0
  9
$DIMSE2
 70
     0
  9
$DIMTAD
 70
     1
  9
$DIMZIN
 70
     0
  9
$DIMBLK
  1

  9
$DIMASO
 70
     1
  9
$DIMSHO
 70
     1
  9
$DIMPOST
  1

  9
$DIMAPOST
  1

  9
$DIMALT
 70
     0
  9
$DIMALTD
 70
     3
  9
$DIMALTF
 40
0.0393700787
  9
$DIMLFAC
 40
1.0
  9
$DIMTOFL
 70
     1
  9
$DIMTVP
 40
0.0
  9
$DIMTIX
 70
     0
  9
$DIMSOXD
 70
     0
  9
$DIMSAH
 70
     0
  9
$DIMBLK1
  1

  9
$DIMBLK2
  1

  9
$DIMSTYLE
  2
ISO-25
  9
$DIMCLRD
 70
     0
  9
$DIMCLRE
 70
     0
  9
$DIMCLRT
 70
     0
  9
$DIMTFAC
 40
1.0
  9
$DIMGAP
 40
2.4384
  9
$DIMJUST
 70
     0
  9
$DIMSD1
 70
     0
  9
$DIMSD2
 70
     0
  9
$DIMTOLJ
 70
     0
  9
$DIMTZIN
 70
     0
  9
$DIMALTZ
 70
     0
  9
$DIMALTTZ
 70
     0
  9
$DIMUPT
 70
     0
  9
$DIMDEC
 70
     2
  9
$DIMTDEC
 70
     2
  9
$DIMALTU
 70
     2
  9
$DIMALTTD
 70
     3
  9
$DIMTXSTY
  7
Standard
  9
$DIMAUNIT
 70
     0
  9
$DIMADEC
 70
     2
  9
$DIMALTRND
 40
0.0
  9
$DIMAZIN
 70
     0
  9
$DIMDSEP
 70
    44
  9
$DIMATFIT
 70
     3
  9
$DIMFRAC
 70
     0
  9
$DIMLDRBLK
  1

  9
$DIMLUNIT
 70
     2
  9
$DIMLWD
 70
    -2
  9
$DIMLWE
 70
    -2
  9
$DIMTMOVE
 70
     0
  9
$LUNITS
 70
     2
  9
$LUPREC
 70
     2
  9
$SKETCHINC
 40
1.0
  9
$FILLETRAD
 40
10.0
  9
$AUNITS
 70
     1
  9
$AUPREC
 70
     2
  9
$MENU
  1
.
  9
$ELEVATION
 40
0.0
  9
$PELEVATION
 40
0.0
  9
$THICKNESS
 40
0.0
  9
$LIMCHECK
 70
     0
  9
$CHAMFERA
 40
0.0
  9
$CHAMFERB
 40
0.0
  9
$CHAMFERC
 40
0.0
  9
$CHAMFERD
 40
0.0
  9
$SKPOLY
 70
     0
  9
$TDCREATE
 40
2458606.651695834
  9
$TDUCREATE
 40
2458606.422529167
  9
$TDUPDATE
 40
2458606.651696991
  9
$TDUUPDATE
 40
2458606.422530324
  9
$TDINDWG
 40
0.0000000116
  9
$TDUSRTIMER
 40
0.0000000116
  9
$USRTIMER
 70
     1
  9
$ANGBASE
 50
0.0
  9
$ANGDIR
 70
     0
  9
$PDMODE
 70
     0
  9
$PDSIZE
 40
-1.0
  9
$PLINEWID
 40
0.0
  9
$SPLFRAME
 70
     0
  9
$SPLINETYPE
 70
     6
  9
$SPLINESEGS
 70
     8
  9
$HANDSEED
  5
1BD
  9
$SURFTAB1
 70
     6
  9
$SURFTAB2
 70
     6
  9
$SURFTYPE
 70
     6
  9
$SURFU
 70
     6
  9
$SURFV
 70
     6
  9
$UCSBASE
  2

  9
$UCSNAME
  2

  9
$UCSORG
 10
0.0
 20
0.0
 30
0.0
  9
$UCSXDIR
 10
1.0
 20
0.0
 30
0.0
  9
$UCSYDIR
 10
0.0
 20
1.0
 30
0.0
  9
$UCSORTHOREF
  2

  9
$UCSORTHOVIEW
 70
     0
  9
$UCSORGTOP
 10
0.0
 20
0.0
 30
0.0
  9
$UCSORGBOTTOM
 10
0.0
 20
0.0
 30
0.0
  9
$UCSORGLEFT
 10
0.0
 20
0.0
 30
0.0
  9
$UCSORGRIGHT
 10
0.0
 20
0.0
 30
0.0
  9
$UCSORGFRONT
 10
0.0
 20
0.0
 30
0.0
  9
$UCSORGBACK
 10
0.0
 20
0.0
 30
0.0
  9
$PUCSBASE
  2

  9
$PUCSNAME
  2

  9
$PUCSORG
 10
0.0
 20
0.0
 30
0.0
  9
$PUCSXDIR
 10
1.0
 20
0.0
 30
0.0
  9
$PUCSYDIR
 10
0.0
 20
1.0
 30
0.0
  9
$PUCSORTHOREF
  2

  9
$PUCSORTHOVIEW
 70
     0
  9
$PUCSORGTOP
 10
0.0
 20
0.0
 30
0.0
  9
$PUCSORGBOTTOM
 10
0.0
 20
0.0
 30
0.0
  9
$PUCSORGLEFT
 10
0.0
 20
0.0
 30
0.0
  9
$PUCSORGRIGHT
 10
0.0
 20
0.0
 30
0.0
  9
$PUCSORGFRONT
 10
0.0
 20
0.0
 30
0.0
  9
$PUCSORGBACK
 10
0.0
 20
0.0
 30
0.0
  9
$USERI1
 70
     0
  9
$USERI2
 70
     0
  9
$USERI3
 70
     0
  9
$USERI4
 70
     0
  9
$USERI5
 70
     0
  9
$USERR1
 40
0.0
  9
$USERR2
 40
0.0
  9
$USERR3
 40
0.0
  9
$USERR4
 40
0.0
  9
$USERR5
 40
0.0
  9
$WORLDVIEW
 70
     1
  9
$SHADEDGE
 70
     3
  9
$SHADEDIF
 70
    70
  9
$TILEMODE
 70
     1
  9
$MAXACTVP
 70
    64
  9
$PINSBASE
 10
0.0
 20
0.0
 30
0.0
  9
$PLIMCHECK
 70
     0
  9
$PEXTMIN
 10
1.0000000000E+20
 20
1.0000000000E+20
 30
1.0000000000E+20
  9
$PEXTMAX
 10
-1.0000000000E+20
 20
-1.0000000000E+20
 30
-1.0000000000E+20
  9
$PLIMMIN
 10
0.0
 20
0.0
  9
$PLIMMAX
 10
420.0
 20
297.0
  9
$UNITMODE
 70
     0
  9
$VISRETAIN
 70
     1
  9
$PLINEGEN
 70
     0
  9
$PSLTSCALE
 70
     1
  9
$TREEDEPTH
 70
  3020
  9
$CMLSTYLE
  2
Standard
  9
$CMLJUST
 70
     0
  9
$CMLSCALE
 40
20.0
  9
$PROXYGRAPHICS
 70
     1
  9
$MEASUREMENT
 70
     1
  9
$CELWEIGHT
370
    -1
  9
$ENDCAPS
280
     0
  9
$JOINSTYLE
280
     0
  9
$LWDISPLAY
290
     1
  9
$INSUNITS
 70
     4
  9
$HYPERLINKBASE
  1

  9
$STYLESHEET
  1

  9
$XEDIT
290
     1
  9
$CEPSNTYPE
380
     0
  9
$PSTYLEMODE
290
     1
  9
$FINGERPRINTGUID
  2
{8386C35C-3414-43D6-B1EF-CB927EB301B0}
  9
$VERSIONGUID
  2
{FAEB1C32-E019-11D5-929B-00C0DF256EC4}
  9
$EXTNAMES
290
     1
  9
$PSVPSCALE
 40
0.0
  9
$OLESTARTUP
290
     0
  0
ENDSEC
  0
SECTION
  2
CLASSES
  0
CLASS
  1
ACDBDICTIONARYWDFLT
  2
AcDbDictionaryWithDefault
  3
ObjectDBX Classes
 90
        0
280
     0
281
     0
  0
CLASS
  1
VISUALSTYLE
  2
AcDbVisualStyle
  3
ObjectDBX Classes
 90
     4095
280
     0
281
     0
  0
CLASS
  1
MATERIAL
  2
AcDbMaterial
  3
ObjectDBX Classes
 90
     1153
280
     0
281
     0
  0
CLASS
  1
SCALE
  2
AcDbScale
  3
ObjectDBX Classes
 90
     1153
280
     0
281
     0
  0
CLASS
  1
SUN
  2
AcDbSun
  3
SCENEOE
 90
     1153
280
     0
281
     0
  0
CLASS
  1
ACDBPLACEHOLDER
  2
AcDbPlaceHolder
  3
ObjectDBX Classes
 90
        0
280
     0
281
     0
  0
CLASS
  1
LAYOUT
  2
AcDbLayout
  3
ObjectDBX Classes
 90
        0
280
     0
281
     0
  0
ENDSEC
  0
SECTION
  2
TABLES
  0
TABLE
  2
VPORT
  5
8
330
0
100
AcDbSymbolTable
 70
     1
  0
VPORT
  5
29
330
8
100
AcDbSymbolTableRecord
100
AcDbViewportTableRecord
  2
*Active
 70
     0
 10
0.0
 20
0.0
 11
1.0
 21
1.0
 12
237.6
 22
168.0
 13
0.0
 23
0.0
 14
10.0
 24
10.0
 15
10.0
 25
10.0
 16
0.0
 26
0.0
 36
1.0
 17
0.0
 27
0.0
 37
0.0
 40
336.0
 41
1.4142857143
 42
50.0
 43
0.0
 44
0.0
 50
0.0
 51
0.0
 71
     0
 72
  2000
 73
     1
 74
     3
 75
     0
 76
     0
 77
     0
 78
     0
281
     0
 65
     1
110
0.0
120
0.0
130
0.0
111
1.0
121
0.0
131
0.0
112
0.0
122
1.0
132
0.0
 79
     0
146
0.0
  0
ENDTAB
  0
TABLE
  2
LTYPE
  5
5
330
0
100
AcDbSymbolTable
 70
     6
  0
LTYPE
  5
14
330
5
100
AcDbSymbolTableRecord
100
AcDbLinetypeTableRecord
  2
ByBlock
 70
     0
  3

 72
    65
 73
     0
 40
0.0
  0
LTYPE
  5
15
330
5
100
AcDbSymbolTableRecord
100
AcDbLinetypeTableRecord
  2
ByLayer
 70
     0
  3

 72
    65
 73
     0
 40
0.0
  0
LTYPE
  5
16
330
5
100
AcDbSymbolTableRecord
100
AcDbLinetypeTableRecord
  2
Continuous
 70
     0
  3
Solid line
 72
    65
 73
     0
 40
0.0
  0
LTYPE
  5
6A
330
5
100
AcDbSymbolTableRecord
100
AcDbLinetypeTableRecord
  2
HIDDEN
 70
     0
  3
Hidden __ __ __ __ __ __ __ __ __ __ __ __ __ __
 72
    65
 73
     2
 40
1.905
 49
1.27
 74
     0
 49
-0.635
 74
     0
  0
LTYPE
  5
6B
330
5
100
AcDbSymbolTableRecord
100
AcDbLinetypeTableRecord
  2
PHANTOM
 70
     0
  3
Phantom ______  __  __  ______  __  __  ______
 72
    65
 73
     6
 40
12.7
 49
6.35
 74
     0
 49
-1.27
 74
     0
 49
1.27
 74
     0
 49
-1.27
 74
     0
 49
1.27
 74
     0
 49
-1.27
 74
     0
  0
LTYPE
  5
6C
330
5
100
AcDbSymbolTableRecord
100
AcDbLinetypeTableRecord
  2
CENTER
 70
     0
  3
Center ____ _ ____ _ ____ _ ____ _ ____ _ ____
 72
    65
 73
     4
 40
10.16
 49
6.35
 74
     0
 49
-1.27
 74
     0
 49
1.27
 74
     0
 49
-1.27
 74
     0
  0
LTYPE
  5
6D
330
5
100
AcDbSymbolTableRecord
100
AcDbLinetypeTableRecord
  2
CENTERX2
 70
     0
  3
Center (2x) ________  __  ________  __  _____
 72
    65
 73
     4
 40
20.32
 49
12.7
 74
     0
 49
-2.54
 74
     0
 49
2.54
 74
     0
 49
-2.54
 74
     0
  0
LTYPE
  5
6E
330
5
100
AcDbSymbolTableRecord
100
AcDbLinetypeTableRecord
  2
DOT2
 70
     0
  3
Dot (.5x) ........................................
 72
    65
 73
     2
 40
0.635
 49
0.0
 74
     0
 49
-0.635
 74
     0
  0
ENDTAB
  0
TABLE
  2
LAYER
  5
2
330
0
100
AcDbSymbolTable
 70
     8
  0
LAYER
  5
10
330
2
100
AcDbSymbolTableRecord
100
AcDbLayerTableRecord
  2
0
 70
     0
 62
     7
  6
Continuous
370
    -3
390
F
  0
LAYER
  5
6F
330
2
100
AcDbSymbolTableRecord
100
AcDbLayerTableRecord
  2
FORMAT
 70
     0
 62
     7
  6
Continuous
370
    -3
390
F
  0
LAYER
  5
70
330
2
100
AcDbSymbolTableRecord
100
AcDbLayerTableRecord
  2
SLD-0
 70
     0
 62
     2
  6
Continuous
370
    -3
390
F
  0
LAYER
  5
71
330
2
100
AcDbSymbolTableRecord
100
AcDbLayerTableRecord
  2
DIM
 70
     0
 62
   179
  6
Continuous
370
    -3
390
F
  0
LAYER
  5
72
330
2
100
AcDbSymbolTableRecord
100
AcDbLayerTableRecord
  2
SLD-DEFPOINTS
 70
     0
 62
   179
  6
Continuous
370
    -3
390
F
  0
LAYER
  5
73
330
2
100
AcDbSymbolTableRecord
100
AcDbLayerTableRecord
  2
HAT
 70
     0
 62
   135
  6
Continuous
370
    -3
390
F
  0
LAYER
  5
74
330
2
100
AcDbSymbolTableRecord
100
AcDbLayerTableRecord
  2
JOB
 70
     0
 62
   201
  6
Continuous
370
    -3
390
F
  0
LAYER
  5
75
330
2
100
AcDbSymbolTableRecord
100
AcDbLayerTableRecord
  2
INSPECTION_REPORT
 70
     0
 62
   255
  6
Continuous
370
    -3
390
F
  0
ENDTAB
  0
TABLE
  2
STYLE
  5
3
330
0
100
AcDbSymbolTable
 70
     4
  0
STYLE
  5
11
330
3
100
AcDbSymbolTableRecord
100
AcDbTextStyleTableRecord
  2
Standard
 70
     0
 40
0.0
 41
1.0
 50
0.0
 71
     0
 42
6.2088888889
  3
txt
  4

  0
STYLE
  5
96
330
3
100
AcDbSymbolTableRecord
100
AcDbTextStyleTableRecord
  2
SLDTEXTSTYLE0
 70
     0
 40
0.0
 41
0.7
 50
0.0
 71
     0
 42
6.2088888889
  3
TXT
  4

  0
STYLE
  5
98
330
3
100
AcDbSymbolTableRecord
100
AcDbTextStyleTableRecord
  2
SLDTEXTSTYLE1
 70
     0
 40
0.0
 41
0.75
 50
0.0
 71
     0
 42
6.2088888889
  3
TXT
  4

  0
STYLE
  5
AB
330
3
100
AcDbSymbolTableRecord
100
AcDbTextStyleTableRecord
  2
SLDTEXTSTYLE2
 70
     0
 40
0.0
 41
0.6875
 50
0.0
 71
     0
 42
6.2088888889
  3
TXT
  4

  0
ENDTAB
  0
TABLE
  2
VIEW
  5
6
330
0
100
AcDbSymbolTable
 70
     0
  0
ENDTAB
  0
TABLE
  2
UCS
  5
7
330
0
100
AcDbSymbolTable
 70
     0
  0
ENDTAB
  0
TABLE
  2
APPID
  5
9
330
0
100
AcDbSymbolTable
 70
     1
  0
APPID
  5
12
330
9
100
AcDbSymbolTableRecord
100
AcDbRegAppTableRecord
  2
ACAD
 70
     0
  0
ENDTAB
  0
TABLE
  2
DIMSTYLE
  5
A
330
0
100
AcDbSymbolTable
 70
     4
100
AcDbDimStyleTable
  0
DIMSTYLE
105
27
330
A
100
AcDbSymbolTableRecord
100
AcDbDimStyleTableRecord
  2
ISO-25
 70
     0
 41
2.5
 42
0.625
 43
3.75
 44
1.25
 73
     0
 74
     0
 77
     1
 78
     8
140
2.5
141
2.5
143
0.0393700787
147
0.625
171
     3
172
     1
178
     0
271
     2
272
     2
274
     3
278
    44
283
     0
284
     8
340
11
  0
DIMSTYLE
105
177
102
{ACAD_REACTORS
330
176
330
190
102
}
330
A
100
AcDbSymbolTableRecord
100
AcDbDimStyleTableRecord
  2
SLDDIMSTYLE0
 70
     0
 41
5.2832
 44
0.0
 45
0.000000001
 73
     0
 74
     0
 77
     1
 78
    12
 79
     3
140
4.6566666667
147
1.1641666667
172
     1
173
     1
178
     0
271
     2
272
     2
276
     2
284
    12
289
     0
340
96
  0
DIMSTYLE
105
185
102
{ACAD_REACTORS
330
184
330
19C
330
1A6
102
}
330
A
100
AcDbSymbolTableRecord
100
AcDbDimStyleTableRecord
  2
SLDDIMSTYLE1
 70
     0
 41
5.2832
 44
0.0
 45
0.000000001
 73
     0
 74
     0
 77
     1
 78
    12
 79
     3
140
4.6566666667
147
1.1641666667
173
     1
178
     0
271
     2
272
     2
276
     2
284
    12
340
96
  0
DIMSTYLE
105
1B1
102
{ACAD_REACTORS
330
1B0
102
}
330
A
100
AcDbSymbolTableRecord
100
AcDbDimStyleTableRecord
  2
SLDDIMSTYLE2
 70
     0
 41
5.2832
 44
0.0
 45
0.000000001
 73
     0
 74
     0
 77
     1
 78
     4
 79
     1
140
4.6566666667
147
1.1641666667
173
     1
178
     0
271
     2
272
     2
276
     2
284
    12
340
96
  0
ENDTAB
  0
TABLE
  2
BLOCK_RECORD
  5
1
330
0
100
AcDbSymbolTable
 70
     8
  0
BLOCK_RECORD
  5
1F
330
1
100
AcDbSymbolTableRecord
100
AcDbBlockTableRecord
  2
*Model_Space
340
22
  0
BLOCK_RECORD
  5
1B
330
1
100
AcDbSymbolTableRecord
100
AcDbBlockTableRecord
  2
*Paper_Space
340
1E
  0
BLOCK_RECORD
  5
23
330
1
100
AcDbSymbolTableRecord
100
AcDbBlockTableRecord
  2
*Paper_Space0
340
26
  0
BLOCK_RECORD
  5
E8
330
1
100
AcDbSymbolTableRecord
100
AcDbBlockTableRecord
  2
SW_CENTERMARKSYMBOL_0
340
0
102
{BLKREFS
331
F3
102
}
  0
BLOCK_RECORD
  5
178
330
1
100
AcDbSymbolTableRecord
100
AcDbBlockTableRecord
  2
_D
340
0
  0
BLOCK_RECORD
  5
186
330
1
100
AcDbSymbolTableRecord
100
AcDbBlockTableRecord
  2
_D_1
340
0
  0
BLOCK_RECORD
  5
191
330
1
100
AcDbSymbolTableRecord
100
AcDbBlockTableRecord
  2
_D_2
340
0
  0
BLOCK_RECORD
  5
19D
330
1
100
AcDbSymbolTableRecord
100
AcDbBlockTableRecord
  2
_D_3
340
0
  0
BLOCK_RECORD
  5
1A7
330
1
100
AcDbSymbolTableRecord
100
AcDbBlockTableRecord
  2
_D_4
340
0
  0
BLOCK_RECORD
  5
1B2
330
1
100
AcDbSymbolTableRecord
100
AcDbBlockTableRecord
  2
_D_5
340
0
  0
ENDTAB
  0
ENDSEC
  0
SECTION
  2
BLOCKS
  0
BLOCK
  5
20
330
1F
100
AcDbEntity
  8
0
100
AcDbBlockBegin
  2
*Model_Space
 70
     0
 10
0.0
 20
0.0
 30
0.0
  3
*Model_Space
  1
*Model_Space
  0
ENDBLK
  5
21
330
1F
100
AcDbEntity
  8
0
100
AcDbBlockEnd
  0
BLOCK
  5
1C
330
1B
100
AcDbEntity
 67
     1
  8
0
100
AcDbBlockBegin
  2
*Paper_Space
 70
     0
 10
0.0
 20
0.0
 30
0.0
  3
*Paper_Space
  1
*Paper_Space
  0
ENDBLK
  5
1D
330
1B
100
AcDbEntity
 67
     1
  8
0
100
AcDbBlockEnd
  0
BLOCK
  5
24
330
23
100
AcDbEntity
  8
0
100
AcDbBlockBegin
  2
*Paper_Space0
 70
     0
 10
0.0
 20
0.0
 30
0.0
  3
*Paper_Space0
  1
*Paper_Space0
  0
ENDBLK
  5
25
330
23
100
AcDbEntity
  8
0
100
AcDbBlockEnd
  0
BLOCK
  5
E9
330
E8
100
AcDbEntity
  8
0
100
AcDbBlockBegin
  2
SW_CENTERMARKSYMBOL_0
 70
     0
 10
0.0
 20
0.0
 30
0.0
  3
SW_CENTERMARKSYMBOL_0
  1
SW_CENTERMARKSYMBOL_0
  0
LINE
  5
EB
330
E8
100
AcDbEntity
  8
DIM
 62
     0
100
AcDbLine
 10
0.0
 20
0.0
 30
0.0
 11
0.0
 21
2.5
 31
0.0
  0
LINE
  5
EC
330
E8
100
AcDbEntity
  8
DIM
 62
     0
100
AcDbLine
 10
0.0
 20
0.0
 30
0.0
 11
-2.5
 21
0.0
 31
0.0
  0
LINE
  5
ED
330
E8
100
AcDbEntity
  8
DIM
 62
     0
100
AcDbLine
 10
0.0
 20
0.0
 30
0.0
 11
0.0
 21
-2.5
 31
0.0
  0
LINE
  5
EE
330
E8
100
AcDbEntity
  8
DIM
 62
     0
100
AcDbLine
 10
0.0
 20
0.0
 30
0.0
 11
2.5
 21
0.0
 31
0.0
  0
LINE
  5
EF
330
E8
100
AcDbEntity
  8
DIM
 62
     0
100
AcDbLine
 10
0.0
 20
5.0
 30
0.0
 11
0.0
 21
50.3671572875
 31
0.0
  0
LINE
  5
F0
330
E8
100
AcDbEntity
  8
DIM
 62
     0
100
AcDbLine
 10
-5.0
 20
0.0
 30
0.0
 11
-50.3671572875
 21
0.0
 31
0.0
  0
LINE
  5
F1
330
E8
100
AcDbEntity
  8
DIM
 62
     0
100
AcDbLine
 10
0.0
 20
-5.0
 30
0.0
 11
0.0
 21
-50.3671572875
 31
0.0
  0
LINE
  5
F2
330
E8
100
AcDbEntity
  8
DIM
 62
     0
100
AcDbLine
 10
5.0
 20
0.0
 30
0.0
 11
50.3671572875
 21
0.0
 31
0.0
  0
ENDBLK
  5
EA
330
E8
100
AcDbEntity
  8
0
100
AcDbBlockEnd
  0
BLOCK
  5
179
330
178
100
AcDbEntity
  8
0
100
AcDbBlockBegin
  2
_D
 70
     0
 10
0.0
 20
0.0
 30
0.0
  3
_D
  1
_D
  0
SOLID
  5
17B
330
178
100
AcDbEntity
  8
DIM
100
AcDbTrace
 10
446.9074873343
 20
193.1416938786
 30
0.0
 11
447.7202873343
 21
198.4248938786
 31
0.0
 12
446.0946873343
 22
198.4248938786
 32
0.0
 13
446.0946873343
 23
198.4248938786
 33
0.0
  0
SOLID
  5
17C
330
178
100
AcDbEntity
  8
DIM
100
AcDbTrace
 10
446.9074873343
 20
171.1416938786
 30
0.0
 11
446.0946873343
 21
165.8584938786
 31
0.0
 12
447.7202873343
 22
165.8584938786
 32
0.0
 13
447.7202873343
 23
165.8584938786
 33
0.0
  0
LINE
  5
17D
330
178
100
AcDbEntity
  8
DIM
100
AcDbLine
 10
426.9333099034
 20
193.1416938786
 30
0.0
 11
448.5074873343
 21
193.1416938786
 31
0.0
  0
LINE
  5
17E
330
178
100
AcDbEntity
  8
DIM
100
AcDbLine
 10
426.9333099034
 20
171.1416938786
 30
0.0
 11
448.5074873343
 21
171.1416938786
 31
0.0
  0
LINE
  5
17F
330
178
100
AcDbEntity
  8
DIM
100
AcDbLine
 10
446.9074873343
 20
193.1416938786
 30
0.0
 11
446.9074873343
 21
203.3016938786
 31
0.0
  0
LINE
  5
180
330
178
100
AcDbEntity
  8
DIM
100
AcDbLine
 10
446.9074873343
 20
193.1416938786
 30
0.0
 11
446.9074873343
 21
171.1416938786
 31
0.0
  0
LINE
  5
181
330
178
100
AcDbEntity
  8
DIM
100
AcDbLine
 10
446.9074873343
 20
171.1416938786
 30
0.0
 11
446.9074873343
 21
160.9816938786
 31
0.0
  0
MTEXT
  5
182
330
178
100
AcDbEntity
  8
DIM
100
AcDbMText
 10
440.9047281869
 20
175.3936233108
 30
0.0
 40
4.6566666667
 41
0.0
 71
     1
 72
     1
  1
%%c
  7
SLDTEXTSTYLE0
 11
-7.044195017643634E-15
 21
1.0
 31
0.0
 73
     1
 44
1.0
  0
MTEXT
  5
183
330
178
100
AcDbEntity
  8
DIM
100
AcDbMText
 10
440.9047281869
 20
182.5946407501
 30
0.0
 40
4.6566666667
 41
0.0
 71
     1
 72
     1
  1
22
  7
SLDTEXTSTYLE0
 11
-7.044195017643634E-15
 21
1.0
 31
0.0
 73
     1
 44
1.0
  0
ENDBLK
  5
17A
330
178
100
AcDbEntity
  8
0
100
AcDbBlockEnd
  0
BLOCK
  5
187
330
186
100
AcDbEntity
  8
0
100
AcDbBlockBegin
  2
_D_1
 70
     0
 10
0.0
 20
0.0
 30
0.0
  3
_D_1
  1
_D_1
  0
SOLID
  5
189
330
186
100
AcDbEntity
  8
DIM
100
AcDbTrace
 10
454.8302930773
 20
206.1416938786
 30
0.0
 11
454.0174930773
 21
200.8584938786
 31
0.0
 12
455.6430930773
 22
200.8584938786
 32
0.0
 13
455.6430930773
 23
200.8584938786
 33
0.0
  0
SOLID
  5
18A
330
186
100
AcDbEntity
  8
DIM
100
AcDbTrace
 10
454.8302930773
 20
158.1416938786
 30
0.0
 11
455.6430930773
 21
163.4248938786
 31
0.0
 12
454.0174930773
 22
163.4248938786
 32
0.0
 13
454.0174930773
 23
163.4248938786
 33
0.0
  0
LINE
  5
18B
330
186
100
AcDbEntity
  8
DIM
100
AcDbLine
 10
407.4240576322
 20
206.1416938786
 30
0.0
 11
456.4302930773
 21
206.1416938786
 31
0.0
  0
LINE
  5
18C
330
186
100
AcDbEntity
  8
DIM
100
AcDbLine
 10
407.4240576322
 20
158.1416938786
 30
0.0
 11
456.4302930773
 21
158.1416938786
 31
0.0
  0
LINE
  5
18D
330
186
100
AcDbEntity
  8
DIM
100
AcDbLine
 10
454.8302930773
 20
206.1416938786
 30
0.0
 11
454.8302930773
 21
158.1416938786
 31
0.0
  0
MTEXT
  5
18E
330
186
100
AcDbEntity
  8
DIM
100
AcDbMText
 10
448.8275339299
 20
175.3936233108
 30
0.0
 40
4.6566666667
 41
0.0
 71
     1
 72
     1
  1
%%c
  7
SLDTEXTSTYLE0
 11
-7.044195017643634E-15
 21
1.0
 31
0.0
 73
     1
 44
1.0
  0
MTEXT
  5
18F
330
186
100
AcDbEntity
  8
DIM
100
AcDbMText
 10
448.8275339299
 20
182.5946407501
 30
0.0
 40
4.6566666667
 41
0.0
 71
     1
 72
     1
  1
48
  7
SLDTEXTSTYLE0
 11
-7.044195017643634E-15
 21
1.0
 31
0.0
 73
     1
 44
1.0
  0
ENDBLK
  5
188
330
186
100
AcDbEntity
  8
0
100
AcDbBlockEnd
  0
BLOCK
  5
192
330
191
100
AcDbEntity
  8
0
100
AcDbBlockBegin
  2
_D_2
 70
     0
 10
0.0
 20
0.0
 30
0.0
  3
_D_2
  1
_D_2
  0
SOLID
  5
194
330
191
100
AcDbEntity
  8
DIM
100
AcDbTrace
 10
425.8240576322
 20
120.2192875172
 30
0.0
 11
431.1072576322
 21
119.4064875172
 31
0.0
 12
431.1072576322
 22
121.0320875172
 32
0.0
 13
431.1072576322
 23
121.0320875172
 33
0.0
  0
SOLID
  5
195
330
191
100
AcDbEntity
  8
DIM
100
AcDbTrace
 10
406.8240576322
 20
120.2192875172
 30
0.0
 11
401.5408576322
 21
121.0320875172
 31
0.0
 12
401.5408576322
 22
119.4064875172
 32
0.0
 13
401.5408576322
 23
119.4064875172
 33
0.0
  0
LINE
  5
196
330
191
100
AcDbEntity
  8
DIM
100
AcDbLine
 10
425.8240576322
 20
170.3916938786
 30
0.0
 11
425.8240576322
 21
118.6192875172
 31
0.0
  0
LINE
  5
197
330
191
100
AcDbEntity
  8
DIM
100
AcDbLine
 10
406.8240576322
 20
157.5416938786
 30
0.0
 11
406.8240576322
 21
118.6192875172
 31
0.0
  0
LINE
  5
198
330
191
100
AcDbEntity
  8
DIM
100
AcDbLine
 10
425.8240576322
 20
120.2192875172
 30
0.0
 11
435.9840576322
 21
120.2192875172
 31
0.0
  0
LINE
  5
199
330
191
100
AcDbEntity
  8
DIM
100
AcDbLine
 10
425.8240576322
 20
120.2192875172
 30
0.0
 11
406.8240576322
 21
120.2192875172
 31
0.0
  0
LINE
  5
19A
330
191
100
AcDbEntity
  8
DIM
100
AcDbLine
 10
406.8240576322
 20
120.2192875172
 30
0.0
 11
396.6640576322
 21
120.2192875172
 31
0.0
  0
MTEXT
  5
19B
330
191
100
AcDbEntity
  8
DIM
100
AcDbMText
 10
413.1764957841
 20
126.2220466646
 30
0.0
 40
4.6566666667
 41
0.0
 71
     1
 72
     1
  1
19
  7
SLDTEXTSTYLE0
 73
     1
 44
1.0
  0
ENDBLK
  5
193
330
191
100
AcDbEntity
  8
0
100
AcDbBlockEnd
  0
BLOCK
  5
19E
330
19D
100
AcDbEntity
  8
0
100
AcDbBlockBegin
  2
_D_3
 70
     0
 10
0.0
 20
0.0
 30
0.0
  3
_D_3
  1
_D_3
  0
SOLID
  5
1A0
330
19D
100
AcDbEntity
  8
DIM
100
AcDbTrace
 10
406.8240576322
 20
120.2192875172
 30
0.0
 11
401.5408576322
 21
121.0320875172
 31
0.0
 12
401.5408576322
 22
119.4064875172
 32
0.0
 13
401.5408576322
 23
119.4064875172
 33
0.0
  0
SOLID
  5
1A1
330
19D
100
AcDbEntity
  8
DIM
100
AcDbTrace
 10
246.8240576322
 20
120.2192875172
 30
0.0
 11
252.1072576322
 21
119.4064875172
 31
0.0
 12
252.1072576322
 22
121.0320875172
 32
0.0
 13
252.1072576322
 23
121.0320875172
 33
0.0
  0
LINE
  5
1A2
330
19D
100
AcDbEntity
  8
DIM
100
AcDbLine
 10
406.8240576322
 20
158.5416938786
 30
0.0
 11
406.8240576322
 21
118.6192875172
 31
0.0
  0
LINE
  5
1A3
330
19D
100
AcDbEntity
  8
DIM
100
AcDbLine
 10
246.8240576322
 20
145.6166938786
 30
0.0
 11
246.8240576322
 21
118.6192875172
 31
0.0
  0
LINE
  5
1A4
330
19D
100
AcDbEntity
  8
DIM
100
AcDbLine
 10
406.8240576322
 20
120.2192875172
 30
0.0
 11
246.8240576322
 21
120.2192875172
 31
0.0
  0
MTEXT
  5
1A5
330
19D
100
AcDbEntity
  8
DIM
100
AcDbMText
 10
322.10271486
 20
126.2220466646
 30
0.0
 40
4.6566666667
 41
0.0
 71
     1
 72
     1
  1
160
  7
SLDTEXTSTYLE0
 73
     1
 44
1.0
  0
ENDBLK
  5
19F
330
19D
100
AcDbEntity
  8
0
100
AcDbBlockEnd
  0
BLOCK
  5
1A8
330
1A7
100
AcDbEntity
  8
0
100
AcDbBlockBegin
  2
_D_4
 70
     0
 10
0.0
 20
0.0
 30
0.0
  3
_D_4
  1
_D_4
  0
SOLID
  5
1AA
330
1A7
100
AcDbEntity
  8
DIM
100
AcDbTrace
 10
145.0740576322
 20
107.7915938786
 30
0.0
 11
150.3572576322
 21
106.9787938786
 31
0.0
 12
150.3572576322
 22
108.6043938786
 32
0.0
 13
150.3572576322
 23
108.6043938786
 33
0.0
  0
SOLID
  5
1AB
330
1A7
100
AcDbEntity
  8
DIM
100
AcDbTrace
 10
436.8240576322
 20
107.7915938786
 30
0.0
 11
431.5408576322
 21
108.6043938786
 31
0.0
 12
431.5408576322
 22
106.9787938786
 32
0.0
 13
431.5408576322
 23
106.9787938786
 33
0.0
  0
LINE
  5
1AC
330
1A7
100
AcDbEntity
  8
DIM
100
AcDbLine
 10
145.0740576322
 20
180.5416938786
 30
0.0
 11
145.0740576322
 21
106.1915938786
 31
0.0
  0
LINE
  5
1AD
330
1A7
100
AcDbEntity
  8
DIM
100
AcDbLine
 10
436.8240576322
 20
167.5416938786
 30
0.0
 11
436.8240576322
 21
106.1915938786
 31
0.0
  0
LINE
  5
1AE
330
1A7
100
AcDbEntity
  8
DIM
100
AcDbLine
 10
145.0740576322
 20
107.7915938786
 30
0.0
 11
436.8240576322
 21
107.7915938786
 31
0.0
  0
MTEXT
  5
1AF
330
1A7
100
AcDbEntity
  8
DIM
100
AcDbMText
 10
282.2523011203
 20
113.794353026
 30
0.0
 40
4.6566666667
 41
0.0
 71
     1
 72
     1
  1
291.75
  7
SLDTEXTSTYLE0
 73
     1
 44
1.0
  0
ENDBLK
  5
1A9
330
1A7
100
AcDbEntity
  8
0
100
AcDbBlockEnd
  0
BLOCK
  5
1B3
330
1B2
100
AcDbEntity
  8
0
100
AcDbBlockBegin
  2
_D_5
 70
     0
 10
0.0
 20
0.0
 30
0.0
  3
_D_5
  1
_D_5
  0
SOLID
  5
1B5
330
1B2
100
AcDbEntity
  8
DIM
100
AcDbTrace
 10
138.0737333839
 20
230.8916938786
 30
0.0
 11
137.2609333839
 21
225.6084938786
 31
0.0
 12
138.8865333839
 22
225.6084938786
 32
0.0
 13
138.8865333839
 23
225.6084938786
 33
0.0
  0
SOLID
  5
1B6
330
1B2
100
AcDbEntity
  8
DIM
100
AcDbTrace
 10
138.0737333839
 20
133.3916938786
 30
0.0
 11
138.8865333839
 21
138.6748938786
 31
0.0
 12
137.2609333839
 22
138.6748938786
 32
0.0
 13
137.2609333839
 23
138.6748938786
 33
0.0
  0
LINE
  5
1B7
330
1B2
100
AcDbEntity
  8
DIM
100
AcDbLine
 10
249.5897430572
 20
230.8916938786
 30
0.0
 11
136.4737333839
 21
230.8916938786
 31
0.0
  0
LINE
  5
1B8
330
1B2
100
AcDbEntity
  8
DIM
100
AcDbLine
 10
249.5897430572
 20
133.3916938786
 30
0.0
 11
136.4737333839
 21
133.3916938786
 31
0.0
  0
LINE
  5
1B9
330
1B2
100
AcDbEntity
  8
DIM
100
AcDbLine
 10
138.0737333839
 20
230.8916938786
 30
0.0
 11
138.0737333839
 21
133.3916938786
 31
0.0
  0
MTEXT
  5
1BA
330
1B2
100
AcDbEntity
  8
DIM
100
AcDbMText
 10
132.0709742365
 20
171.4182095711
 30
0.0
 40
4.6566666667
 41
0.0
 71
     1
 72
     1
  1
%%c
  7
SLDTEXTSTYLE0
 11
-7.044195017643634E-15
 21
1.0
 31
0.0
 73
     1
 44
1.0
  0
MTEXT
  5
1BB
330
1B2
100
AcDbEntity
  8
DIM
100
AcDbMText
 10
132.0709742365
 20
178.6192270105
 30
0.0
 40
4.6566666667
 41
0.0
 71
     1
 72
     1
  1
97.50
  7
SLDTEXTSTYLE0
 11
-7.044195017643634E-15
 21
1.0
 31
0.0
 73
     1
 44
1.0
  0
ENDBLK
  5
1B4
330
1B2
100
AcDbEntity
  8
0
100
AcDbBlockEnd
  0
ENDSEC
  0
SECTION
  2
ENTITIES
  0
LINE
  5
76
330
1F
100
AcDbEntity
  8
DIM
100
AcDbLine
 10
167.5270795024
 20
15.665586331
 30
0.0
 11
167.5270795024
 21
7.665586331
 31
0.0
  0
LINE
  5
77
330
1F
100
AcDbEntity
  8
DIM
100
AcDbLine
 10
407.1513627125
 20
15.665586331
 30
0.0
 11
407.1513627125
 21
7.665586331
 31
0.0
  0
LINE
  5
78
330
1F
100
AcDbEntity
  8
DIM
100
AcDbLine
 10
379.9227358905
 20
15.665586331
 30
0.0
 11
379.9227358905
 21
7.665586331
 31
0.0
  0
LINE
  5
79
330
1F
100
AcDbEntity
  8
DIM
100
AcDbLine
 10
446.2470795024
 20
7.665586331
 30
0.0
 11
446.2470795024
 21
15.665586331
 31
0.0
  0
LINE
  5
7A
330
1F
100
AcDbEntity
  8
DIM
100
AcDbLine
 10
180.0070795024
 20
15.665586331
 30
0.0
 11
180.0070795024
 21
7.665586331
 31
0.0
  0
LINE
  5
7B
330
1F
100
AcDbEntity
  8
DIM
100
AcDbLine
 10
210.7126033965
 20
15.665586331
 30
0.0
 11
210.7126033965
 21
7.665586331
 31
0.0
  0
LINE
  5
7C
330
1F
100
AcDbEntity
  8
DIM
100
AcDbLine
 10
467.0470795024
 20
7.665586331
 30
0.0
 11
467.0470795024
 21
123.265586331
 31
0.0
  0
LINE
  5
7D
330
1F
100
AcDbEntity
  8
DIM
100
AcDbLine
 10
457.3104075115
 20
96.065586331
 30
0.0
 11
467.0470795024
 21
96.065586331
 31
0.0
  0
LINE
  5
7E
330
1F
100
AcDbEntity
  8
DIM
100
AcDbLine
 10
238.5653613641
 20
14.465586331
 30
0.0
 11
238.5653613641
 21
7.665586331
 31
0.0
  0
LINE
  5
7F
330
1F
100
AcDbEntity
  8
DIM
100
AcDbLine
 10
314.8223186567
 20
15.665586331
 30
0.0
 11
314.8223186567
 21
7.665586331
 31
0.0
  0
LINE
  5
80
330
1F
100
AcDbEntity
  8
DIM
100
AcDbLine
 10
238.5653613641
 20
15.665586331
 30
0.0
 11
238.5653613641
 21
14.465586331
 31
0.0
  0
LINE
  5
81
330
1F
100
AcDbEntity
  8
DIM
100
AcDbLine
 10
459.0470795024
 20
28.065471131
 30
0.0
 11
467.0470795024
 21
28.065471131
 31
0.0
  0
LINE
  5
82
330
1F
100
AcDbEntity
  8
DIM
100
AcDbLine
 10
459.0470795024
 20
319.665586331
 30
0.0
 11
15.8470795024
 21
319.665586331
 31
0.0
  0
LINE
  5
83
330
1F
100
AcDbEntity
  8
DIM
100
AcDbLine
 10
467.0470795024
 20
327.665586331
 30
0.0
 11
7.8470795024
 21
327.665586331
 31
0.0
  0
LINE
  5
84
330
1F
100
AcDbEntity
  8
DIM
100
AcDbLine
 10
15.8470795024
 20
319.665586331
 30
0.0
 11
15.8470795024
 21
15.665586331
 31
0.0
  0
LINE
  5
85
330
1F
100
AcDbEntity
  8
DIM
100
AcDbLine
 10
7.8470795024
 20
327.665586331
 30
0.0
 11
7.8470795024
 21
7.665586331
 31
0.0
  0
LINE
  5
86
330
1F
100
AcDbEntity
  8
DIM
100
AcDbLine
 10
15.8470795024
 20
87.665586331
 30
0.0
 11
7.8470795024
 21
87.665586331
 31
0.0
  0
LINE
  5
87
330
1F
100
AcDbEntity
  8
DIM
100
AcDbLine
 10
7.8470795024
 20
167.665586331
 30
0.0
 11
15.8470795024
 21
167.665586331
 31
0.0
  0
LINE
  5
88
330
1F
100
AcDbEntity
  8
DIM
100
AcDbLine
 10
7.8470795024
 20
7.665586331
 30
0.0
 11
467.0470795024
 21
7.665586331
 31
0.0
  0
LINE
  5
89
330
1F
100
AcDbEntity
  8
DIM
100
AcDbLine
 10
15.8470795024
 20
15.665586331
 30
0.0
 11
467.0470795024
 21
15.665586331
 31
0.0
  0
LINE
  5
8A
330
1F
100
AcDbEntity
  8
DIM
100
AcDbLine
 10
77.4470795024
 20
7.665586331
 30
0.0
 11
77.4470795024
 21
15.665586331
 31
0.0
  0
LINE
  5
8B
330
1F
100
AcDbEntity
  8
DIM
100
AcDbLine
 10
157.4470795024
 20
15.665586331
 30
0.0
 11
157.4470795024
 21
7.665586331
 31
0.0
  0
LINE
  5
8C
330
1F
100
AcDbEntity
  8
DIM
100
AcDbLine
 10
15.8470795024
 20
247.665586331
 30
0.0
 11
7.8470795024
 21
247.665586331
 31
0.0
  0
LINE
  5
8D
330
1F
100
AcDbEntity
  8
DIM
100
AcDbLine
 10
77.4470795024
 20
319.665586331
 30
0.0
 11
77.4470795024
 21
327.665586331
 31
0.0
  0
LINE
  5
8E
330
1F
100
AcDbEntity
  8
DIM
100
AcDbLine
 10
157.4470795024
 20
327.665586331
 30
0.0
 11
157.4470795024
 21
319.665586331
 31
0.0
  0
LINE
  5
8F
330
1F
100
AcDbEntity
  8
DIM
100
AcDbLine
 10
237.4470795024
 20
327.665586331
 30
0.0
 11
237.4470795024
 21
319.665586331
 31
0.0
  0
LINE
  5
90
330
1F
100
AcDbEntity
  8
DIM
100
AcDbLine
 10
459.0470795024
 20
15.665586331
 30
0.0
 11
459.0470795024
 21
319.665586331
 31
0.0
  0
LINE
  5
91
330
1F
100
AcDbEntity
  8
DIM
100
AcDbLine
 10
467.0470795024
 20
123.265586331
 30
0.0
 11
467.0470795024
 21
327.665586331
 31
0.0
  0
LINE
  5
92
330
1F
100
AcDbEntity
  8
DIM
100
AcDbLine
 10
467.0470795024
 20
167.665586331
 30
0.0
 11
459.0470795024
 21
167.665586331
 31
0.0
  0
LINE
  5
93
330
1F
100
AcDbEntity
  8
DIM
100
AcDbLine
 10
317.4470795024
 20
327.665586331
 30
0.0
 11
317.4470795024
 21
319.665586331
 31
0.0
  0
LINE
  5
94
330
1F
100
AcDbEntity
  8
DIM
100
AcDbLine
 10
397.4470795024
 20
319.665586331
 30
0.0
 11
397.4470795024
 21
327.665586331
 31
0.0
  0
LINE
  5
95
330
1F
100
AcDbEntity
  8
DIM
100
AcDbLine
 10
459.0470795024
 20
247.665586331
 30
0.0
 11
467.0470795024
 21
247.665586331
 31
0.0
  0
MTEXT
  5
97
330
1F
100
AcDbEntity
  8
DIM
100
AcDbMText
 10
25.8074725938
 20
310.1888788789
 30
0.0
 40
6.7733333333
 41
0.0
 71
     1
 72
     1
  1
SK 50 FMH-K22 160 AD+B/6.3G15000 SL SP.S
  7
SLDTEXTSTYLE0
 73
     1
 44
1.0
  0
MTEXT
  5
99
330
1F
100
AcDbEntity
  8
DIM
 62
     7
100
AcDbMText
 10
316.3724458346
 20
12.4831224421
 30
0.0
 40
2.39776
 41
0.0
 71
     1
 72
     1
  1
WEIGHT:
  7
SLDTEXTSTYLE1
 73
     1
 44
1.0
  0
MTEXT
  5
9A
330
1F
100
AcDbEntity
  8
DIM
 62
     7
100
AcDbMText
 10
461.7553228077
 20
131.1049816132
 30
0.0
 40
2.9633333333
 41
0.0
 71
     1
 72
     1
  1
C
  7
SLDTEXTSTYLE1
 73
     1
 44
1.0
  0
MTEXT
  5
9B
330
1F
100
AcDbEntity
  8
DIM
 62
     7
100
AcDbMText
 10
452.8697289911
 20
23.7663711738
 30
0.0
 40
4.6566666667
 41
0.0
 71
     1
 72
     1
  1
A4
  7
SLDTEXTSTYLE1
 73
     1
 44
1.0
  0
MTEXT
  5
9C
330
1F
100
AcDbEntity
  8
DIM
 62
     7
100
AcDbMText
 10
436.1137525691
 20
325.5344125767
 30
0.0
 40
2.9633333333
 41
0.0
 71
     1
 72
     1
  1
6
  7
SLDTEXTSTYLE1
 73
     1
 44
1.0
  0
MTEXT
  5
9D
330
1F
100
AcDbEntity
  8
DIM
 62
     7
100
AcDbMText
 10
356.1137525691
 20
325.5344125767
 30
0.0
 40
2.9633333333
 41
0.0
 71
     1
 72
     1
  1
5
  7
SLDTEXTSTYLE1
 73
     1
 44
1.0
  0
MTEXT
  5
9E
330
1F
100
AcDbEntity
  8
DIM
 62
     7
100
AcDbMText
 10
461.7137589691
 20
289.5344125767
 30
0.0
 40
2.9633333333
 41
0.0
 71
     1
 72
     1
  1
A
  7
SLDTEXTSTYLE1
 73
     1
 44
1.0
  0
MTEXT
  5
9F
330
1F
100
AcDbEntity
  8
DIM
 62
     7
100
AcDbMText
 10
461.7137589691
 20
209.5344125767
 30
0.0
 40
2.9633333333
 41
0.0
 71
     1
 72
     1
  1
B
  7
SLDTEXTSTYLE1
 73
     1
 44
1.0
  0
MTEXT
  5
A0
330
1F
100
AcDbEntity
  8
DIM
 62
     7
100
AcDbMText
 10
276.1137525691
 20
325.5344125767
 30
0.0
 40
2.9633333333
 41
0.0
 71
     1
 72
     1
  1
4
  7
SLDTEXTSTYLE1
 73
     1
 44
1.0
  0
MTEXT
  5
A1
330
1F
100
AcDbEntity
  8
DIM
 62
     7
100
AcDbMText
 10
36.7804192357
 20
325.5344125767
 30
0.0
 40
2.9633333333
 41
0.0
 71
     1
 72
     1
  1
1
  7
SLDTEXTSTYLE1
 73
     1
 44
1.0
  0
MTEXT
  5
A2
330
1F
100
AcDbEntity
  8
DIM
 62
     7
100
AcDbMText
 10
116.1137525691
 20
325.5344125767
 30
0.0
 40
2.9633333333
 41
0.0
 71
     1
 72
     1
  1
2
  7
SLDTEXTSTYLE1
 73
     1
 44
1.0
  0
MTEXT
  5
A3
330
1F
100
AcDbEntity
  8
DIM
 62
     7
100
AcDbMText
 10
196.1137525691
 20
325.5344125767
 30
0.0
 40
2.9633333333
 41
0.0
 71
     1
 72
     1
  1
3
  7
SLDTEXTSTYLE1
 73
     1
 44
1.0
  0
MTEXT
  5
A4
330
1F
100
AcDbEntity
  8
DIM
 62
     7
100
AcDbMText
 10
10.5137461691
 20
289.5344125767
 30
0.0
 40
2.9633333333
 41
0.0
 71
     1
 72
     1
  1
A
  7
SLDTEXTSTYLE1
 73
     1
 44
1.0
  0
MTEXT
  5
A5
330
1F
100
AcDbEntity
  8
DIM
 62
     7
100
AcDbMText
 10
116.1137525691
 20
13.5344125767
 30
0.0
 40
2.9633333333
 41
0.0
 71
     1
 72
     1
  1
2
  7
SLDTEXTSTYLE1
 73
     1
 44
1.0
  0
MTEXT
  5
A6
330
1F
100
AcDbEntity
  8
DIM
 62
     7
100
AcDbMText
 10
36.7804192357
 20
13.5344125767
 30
0.0
 40
2.9633333333
 41
0.0
 71
     1
 72
     1
  1
1
  7
SLDTEXTSTYLE1
 73
     1
 44
1.0
  0
MTEXT
  5
A7
330
1F
100
AcDbEntity
  8
DIM
 62
     7
100
AcDbMText
 10
10.5137461691
 20
49.5344125767
 30
0.0
 40
2.9633333333
 41
0.0
 71
     1
 72
     1
  1
D
  7
SLDTEXTSTYLE1
 73
     1
 44
1.0
  0
MTEXT
  5
A8
330
1F
100
AcDbEntity
  8
DIM
 62
     7
100
AcDbMText
 10
10.5137461691
 20
129.5344125767
 30
0.0
 40
2.9633333333
 41
0.0
 71
     1
 72
     1
  1
C
  7
SLDTEXTSTYLE1
 73
     1
 44
1.0
  0
MTEXT
  5
A9
330
1F
100
AcDbEntity
  8
DIM
 62
     7
100
AcDbMText
 10
10.5137461691
 20
209.5344125767
 30
0.0
 40
2.9633333333
 41
0.0
 71
     1
 72
     1
  1
B
  7
SLDTEXTSTYLE1
 73
     1
 44
1.0
  0
MTEXT
  5
AA
330
1F
100
AcDbEntity
  8
DIM
 62
     7
100
AcDbMText
 10
461.7553228077
 20
131.1049816132
 30
0.0
 40
2.9633333333
 41
0.0
 71
     1
 72
     1
  1
C
  7
SLDTEXTSTYLE1
 73
     1
 44
1.0
  0
MTEXT
  5
AC
330
1F
100
AcDbEntity
  8
DIM
 62
     7
100
AcDbMText
 10
410.4405853
 20
12.3057259702
 30
0.0
 40
2.4
 41
0.0
 71
     1
 72
     1
  1
SHEET 1 OF 1
  7
SLDTEXTSTYLE2
 73
     1
 44
1.0
  0
MTEXT
  5
AD
330
1F
100
AcDbEntity
  8
DIM
 62
     7
100
AcDbMText
 10
240.5948486135
 20
12.5653879738
 30
0.0
 40
2.4
 41
0.0
 71
     1
 72
     1
  1
MATERIAL:
  7
SLDTEXTSTYLE1
 73
     1
 44
1.0
  0
MTEXT
  5
AE
330
1F
100
AcDbEntity
  8
DIM
 62
     7
100
AcDbMText
 10
436.1137525691
 20
325.5344125767
 30
0.0
 40
2.9633333333
 41
0.0
 71
     1
 72
     1
  1
6
  7
SLDTEXTSTYLE1
 73
     1
 44
1.0
  0
MTEXT
  5
AF
330
1F
100
AcDbEntity
  8
DIM
 62
     7
100
AcDbMText
 10
356.1137525691
 20
325.5344125767
 30
0.0
 40
2.9633333333
 41
0.0
 71
     1
 72
     1
  1
5
  7
SLDTEXTSTYLE1
 73
     1
 44
1.0
  0
MTEXT
  5
B0
330
1F
100
AcDbEntity
  8
DIM
 62
     7
100
AcDbMText
 10
461.7137589691
 20
289.5344125767
 30
0.0
 40
2.9633333333
 41
0.0
 71
     1
 72
     1
  1
A
  7
SLDTEXTSTYLE1
 73
     1
 44
1.0
  0
MTEXT
  5
B1
330
1F
100
AcDbEntity
  8
DIM
 62
     7
100
AcDbMText
 10
461.7137589691
 20
209.5344125767
 30
0.0
 40
2.9633333333
 41
0.0
 71
     1
 72
     1
  1
B
  7
SLDTEXTSTYLE1
 73
     1
 44
1.0
  0
MTEXT
  5
B2
330
1F
100
AcDbEntity
  8
DIM
 62
     7
100
AcDbMText
 10
276.1137525691
 20
325.5344125767
 30
0.0
 40
2.9633333333
 41
0.0
 71
     1
 72
     1
  1
4
  7
SLDTEXTSTYLE1
 73
     1
 44
1.0
  0
MTEXT
  5
B3
330
1F
100
AcDbEntity
  8
DIM
 62
     7
100
AcDbMText
 10
36.7804192357
 20
325.5344125767
 30
0.0
 40
2.9633333333
 41
0.0
 71
     1
 72
     1
  1
1
  7
SLDTEXTSTYLE1
 73
     1
 44
1.0
  0
MTEXT
  5
B4
330
1F
100
AcDbEntity
  8
DIM
 62
     7
100
AcDbMText
 10
116.1137525691
 20
325.5344125767
 30
0.0
 40
2.9633333333
 41
0.0
 71
     1
 72
     1
  1
2
  7
SLDTEXTSTYLE1
 73
     1
 44
1.0
  0
MTEXT
  5
B5
330
1F
100
AcDbEntity
  8
DIM
 62
     7
100
AcDbMText
 10
196.1137525691
 20
325.5344125767
 30
0.0
 40
2.9633333333
 41
0.0
 71
     1
 72
     1
  1
3
  7
SLDTEXTSTYLE1
 73
     1
 44
1.0
  0
MTEXT
  5
B6
330
1F
100
AcDbEntity
  8
DIM
 62
     7
100
AcDbMText
 10
10.5137461691
 20
289.5344125767
 30
0.0
 40
2.9633333333
 41
0.0
 71
     1
 72
     1
  1
A
  7
SLDTEXTSTYLE1
 73
     1
 44
1.0
  0
MTEXT
  5
B7
330
1F
100
AcDbEntity
  8
DIM
 62
     7
100
AcDbMText
 10
116.1137525691
 20
13.5344125767
 30
0.0
 40
2.9633333333
 41
0.0
 71
     1
 72
     1
  1
2
  7
SLDTEXTSTYLE1
 73
     1
 44
1.0
  0
MTEXT
  5
B8
330
1F
100
AcDbEntity
  8
DIM
 62
     7
100
AcDbMText
 10
36.7804192357
 20
13.5344125767
 30
0.0
 40
2.9633333333
 41
0.0
 71
     1
 72
     1
  1
1
  7
SLDTEXTSTYLE1
 73
     1
 44
1.0
  0
MTEXT
  5
B9
330
1F
100
AcDbEntity
  8
DIM
 62
     7
100
AcDbMText
 10
10.5137461691
 20
49.5344125767
 30
0.0
 40
2.9633333333
 41
0.0
 71
     1
 72
     1
  1
D
  7
SLDTEXTSTYLE1
 73
     1
 44
1.0
  0
MTEXT
  5
BA
330
1F
100
AcDbEntity
  8
DIM
 62
     7
100
AcDbMText
 10
10.5137461691
 20
129.5344125767
 30
0.0
 40
2.9633333333
 41
0.0
 71
     1
 72
     1
  1
C
  7
SLDTEXTSTYLE1
 73
     1
 44
1.0
  0
MTEXT
  5
BB
330
1F
100
AcDbEntity
  8
DIM
 62
     7
100
AcDbMText
 10
10.5137461691
 20
209.5344125767
 30
0.0
 40
2.9633333333
 41
0.0
 71
     1
 72
     1
  1
B
  7
SLDTEXTSTYLE1
 73
     1
 44
1.0
  0
SPLINE
  5
BC
330
1F
100
AcDbEntity
  8
0
  6
Continuous
 62
     7
370
    15
100
AcDbSpline
210
0.0
220
0.0
230
1.0
 70
     8
 71
     3
 72
    14
 73
    10
 74
     0
 42
0.000000001
 43
0.00000001
 40
0.0
 40
0.0
 40
0.0
 40
0.0
 40
0.25
 40
0.25
 40
0.5
 40
0.5
 40
0.75
 40
0.75
 40
1.0
 40
1.0
 40
1.0
 40
1.0
 10
91.76423703648611
 20
182.1416938786221
 30
0.0
 10
91.76423703648611
 20
177.0439595018477
 30
0.0
 10
89.73901061041715
 20
172.1546303971556
 30
0.0
 10
82.52972551740719
 20
164.9453453041457
 30
0.0
 10
77.64039641271515
 20
162.9201188780767
 30
0.0
 10
67.44492765916627
 20
162.9201188780767
 30
0.0
 10
62.55559855447424
 20
164.9453453041457
 30
0.0
 10
55.34631346146426
 20
172.1546303971556
 30
0.0
 10
53.32108703539531
 20
177.0439595018477
 30
0.0
 10
53.32108703539531
 20
182.1416938786221
 30
0.0
  0
SPLINE
  5
BD
330
1F
100
AcDbEntity
  8
0
  6
Continuous
 62
     7
370
    15
100
AcDbSpline
210
0.0
220
0.0
230
1.0
 70
     8
 71
     3
 72
    14
 73
    10
 74
     0
 42
0.000000001
 43
0.00000001
 40
0.0
 40
0.0
 40
0.0
 40
0.0
 40
0.25
 40
0.25
 40
0.5
 40
0.5
 40
0.75
 40
0.75
 40
1.0
 40
1.0
 40
1.0
 40
1.0
 10
53.32108703539531
 20
182.1416938786221
 30
0.0
 10
53.32108703539531
 20
187.2394282553966
 30
0.0
 10
55.34631346146426
 20
192.1287573600886
 30
0.0
 10
62.55559855447424
 20
199.3380424530986
 30
0.0
 10
67.44492765916627
 20
201.3632688791675
 30
0.0
 10
77.64039641271515
 20
201.3632688791675
 30
0.0
 10
82.52972551740719
 20
199.3380424530986
 30
0.0
 10
89.73901061041715
 20
192.1287573600886
 30
0.0
 10
91.76423703648611
 20
187.2394282553966
 30
0.0
 10
91.76423703648611
 20
182.1416938786221
 30
0.0
  0
CIRCLE
  5
BE
330
1F
100
AcDbEntity
  8
0
  6
Continuous
 62
     7
370
    15
100
AcDbCircle
 10
72.5426620359
 20
182.1416938786
 30
0.0
 40
20.21110778703758
  0
CIRCLE
  5
BF
330
1F
100
AcDbEntity
  8
0
  6
Continuous
 62
     7
370
    15
100
AcDbCircle
 10
72.5426620359
 20
182.1416938786
 30
0.0
 40
34.92500000000001
  0
SPLINE
  5
C0
330
1F
100
AcDbEntity
  8
0
  6
Continuous
 62
     7
370
    15
100
AcDbSpline
210
0.0
220
0.0
230
1.0
 70
     8
 71
     3
 72
    52
 73
    48
 74
     0
 42
0.000000001
 43
0.00000001
 40
0.0
 40
0.0
 40
0.0
 40
0.0
 40
0.0053074994726554
 40
0.0106084744807156
 40
0.0159043870752884
 40
0.0211967035030982
 40
0.0264868930010475
 40
0.031776426578386
 40
0.0370667757915106
 40
0.0423594115164833
 40
0.0476558027243854
 40
0.0529574152645906
 40
0.0582657106609693
 40
0.0891348494758177
 40
0.1200087595578935
 40
0.1521645941108524
 40
0.1843252192282218
 40
0.2171652710885947
 40
0.2500102154523581
 40
0.2828502674523063
 40
0.3156952119562962
 40
0.3478510468948057
 40
0.380011672397905
 40
0.4108808109142898
 40
0.4417547207534483
 40
0.470875333637603
 40
0.5000007798720159
 40
0.5291213927975412
 40
0.5582468390472084
 40
0.5891159778617261
 40
0.6199898879441322
 40
0.652145722497098
 40
0.6843063476144644
 40
0.7171463994755694
 40
0.7499913438386044
 40
0.7828313958395676
 40
0.8156763403425417
 40
0.8478321752819549
 40
0.8799928007841501
 40
0.9108619393016738
 40
0.941735849139696
 40
0.9514609652020397
 40
0.9611682412334405
 40
0.9708667191333772
 40
0.9805654654081966
 40
0.9902735458123287
 40
1.0
 40
1.0
 40
1.0
 40
1.0
 10
37.54266203594071
 20
182.1416938786221
 30
0.0
 10
37.54359006685116
 20
182.336156036675
 30
0.0
 10
37.54544498785148
 20
182.7248413020807
 30
0.0
 10
37.5604740222031
 20
183.3074042721022
 30
0.0
 10
37.58447265123748
 20
183.8890901594716
 30
0.0
 10
37.61831695532059
 20
184.4698988542887
 30
0.0
 10
37.66177249705419
 20
185.049830202708
 30
0.0
 10
37.71490205812024
 20
185.6288841231326
 30
0.0
 10
37.77768872784243
 20
186.2070602872693
 30
0.0
 10
37.850137320359
 20
186.7843592846376
 30
0.0
 10
37.93224535785203
 20
187.3607782847852
 30
0.0
 10
38.02401775984568
 20
187.9363272463633
 30
0.0
 10
38.28815726147909
 20
189.432939849877
 30
0.0
 10
38.85192501438448
 20
191.8286467110451
 30
0.0
 10
39.96454219472321
 20
195.0895178170975
 30
0.0
 10
41.41170841026381
 20
198.2694066993913
 30
0.0
 10
43.21088403967052
 20
201.347905631147
 30
0.0
 10
45.32730461523087
 20
204.2493655391839
 30
0.0
 10
47.75018980874599
 20
206.9339125151778
 30
0.0
 10
50.43485028736445
 20
209.3569376901243
 30
0.0
 10
53.33615042692475
 20
211.4732769262013
 30
0.0
 10
56.41480352495174
 20
213.2725691183203
 30
0.0
 10
59.59446695896006
 20
214.7196772515277
 30
0.0
 10
62.85570325696639
 20
215.8324070685326
 30
0.0
 10
66.1014475557004
 20
216.5962945539288
 30
0.0
 10
69.34031367385631
 20
217.0445725539392
 30
0.0
 10
72.54248506378617
 20
217.1902504187794
 30
0.0
 10
75.74483253443245
 20
217.0445890413309
 30
0.0
 10
78.98353079414636
 20
216.5963588488698
 30
0.0
 10
82.22945140371941
 20
215.8324567897471
 30
0.0
 10
85.49053180427886
 20
214.7198064603884
 30
0.0
 10
88.67036237273393
 20
213.272649485333
 30
0.0
 10
91.74887721294395
 20
211.4734713181039
 30
0.0
 10
94.65033276907053
 20
209.3570515012563
 30
0.0
 10
97.33488092708004
 20
206.934165860146
 30
0.0
 10
99.75790575666281
 20
204.2495064076605
 30
0.0
 10
101.8742451908278
 20
201.3482026363076
 30
0.0
 10
103.6735369434659
 20
198.2695627737256
 30
0.0
 10
105.1206466128255
 20
195.0898508283018
 30
0.0
 10
106.2333709364887
 20
191.8287886186265
 30
0.0
 10
106.8342168685315
 20
189.2753745332723
 30
0.0
 10
107.1421569480507
 20
187.4579548276706
 30
0.0
 10
107.2882960589733
 20
186.4005080894421
 30
0.0
 10
107.4021020862344
 20
185.3400708360672
 30
0.0
 10
107.4827974070409
 20
184.2766168619151
 30
0.0
 10
107.5333189424566
 20
183.2101564931807
 30
0.0
 10
107.5395457091443
 20
182.498072489455
 30
0.0
 10
107.5426620359407
 20
182.1416938786221
 30
0.0
  0
SPLINE
  5
C1
330
1F
100
AcDbEntity
  8
0
  6
Continuous
 62
     7
370
    15
100
AcDbSpline
210
0.0
220
0.0
230
1.0
 70
     8
 71
     3
 72
    52
 73
    48
 74
     0
 42
0.000000001
 43
0.00000001
 40
0.0
 40
0.0
 40
0.0
 40
0.0
 40
0.0053074994726554
 40
0.0106084744807156
 40
0.0159043870752884
 40
0.0211967035030983
 40
0.0264868930010475
 40
0.0317764265783861
 40
0.0370667757915106
 40
0.0423594115164834
 40
0.0476558027243854
 40
0.0529574152645907
 40
0.0582657106609694
 40
0.0891348494759667
 40
0.1200087595578951
 40
0.1521645941111445
 40
0.1843252192282232
 40
0.2171652710889209
 40
0.25001021545236
 40
0.2828502674525652
 40
0.315695211956297
 40
0.3478510468951538
 40
0.3800116723979077
 40
0.41088081091547
 40
0.4417547207534571
 40
0.4708753336379863
 40
0.5000007798720127
 40
0.5291213927971703
 40
0.5582468390472111
 40
0.5891159778626601
 40
0.6199898879441411
 40
0.6521457224976949
 40
0.6843063476144631
 40
0.7171463994753853
 40
0.7499913438386053
 40
0.7828313958393156
 40
0.8156763403425399
 40
0.8478321752809374
 40
0.8799928007841432
 40
0.9108619393011222
 40
0.9417358491396983
 40
0.9514609652021586
 40
0.9611682412336295
 40
0.9708667191335897
 40
0.9805654654083855
 40
0.9902735458124469
 40
1.0
 40
1.0
 40
1.0
 40
1.0
 10
107.5426620359407
 20
182.1416938786221
 30
0.0
 10
107.5417340050303
 20
181.9472317205692
 30
0.0
 10
107.5398790840299
 20
181.5585464551635
 30
0.0
 10
107.5248500496783
 20
180.975983485142
 30
0.0
 10
107.500851420644
 20
180.3942975977726
 30
0.0
 10
107.4670071165608
 20
179.8134889029555
 30
0.0
 10
107.4235515748272
 20
179.2335575545363
 30
0.0
 10
107.3704220137612
 20
178.6545036341116
 30
0.0
 10
107.307635344039
 20
178.076327469975
 30
0.0
 10
107.2351867515224
 20
177.4990284726066
 30
0.0
 10
107.1530787140294
 20
176.922609472459
 30
0.0
 10
107.0613063120357
 20
176.3470605108809
 30
0.0
 10
106.7971668104013
 20
174.8504479073619
 30
0.0
 10
106.2333990574982
 20
172.4547410461931
 30
0.0
 10
105.1207818771518
 20
169.1938699401319
 30
0.0
 10
103.6736156616128
 20
166.0139810578434
 30
0.0
 10
101.8744400321985
 20
162.9354821260785
 30
0.0
 10
99.75801945664348
 20
160.0340222180507
 30
0.0
 10
97.33513426312047
 20
157.3494752420513
 30
0.0
 10
94.65047378450842
 20
154.9264500671152
 30
0.0
 10
91.74917364493797
 20
152.8101108310313
 30
0.0
 10
88.6705205469202
 20
151.010818638914
 30
0.0
 10
85.49085711286878
 20
149.563710505698
 30
0.0
 10
82.2296208148764
 20
148.45098068869
 30
0.0
 10
78.98387651612524
 20
147.6870932033025
 30
0.0
 10
75.74501039800897
 20
147.2388152033269
 30
0.0
 10
72.54283900809517
 20
147.093137338463
 30
0.0
 10
69.34049153746128
 20
147.2387987159015
 30
0.0
 10
66.10179327771557
 20
147.6870289083813
 30
0.0
 10
62.85587266812622
 20
148.4509309674958
 30
0.0
 10
59.59479226755027
 20
149.563581296876
 30
0.0
 10
56.41496169913611
 20
151.0107382719367
 30
0.0
 10
53.33644685892365
 20
152.8099164391464
 30
0.0
 10
50.43499130281482
 20
154.9263362559822
 30
0.0
 10
47.75044314481212
 20
157.3492218970865
 30
0.0
 10
45.32741831522875
 20
160.0338813495798
 30
0.0
 10
43.21107888107718
 20
162.9351851208967
 30
0.0
 10
41.41178712844049
 20
166.0138249834897
 30
0.0
 10
39.96467745907854
 20
169.1935369288896
 30
0.0
 10
38.85195313538182
 20
172.4545991385935
 30
0.0
 10
38.25110720335131
 20
175.0080132239561
 30
0.0
 10
37.94316712383108
 20
176.8254329295849
 30
0.0
 10
37.79702801290847
 20
177.8828796678213
 30
0.0
 10
37.68322198564731
 20
178.9433169211987
 30
0.0
 10
37.60252666484066
 20
180.0067708953482
 30
0.0
 10
37.55200512942486
 20
181.0732312640748
 30
0.0
 10
37.54577836273716
 20
181.7853152677935
 30
0.0
 10
37.54266203594071
 20
182.1416938786221
 30
0.0
  0
SPLINE
  5
C2
330
1F
100
AcDbEntity
  8
0
  6
Continuous
 62
     7
370
    15
100
AcDbSpline
210
0.0
220
0.0
230
1.0
 70
    24
 71
     3
 72
     8
 73
     4
 74
     0
 42
0.000000001
 43
0.00000001
 40
0.0
 40
0.0
 40
0.0
 40
0.0
 40
1.0
 40
1.0
 40
1.0
 40
1.0
 10
42.54266203594069
 20
219.4413553621892
 30
0.0
 10
42.54266203594069
 20
219.3378463179548
 30
0.0
 10
42.5426620359407
 20
219.2084227561227
 30
0.0
 10
42.5426620359407
 20
219.0776789552028
 30
0.0
  0
ARC
  5
C3
330
1F
100
AcDbEntity
  8
0
  6
Continuous
 62
     7
370
    15
100
AcDbCircle
 10
72.5426620359
 20
182.1416938786
 30
0.0
 40
47.58431457505077
100
AcDbArc
 50
129.0840578538
 51
140.9159421462
  0
SPLINE
  5
C4
330
1F
100
AcDbEntity
  8
0
  6
Continuous
 62
     7
370
    15
100
AcDbSpline
210
0.0
220
0.0
230
1.0
 70
    24
 71
     3
 72
     8
 73
     4
 74
     0
 42
0.000000001
 43
0.00000001
 40
0.0
 40
0.0
 40
0.0
 40
0.0
 40
1.0
 40
1.0
 40
1.0
 40
1.0
 10
35.60667695936005
 20
212.1416938786221
 30
0.0
 10
35.47597280975316
 20
212.1416938786221
 30
0.0
 10
35.34643584273699
 20
212.1416938786221
 30
0.0
 10
35.24300055237365
 20
212.1416938786221
 30
0.0
  0
ARC
  5
C5
330
1F
100
AcDbEntity
  8
0
  6
Continuous
 62
     7
370
    15
100
AcDbCircle
 10
72.5426620359
 20
182.1416938786
 30
0.0
 40
47.86715728752539
100
AcDbArc
 50
128.8096103904
 51
141.1903896096
  0
ARC
  5
C6
330
1F
100
AcDbEntity
  8
0
  6
Continuous
 62
     7
370
    15
100
AcDbCircle
 10
72.5426620359
 20
182.1416938786
 30
0.0
 40
47.86715728752539
100
AcDbArc
 50
163.7023380383
 51
196.2976619617
  0
SPLINE
  5
C7
330
1F
100
AcDbEntity
  8
0
  6
Continuous
 62
     7
370
    15
100
AcDbSpline
210
0.0
220
0.0
230
1.0
 70
     8
 71
     3
 72
    10
 73
     6
 74
     0
 42
0.000000001
 43
0.00000001
 40
0.0
 40
0.0
 40
0.0
 40
0.0
 40
0.5
 40
0.5
 40
1.0
 40
1.0
 40
1.0
 40
1.0
 10
26.59896297447404
 20
195.5745365910967
 30
0.0
 10
26.64250336589278
 20
195.607169652114
 30
0.0
 10
26.69105797001054
 20
195.6351505383803
 30
0.0
 10
26.80250750577241
 20
195.6778073887553
 30
0.0
 10
26.86446575836155
 20
195.6916938786221
 30
0.0
 10
26.92836062095256
 20
195.6916938786221
 30
0.0
  0
ARC
  5
C8
330
1F
100
AcDbEntity
  8
0
  6
Continuous
 62
     7
370
    15
100
AcDbCircle
 10
72.5426620359
 20
182.1416938786
 30
0.0
 40
47.58431457505078
100
AcDbArc
 50
163.4556342686
 51
196.5443657314
  0
SPLINE
  5
C9
330
1F
100
AcDbEntity
  8
0
  6
Continuous
 62
     7
370
    15
100
AcDbSpline
210
0.0
220
0.0
230
1.0
 70
     8
 71
     3
 72
    10
 73
     6
 74
     0
 42
0.000000001
 43
0.00000001
 40
0.0
 40
0.0
 40
0.0
 40
0.0
 40
0.5
 40
0.5
 40
1.0
 40
1.0
 40
1.0
 40
1.0
 10
26.59896297447404
 20
168.7088511661475
 30
0.0
 10
26.64250336589278
 20
168.6762181051302
 30
0.0
 10
26.69105797001052
 20
168.648237218864
 30
0.0
 10
26.8025075057724
 20
168.605580368489
 30
0.0
 10
26.86446575836155
 20
168.5916938786221
 30
0.0
 10
26.92836062095256
 20
168.5916938786221
 30
0.0
  0
SPLINE
  5
CA
330
1F
100
AcDbEntity
  8
0
  6
Continuous
 62
     7
370
    15
100
AcDbSpline
210
0.0
220
0.0
230
1.0
 70
     8
 71
     3
 72
    10
 73
     6
 74
     0
 42
0.000000001
 43
0.00000001
 40
0.0
 40
0.0
 40
0.0
 40
0.0
 40
0.5
 40
0.5
 40
1.0
 40
1.0
 40
1.0
 40
1.0
 10
118.4863610974074
 20
168.7088511661475
 30
0.0
 10
118.4428207059886
 20
168.6762181051302
 30
0.0
 10
118.3942661018709
 20
168.648237218864
 30
0.0
 10
118.282816566109
 20
168.605580368489
 30
0.0
 10
118.2208583135199
 20
168.5916938786222
 30
0.0
 10
118.1569634509289
 20
168.5916938786222
 30
0.0
  0
ARC
  5
CB
330
1F
100
AcDbEntity
  8
0
  6
Continuous
 62
     7
370
    15
100
AcDbCircle
 10
72.5426620359
 20
182.1416938786
 30
0.0
 40
47.58431457505078
100
AcDbArc
 50
343.4556342686
 51
16.5443657314
  0
SPLINE
  5
CC
330
1F
100
AcDbEntity
  8
0
  6
Continuous
 62
     7
370
    15
100
AcDbSpline
210
0.0
220
0.0
230
1.0
 70
     8
 71
     3
 72
    10
 73
     6
 74
     0
 42
0.000000001
 43
0.00000001
 40
0.0
 40
0.0
 40
0.0
 40
0.0
 40
0.5
 40
0.5
 40
1.0
 40
1.0
 40
1.0
 40
1.0
 10
118.1569634509289
 20
195.6916938786221
 30
0.0
 10
118.220915139772
 20
195.6916938786221
 30
0.0
 10
118.2824794782231
 20
195.6778480025973
 30
0.0
 10
118.3931048290721
 20
195.6356822264099
 30
0.0
 10
118.4427915207416
 20
195.6071915261469
 30
0.0
 10
118.4863610974074
 20
195.5745365910968
 30
0.0
  0
ARC
  5
CD
330
1F
100
AcDbEntity
  8
0
  6
Continuous
 62
     7
370
    15
100
AcDbCircle
 10
72.5426620359
 20
182.1416938786
 30
0.0
 40
47.8671572875254
100
AcDbArc
 50
343.7023380383
 51
16.2976619617
  0
SPLINE
  5
CE
330
1F
100
AcDbEntity
  8
0
  6
Continuous
 62
     7
370
    15
100
AcDbSpline
210
0.0
220
0.0
230
1.0
 70
     8
 71
     3
 72
    48
 73
    44
 74
     0
 42
0.000000001
 43
0.00000001
 40
0.0
 40
0.0
 40
0.0
 40
0.0
 40
0.0054347037870314
 40
0.0108647463485207
 40
0.0162911759177293
 40
0.0217150428226928
 40
0.0271373988806366
 40
0.0325592967880729
 40
0.0379817895083434
 40
0.0434059296583851
 40
0.0488327688965038
 40
0.0542633573129332
 40
0.059698742824938
 40
0.0907177254008823
 40
0.1217409090757531
 40
0.1535986684470912
 40
0.1854607425290452
 40
0.2177550902622351
 40
0.2500538118399259
 40
0.2823481596244854
 40
0.3146468812542022
 40
0.346504640772552
 40
0.3783667150011477
 40
0.440359683087698
 40
0.5000005600694972
 40
0.5596414370512967
 40
0.621634405137847
 40
0.6534921645093787
 40
0.6853542385911302
 40
0.7176485863248414
 40
0.749947307902022
 40
0.7822416556872713
 40
0.8145403773162883
 40
0.8463981368333431
 40
0.87826021106323
 40
0.9092791938585987
 40
0.9403023777537969
 40
0.9502622131370424
 40
0.9602093142102202
 40
0.970150156833966
 40
0.98009122909965
 40
0.9900390186493149
 40
0.9999999999999999
 40
0.9999999999999999
 40
0.9999999999999999
 40
0.9999999999999999
 10
26.92836062095256
 20
168.5916938786222
 30
0.0
 10
26.99212111804099
 20
168.3801545421942
 30
0.0
 10
27.11958742624611
 20
167.9572573019603
 30
0.0
 10
27.32185095726877
 20
167.3265830597325
 30
0.0
 10
27.53209552576925
 20
166.6990055800499
 30
0.0
 10
27.75112099051351
 20
166.0747625285969
 30
0.0
 10
27.97871319384271
 20
165.453790380802
 30
0.0
 10
28.21492948132225
 20
164.836106206752
 30
0.0
 10
28.45975436417544
 20
164.2217056399138
 30
0.0
 10
28.71319230908152
 20
163.6105895002074
 30
0.0
 10
28.97524075207673
 20
163.0027592841208
 30
0.0
 10
29.24590527961596
 20
162.3982085770267
 30
0.0
 10
29.96318451998687
 20
160.8539099818484
 30
0.0
 10
31.23469804712676
 20
158.4194675128184
 30
0.0
 10
33.26846319746806
 20
155.1845218537332
 30
0.0
 10
35.57568625937952
 20
152.0950428562123
 30
0.0
 10
38.16265192519273
 20
149.1664530435997
 30
0.0
 10
40.993381345496
 20
146.4465491192215
 30
0.0
 10
44.05404693356765
 20
143.9602872095377
 30
0.0
 10
47.30907579692405
 20
141.7341960321436
 30
0.0
 10
50.72221919163668
 20
139.7952355760545
 30
0.0
 10
54.26661321842325
 20
138.1492393196796
 30
0.0
 10
59.06684802038611
 20
136.3817533923588
 30
0.0
 10
65.16677031492921
 20
134.9363919857114
 30
0.0
 10
72.54266207778409
 20
134.3715375190247
 30
0.0
 10
79.91855358627826
 20
134.9363920554189
 30
0.0
 10
86.01830507167321
 20
136.3817125300379
 30
0.0
 10
90.81854748593716
 20
138.1491722647608
 30
0.0
 10
94.36279110561688
 20
139.7950737551719
 30
0.0
 10
97.7760962429629
 20
141.7341014381458
 30
0.0
 10
101.0309922320069
 20
143.9600746357951
 30
0.0
 10
104.0918088722404
 20
146.4464303902332
 30
0.0
 10
106.9224272196795
 20
149.1661980564275
 30
0.0
 10
109.5095287027708
 20
152.0949064282247
 30
0.0
 10
111.816658857179
 20
155.1842324184762
 30
0.0
 10
113.8505631486226
 20
158.4193334690138
 30
0.0
 10
115.2072672625875
 20
161.0169453382262
 30
0.0
 10
116.0687012575499
 20
162.899832768266
 30
0.0
 10
116.5452480512101
 20
164.0158877426908
 30
0.0
 10
116.9929945805876
 20
165.1429818777099
 30
0.0
 10
117.4112337213325
 20
166.2813468013702
 30
0.0
 10
117.8026469256485
 20
167.4301782826567
 30
0.0
 10
118.0388057818965
 20
168.2043510211151
 30
0.0
 10
118.1569634509288
 20
168.5916938786221
 30
0.0
  0
SPLINE
  5
CF
330
1F
100
AcDbEntity
  8
0
  6
Continuous
 62
     7
370
    15
100
AcDbSpline
210
0.0
220
0.0
230
1.0
 70
     8
 71
     3
 72
    27
 73
    23
 74
     0
 42
0.000000001
 43
0.00000001
 40
0.0
 40
0.0
 40
0.0
 40
0.0
 40
0.0385569892848211
 40
0.0770658329194701
 40
0.1155353026399639
 40
0.1539741971376514
 40
0.1923913361118491
 40
0.2307955542506346
 40
0.2691956951601454
 40
0.3076006052631416
 40
0.3460191276878565
 40
0.3844600961682111
 40
0.4229323289763935
 40
0.461444622908547
 40
0.5000057473438686
 40
0.5715713334491092
 40
0.6429967682524639
 40
0.7143384572505677
 40
0.7856530046539444
 40
0.8569970792753662
 40
0.9284272796518032
 40
1.0
 40
1.0
 40
1.0
 40
1.0
 10
35.60667695936005
 20
212.1416938786221
 30
0.0
 10
35.45580762353011
 20
211.9542886944502
 30
0.0
 10
35.15425734060077
 20
211.5797123367127
 30
0.0
 10
34.712971661095
 20
211.0096016432951
 30
0.0
 10
34.28018453980953
 20
210.4339598079238
 30
0.0
 10
33.85666052364726
 20
209.8521659723831
 30
0.0
 10
33.44219514538766
 20
209.264386361704
 30
0.0
 10
33.03684322756853
 20
208.6705765926233
 30
0.0
 10
32.64059018017905
 20
208.0707486661856
 30
0.0
 10
32.25343999058122
 20
207.4648994789864
 30
0.0
 10
31.87539167082817
 20
206.8530300214144
 30
0.0
 10
31.50644552714466
 20
206.2351400297049
 30
0.0
 10
31.14660162738738
 20
205.6112301822986
 30
0.0
 10
30.79585965933982
 20
204.9812986560002
 30
0.0
 10
30.35692890140818
 20
204.1642475070178
 30
0.0
 10
29.8422876762825
 20
203.1548919142609
 30
0.0
 10
29.26839645802902
 20
201.9467285132492
 30
0.0
 10
28.72941917474001
 20
200.7243038343713
 30
0.0
 10
28.22512760372228
 20
199.487694406348
 30
0.0
 10
27.75639129471753
 20
198.2366429646777
 30
0.0
 10
27.3199614021617
 20
196.9721174224742
 30
0.0
 10
27.05898091439074
 20
196.1187852100201
 30
0.0
 10
26.92836062095257
 20
195.6916938786221
 30
0.0
  0
SPLINE
  5
D0
330
1F
100
AcDbEntity
  8
0
  6
Continuous
 62
     7
370
    15
100
AcDbSpline
210
0.0
220
0.0
230
1.0
 70
     8
 71
     3
 72
    40
 73
    36
 74
     0
 42
0.000000001
 43
0.00000001
 40
0.0
 40
0.0
 40
0.0
 40
0.0
 40
0.0076138096090706
 40
0.015222703696619
 40
0.0228283796622113
 40
0.0304325370604607
 40
0.0380368764641707
 40
0.0456430983240686
 40
0.0532529018289472
 40
0.0608679837700325
 40
0.0919930035882894
 40
0.1231236538966525
 40
0.1547321881285151
 40
0.1863461940165317
 40
0.2182020912711853
 40
0.2500635030030784
 40
0.3137495787501998
 40
0.3769416086590435
 40
0.439168148565131
 40
0.5000004350472922
 40
0.5608327215294534
 40
0.6230592614355407
 40
0.6862512913443847
 40
0.7499373670915059
 40
0.7817932643700992
 40
0.813654676120411
 40
0.8452632104154371
 40
0.8768772163635395
 40
0.9080022357785864
 40
0.9391328857746177
 40
0.9513123423166135
 40
0.963481817855821
 40
0.9756482751522532
 40
0.9878186821461872
 40
1.0
 40
1.0
 40
1.0
 40
1.0
 10
118.1569634509289
 20
195.6916938786221
 30
0.0
 10
118.0884640400966
 20
195.9187066363448
 30
0.0
 10
117.9515094420658
 20
196.372585590981
 30
0.0
 10
117.7332793529288
 20
197.0492528121513
 30
0.0
 10
117.5057837315333
 20
197.7225235127182
 30
0.0
 10
117.2680987673651
 20
198.3921230435084
 30
0.0
 10
117.0204716213234
 20
199.0581251838588
 30
0.0
 10
116.7628371912719
 20
199.7205087188776
 30
0.0
 10
116.4952090109243
 20
200.3792841538905
 30
0.0
 10
115.9320163609344
 20
201.7083878891308
 30
0.0
 10
115.0069976887686
 20
203.6796886605407
 30
0.0
 10
113.6045849763179
 20
206.2465337399551
 30
0.0
 10
112.0390453682095
 20
208.7354835663624
 30
0.0
 10
110.3085339129561
 20
211.1405129784579
 30
0.0
 10
108.4268794757914
 20
213.4396233361973
 30
0.0
 10
105.7250497086934
 20
216.3482172101483
 30
0.0
 10
102.0256859711744
 20
219.6487960566073
 30
0.0
 10
97.16540906603554
 20
223.0008453741814
 30
0.0
 10
92.00912136518097
 20
225.6891561631581
 30
0.0
 10
86.63595754966991
 20
227.7097848304309
 30
0.0
 10
81.06022087640324
 20
229.0754312317266
 30
0.0
 10
75.28654732926817
 20
229.7675379622783
 30
0.0
 10
69.38248067459487
 20
229.7446840295533
 30
0.0
 10
64.46585294917948
 20
229.1089330175035
 30
0.0
 10
60.59370715723219
 20
228.2335579912635
 30
0.0
 10
57.7427797057325
 20
227.3982522059407
 30
0.0
 10
54.95648188763178
 20
226.3900862152555
 30
0.0
 10
52.25929645769034
 20
225.2196458207436
 30
0.0
 10
49.652453726202
 20
223.8926605079698
 30
0.0
 10
47.65348180049598
 20
222.7156404804214
 30
0.0
 10
46.20301756661097
 20
221.7765667947694
 30
0.0
 10
45.26328530859777
 20
221.1359249914199
 30
0.0
 10
44.33972323210126
 20
220.4727432501251
 30
0.0
 10
43.43076674800898
 20
219.78892806223
 30
0.0
 10
42.83878535294849
 20
219.3148327974577
 30
0.0
 10
42.54266203594072
 20
219.0776789552028
 30
0.0
  0
ARC
  5
D1
330
1F
100
AcDbEntity
  8
0
  6
Continuous
 62
     7
370
    15
100
AcDbCircle
 10
72.5426620359
 20
182.1416938786
 30
0.0
 40
47.8671572875254
100
AcDbArc
 50
196.2976619617
 51
343.7023380383
  0
ARC
  5
D2
330
1F
100
AcDbEntity
  8
0
  6
Continuous
 62
     7
370
    15
100
AcDbCircle
 10
72.5426620359
 20
182.1416938786
 30
0.0
 40
47.86715728752541
100
AcDbArc
 50
16.2976619617
 51
128.8096103904
  0
ARC
  5
D3
330
1F
100
AcDbEntity
  8
0
  6
Continuous
 62
     7
370
    15
100
AcDbCircle
 10
72.5426620359
 20
182.1416938786
 30
0.0
 40
47.86715728752539
100
AcDbArc
 50
141.1903896096
 51
163.7023380383
  0
ARC
  5
D4
330
1F
100
AcDbEntity
  8
0
  6
Continuous
 62
     7
370
    15
100
AcDbCircle
 10
72.5426620359
 20
182.1416938786
 30
0.0
 40
48.63284271247463
100
AcDbArc
 50
195.9657859825
 51
344.1258902834
  0
ARC
  5
D5
330
1F
100
AcDbEntity
  8
0
  6
Continuous
 62
     7
370
    15
100
AcDbCircle
 10
72.5426620359
 20
182.1416938786
 30
0.0
 40
48.63284271247462
100
AcDbArc
 50
164.0342140175
 51
195.9657859825
  0
ARC
  5
D6
330
1F
100
AcDbEntity
  8
0
  6
Continuous
 62
     7
370
    15
100
AcDbCircle
 10
72.5426620359
 20
182.1416938786
 30
0.0
 40
48.63284271247463
100
AcDbArc
 50
141.9122882504
 51
164.0342140175
  0
ARC
  5
D7
330
1F
100
AcDbEntity
  8
0
  6
Continuous
 62
     7
370
    15
100
AcDbCircle
 10
72.5426620359
 20
182.1416938786
 30
0.0
 40
48.63284271247463
100
AcDbArc
 50
128.0877117496
 51
141.9122882504
  0
ARC
  5
D8
330
1F
100
AcDbEntity
  8
0
  6
Continuous
 62
     7
370
    15
100
AcDbCircle
 10
72.5426620359
 20
182.1416938786
 30
0.0
 40
48.63284271247463
100
AcDbArc
 50
15.8741097166
 51
128.0877117496
  0
ARC
  5
D9
330
1F
100
AcDbEntity
  8
0
  6
Continuous
 62
     7
370
    15
100
AcDbCircle
 10
72.5426620359
 20
182.1416938786
 30
0.0
 40
48.63284271247461
100
AcDbArc
 50
344.1258902834
 51
15.8741097166
  0
ARC
  5
DA
330
1F
100
AcDbEntity
  8
0
  6
Continuous
 62
     7
370
    15
100
AcDbCircle
 10
72.5426620359
 20
182.1416938786
 30
0.0
 40
48.75000000000001
100
AcDbArc
 50
344.0491974398
 51
15.9508025602
  0
SPLINE
  5
DB
330
1F
100
AcDbEntity
  8
0
  6
Continuous
 62
     7
370
    15
100
AcDbSpline
210
0.0
220
0.0
230
1.0
 70
    24
 71
     3
 72
     8
 73
     4
 74
     0
 42
0.000000001
 43
0.00000001
 40
0.0
 40
0.0
 40
0.0
 40
0.0
 40
1.0
 40
1.0
 40
1.0
 40
1.0
 10
119.4156904901494
 20
168.7446157072094
 30
0.0
 10
119.4156904901494
 20
168.7446157072094
 30
0.0
 10
119.3785938970831
 20
168.7817123002756
 30
0.0
 10
119.3208915589861
 20
168.8394146383726
 30
0.0
  0
SPLINE
  5
DC
330
1F
100
AcDbEntity
  8
0
  6
Continuous
 62
     7
370
    15
100
AcDbSpline
210
0.0
220
0.0
230
1.0
 70
    24
 71
     3
 72
     8
 73
     4
 74
     0
 42
0.000000001
 43
0.00000001
 40
0.0
 40
0.0
 40
0.0
 40
0.0
 40
1.0
 40
1.0
 40
1.0
 40
1.0
 10
119.3208915589862
 20
195.4439731188716
 30
0.0
 10
119.3786189442588
 20
195.5017005041443
 30
0.0
 10
119.4156904901494
 20
195.5387720500348
 30
0.0
 10
119.4156904901494
 20
195.5387720500348
 30
0.0
  0
SPLINE
  5
DD
330
1F
100
AcDbEntity
  8
0
  6
Continuous
 62
     7
370
    15
100
AcDbSpline
210
0.0
220
0.0
230
1.0
 70
    24
 71
     3
 72
    10
 73
     6
 74
     0
 42
0.000000001
 43
0.00000001
 40
0.0
 40
0.0
 40
0.0
 40
0.0
 40
0.5
 40
0.5
 40
1.0
 40
1.0
 40
1.0
 40
1.0
 10
25.70469824948931
 20
195.6608524448594
 30
0.0
 10
25.70469824948931
 20
195.6608524448594
 30
0.0
 10
25.71341406410668
 20
195.6455824178847
 30
0.0
 10
25.74263214135309
 20
195.5943926155211
 30
0.0
 10
25.76282519908526
 20
195.5590145642651
 30
0.0
 10
25.78577673151631
 20
195.5188036907302
 30
0.0
  0
SPLINE
  5
DE
330
1F
100
AcDbEntity
  8
0
  6
Continuous
 62
     7
370
    15
100
AcDbSpline
210
0.0
220
0.0
230
1.0
 70
    24
 71
     3
 72
    10
 73
     6
 74
     0
 42
0.000000001
 43
0.00000001
 40
0.0
 40
0.0
 40
0.0
 40
0.0
 40
0.5
 40
0.5
 40
1.0
 40
1.0
 40
1.0
 40
1.0
 10
25.7857767315163
 20
168.764584066514
 30
0.0
 10
25.7628352112792
 20
168.7243907342508
 30
0.0
 10
25.74271412105961
 20
168.6891387694142
 30
0.0
 10
25.71344484700306
 20
168.6378592707105
 30
0.0
 10
25.70469824948929
 20
168.6225353123848
 30
0.0
 10
25.7046982494893
 20
168.6225353123848
 30
0.0
  0
ARC
  5
DF
330
1F
100
AcDbEntity
  8
0
  6
Continuous
 62
     7
370
    15
100
AcDbCircle
 10
72.5426620359
 20
182.1416938786
 30
0.0
 40
48.75000000000002
100
AcDbArc
 50
163.8999153276
 51
196.1000846724
  0
SPLINE
  5
E0
330
1F
100
AcDbEntity
  8
0
  6
Continuous
 62
     7
370
    15
100
AcDbSpline
210
0.0
220
0.0
230
1.0
 70
    24
 71
     3
 72
     8
 73
     4
 74
     0
 42
0.000000001
 43
0.00000001
 40
0.0
 40
0.0
 40
0.0
 40
0.0
 40
1.0
 40
1.0
 40
1.0
 40
1.0
 10
42.54266203594071
 20
220.5677592509706
 30
0.0
 10
42.54266203594071
 20
220.5677592509706
 30
0.0
 10
42.5426620359407
 20
220.5062437025392
 30
0.0
 10
42.5426620359407
 20
220.4190160197581
 30
0.0
  0
SPLINE
  5
E1
330
1F
100
AcDbEntity
  8
0
  6
Continuous
 62
     7
370
    15
100
AcDbSpline
210
0.0
220
0.0
230
1.0
 70
    24
 71
     3
 72
     8
 73
     4
 74
     0
 42
0.000000001
 43
0.00000001
 40
0.0
 40
0.0
 40
0.0
 40
0.0
 40
1.0
 40
1.0
 40
1.0
 40
1.0
 10
34.26533989480477
 20
212.1416938786221
 30
0.0
 10
34.17806547859068
 20
212.1416938786221
 30
0.0
 10
34.11659666359219
 20
212.141693878622
 30
0.0
 10
34.11659666359218
 20
212.141693878622
 30
0.0
  0
ARC
  5
E2
330
1F
100
AcDbEntity
  8
0
  6
Continuous
 62
     7
370
    15
100
AcDbCircle
 10
72.5426620359
 20
182.1416938786
 30
0.0
 40
48.75000000000001
100
AcDbArc
 50
127.9798724449
 51
142.0201275551
  0
ARC
  5
E3
330
1F
100
AcDbEntity
  8
0
  6
Continuous
 62
     7
370
    15
100
AcDbCircle
 10
72.5426620359
 20
182.1416938786
 30
0.0
 40
48.75000000000001
100
AcDbArc
 50
196.1000846724
 51
344.0491974398
  0
ARC
  5
E4
330
1F
100
AcDbEntity
  8
0
  6
Continuous
 62
     7
370
    15
100
AcDbCircle
 10
72.5426620359
 20
182.1416938786
 30
0.0
 40
48.75000000000001
100
AcDbArc
 50
15.9508025602
 51
127.9798724449
  0
ARC
  5
E5
330
1F
100
AcDbEntity
  8
0
  6
Continuous
 62
     7
370
    15
100
AcDbCircle
 10
72.5426620359
 20
182.1416938786
 30
0.0
 40
48.75000000000002
100
AcDbArc
 50
142.0201275551
 51
163.8999153276
  0
ARC
  5
E6
330
1F
100
AcDbEntity
  8
0
  6
Continuous
 62
     7
370
    15
100
AcDbCircle
 10
72.5426620359
 20
182.1416938786
 30
0.0
 40
48.75000000000001
100
AcDbArc
 50
180.0
 51
196.1000846724
  0
ARC
  5
E7
330
1F
100
AcDbEntity
  8
0
  6
Continuous
 62
     7
370
    15
100
AcDbCircle
 10
72.5426620359
 20
182.1416938786
 30
0.0
 40
48.75000000000002
100
AcDbArc
 50
163.8999153276
 51
180.0
  0
INSERT
  5
F3
330
1F
100
AcDbEntity
  8
DIM
100
AcDbBlockReference
  2
SW_CENTERMARKSYMBOL_0
 10
72.5426620359
 20
182.1416938786
 30
0.0
  0
LINE
  5
F4
330
1F
100
AcDbEntity
  8
0
  6
Continuous
 62
     7
370
    15
100
AcDbLine
 10
261.1716528964
 20
133.3916938786
 30
0.0
 11
264.7583722073
 21
133.3916938786
 31
0.0
  0
LINE
  5
F5
330
1F
100
AcDbEntity
  8
0
  6
Continuous
 62
     7
370
    15
100
AcDbLine
 10
264.7583722073
 20
230.8916938786
 30
0.0
 11
261.1716528964
 21
230.8916938786
 31
0.0
  0
LINE
  5
F6
330
1F
100
AcDbEntity
  8
0
  6
Continuous
 62
     7
370
    15
100
AcDbLine
 10
261.1716528964
 20
230.8916938786
 30
0.0
 11
259.8240576322
 21
228.557590413
 31
0.0
  0
LINE
  5
F7
330
1F
100
AcDbEntity
  8
0
  6
Continuous
 62
     7
370
    15
100
AcDbLine
 10
259.8240576322
 20
135.7257973442
 30
0.0
 11
261.1716528964
 21
133.3916938786
 31
0.0
  0
LINE
  5
F8
330
1F
100
AcDbEntity
  8
0
  6
Continuous
 62
     7
370
    15
100
AcDbLine
 10
254.676462368
 20
133.3916938786
 30
0.0
 11
256.0240576322
 21
135.7257973442
 31
0.0
  0
LINE
  5
F9
330
1F
100
AcDbEntity
  8
0
  6
Continuous
 62
     7
370
    15
100
AcDbLine
 10
256.0240576322
 20
228.557590413
 30
0.0
 11
254.676462368
 21
230.8916938786
 31
0.0
  0
LINE
  5
FA
330
1F
100
AcDbEntity
  8
0
  6
Continuous
 62
     7
370
    15
100
AcDbLine
 10
251.1897430572
 20
133.3916938786
 30
0.0
 11
254.676462368
 21
133.3916938786
 31
0.0
  0
LINE
  5
FB
330
1F
100
AcDbEntity
  8
0
  6
Continuous
 62
     7
370
    15
100
AcDbLine
 10
254.676462368
 20
230.8916938786
 30
0.0
 11
251.1897430572
 21
230.8916938786
 31
0.0
  0
LINE
  5
FC
330
1F
100
AcDbEntity
  8
0
  6
Continuous
 62
     7
370
    15
100
AcDbLine
 10
250.9069003447
 20
230.7745365911
 30
0.0
 11
250.1412149197
 21
230.0088511661
 31
0.0
  0
LINE
  5
FD
330
1F
100
AcDbEntity
  8
0
  6
Continuous
 62
     7
370
    15
100
AcDbLine
 10
250.1412149197
 20
134.2745365911
 30
0.0
 11
250.9069003447
 21
133.5088511661
 31
0.0
  0
LINE
  5
FE
330
1F
100
AcDbEntity
  8
0
  6
Continuous
 62
     7
370
    15
100
AcDbLine
 10
265.0412149197
 20
133.5088511661
 30
0.0
 11
265.8069003447
 21
134.2745365911
 31
0.0
  0
LINE
  5
FF
330
1F
100
AcDbEntity
  8
0
  6
Continuous
 62
     7
370
    15
100
AcDbLine
 10
265.8069003447
 20
230.0088511661
 30
0.0
 11
265.0412149197
 21
230.7745365911
 31
0.0
  0
ARC
  5
100
330
1F
100
AcDbEntity
  8
0
  6
Continuous
 62
     7
370
    15
100
AcDbCircle
 10
264.7583722073
 20
133.7916938786
 30
0.0
 40
0.4000000000000193
100
AcDbArc
 50
270.0
 51
315.0
  0
ARC
  5
101
330
1F
100
AcDbEntity
  8
0
  6
Continuous
 62
     7
370
    15
100
AcDbCircle
 10
251.1897430572
 20
133.7916938786
 30
0.0
 40
0.4000000000000057
100
AcDbArc
 50
225.0
 51
270.0
  0
ARC
  5
102
330
1F
100
AcDbEntity
  8
0
  6
Continuous
 62
     7
370
    15
100
AcDbCircle
 10
264.7583722073
 20
230.4916938786
 30
0.0
 40
0.4000000000000193
100
AcDbArc
 50
45.0
 51
90.0
  0
ARC
  5
103
330
1F
100
AcDbEntity
  8
0
  6
Continuous
 62
     7
370
    15
100
AcDbCircle
 10
251.1897430572
 20
230.4916938786
 30
0.0
 40
0.3999999999999992
100
AcDbArc
 50
90.0
 51
135.0
  0
ARC
  5
104
330
1F
100
AcDbEntity
  8
0
  6
Continuous
 62
     7
370
    15
100
AcDbCircle
 10
265.5240576322
 20
134.5573793036
 30
0.0
 40
0.4000000000000341
100
AcDbArc
 50
315.0
 51
0.0
  0
ARC
  5
105
330
1F
100
AcDbEntity
  8
0
  6
Continuous
 62
     7
370
    15
100
AcDbCircle
 10
265.5240576322
 20
229.7260084537
 30
0.0
 40
0.4000000000000341
100
AcDbArc
 50
0.0
 51
45.0
  0
ARC
  5
106
330
1F
100
AcDbEntity
  8
0
  6
Continuous
 62
     7
370
    15
100
AcDbCircle
 10
250.4240576322
 20
134.5573793036
 30
0.0
 40
0.4000000000000193
100
AcDbArc
 50
180.0
 51
225.0
  0
ARC
  5
107
330
1F
100
AcDbEntity
  8
0
  6
Continuous
 62
     7
370
    15
100
AcDbCircle
 10
250.4240576322
 20
229.7260084537
 30
0.0
 40
0.4000000000000193
100
AcDbArc
 50
135.0
 51
180.0
  0
LINE
  5
108
330
1F
100
AcDbEntity
  8
0
  6
Continuous
 62
     7
370
    15
100
AcDbLine
 10
256.0240576322
 20
136.6416938786
 30
0.0
 11
259.8240576322
 21
136.6416938786
 31
0.0
  0
LINE
  5
109
330
1F
100
AcDbEntity
  8
0
  6
Continuous
 62
     7
370
    15
100
AcDbLine
 10
259.8240576322
 20
227.6416938786
 30
0.0
 11
256.0240576322
 21
227.6416938786
 31
0.0
  0
ARC
  5
10A
330
1F
100
AcDbEntity
  8
0
  6
Continuous
 62
     7
370
    15
100
AcDbCircle
 10
249.5240576322
 20
147.1416938786
 30
0.0
 40
0.5
100
AcDbArc
 50
0.0
 51
90.0
  0
ARC
  5
10B
330
1F
100
AcDbEntity
  8
0
  6
Continuous
 62
     7
370
    15
100
AcDbCircle
 10
249.5240576322
 20
217.1416938786
 30
0.0
 40
0.5
100
AcDbArc
 50
270.0
 51
0.0
  0
LINE
  5
10C
330
1F
100
AcDbEntity
  8
0
  6
Continuous
 62
     7
370
    15
100
AcDbLine
 10
246.8240576322
 20
147.2166938786
 30
0.0
 11
247.7354730734
 21
147.6416938786
 31
0.0
  0
LINE
  5
10D
330
1F
100
AcDbEntity
  8
0
  6
Continuous
 62
     7
370
    15
100
AcDbLine
 10
247.7354730734
 20
216.6416938786
 30
0.0
 11
246.8240576322
 21
217.0666938786
 31
0.0
  0
LINE
  5
10E
330
1F
100
AcDbEntity
  8
0
  6
Continuous
 62
     7
370
    15
100
AcDbLine
 10
246.8240576322
 20
217.0666938786
 30
0.0
 11
145.929749405
 21
202.3528016657
 31
0.0
  0
LINE
  5
10F
330
1F
100
AcDbEntity
  8
0
  6
Continuous
 62
     7
370
    15
100
AcDbLine
 10
145.929749405
 20
161.9305860916
 30
0.0
 11
246.8240576322
 21
147.2166938786
 31
0.0
  0
LINE
  5
110
330
1F
100
AcDbEntity
  8
0
  6
Continuous
 62
     7
370
    15
100
AcDbLine
 10
247.7354730734
 20
147.6416938786
 30
0.0
 11
249.5240576322
 21
147.6416938786
 31
0.0
  0
LINE
  5
111
330
1F
100
AcDbEntity
  8
0
  6
Continuous
 62
     7
370
    15
100
AcDbLine
 10
249.5240576322
 20
216.6416938786
 30
0.0
 11
247.7354730734
 21
216.6416938786
 31
0.0
  0
ARC
  5
112
330
1F
100
AcDbEntity
  8
0
  6
Continuous
 62
     7
370
    15
100
AcDbCircle
 10
268.9240576322
 20
209.1416938786
 30
0.0
 40
3.0
100
AcDbArc
 50
180.0
 51
270.0
  0
ARC
  5
113
330
1F
100
AcDbEntity
  8
0
  6
Continuous
 62
     7
370
    15
100
AcDbCircle
 10
268.9240576322
 20
155.1416938786
 30
0.0
 40
3.0
100
AcDbArc
 50
90.0
 51
180.0
  0
LINE
  5
114
330
1F
100
AcDbEntity
  8
0
  6
Continuous
 62
     7
370
    15
100
AcDbLine
 10
405.8240576322
 20
158.1416938786
 30
0.0
 11
406.8240576322
 21
159.1416938786
 31
0.0
  0
LINE
  5
115
330
1F
100
AcDbEntity
  8
0
  6
Continuous
 62
     7
370
    15
100
AcDbLine
 10
406.8240576322
 20
205.1416938786
 30
0.0
 11
405.8240576322
 21
206.1416938786
 31
0.0
  0
LINE
  5
116
330
1F
100
AcDbEntity
  8
0
  6
Continuous
 62
     7
370
    15
100
AcDbLine
 10
268.9240576322
 20
158.1416938786
 30
0.0
 11
405.8240576322
 21
158.1416938786
 31
0.0
  0
LINE
  5
117
330
1F
100
AcDbEntity
  8
0
  6
Continuous
 62
     7
370
    15
100
AcDbLine
 10
405.8240576322
 20
206.1416938786
 30
0.0
 11
268.9240576322
 21
206.1416938786
 31
0.0
  0
ARC
  5
118
330
1F
100
AcDbEntity
  8
0
  6
Continuous
 62
     7
370
    15
100
AcDbCircle
 10
146.0740576322
 20
162.9201188781
 30
0.0
 40
1.0
100
AcDbArc
 50
180.0
 51
261.7027777778
  0
ARC
  5
119
330
1F
100
AcDbEntity
  8
0
  6
Continuous
 62
     7
370
    15
100
AcDbCircle
 10
146.0740576322
 20
201.3632688792
 30
0.0
 40
1.0
100
AcDbArc
 50
98.2972222222
 51
180.0
  0
LINE
  5
11A
330
1F
100
AcDbEntity
  8
0
  6
Continuous
 62
     7
370
    15
100
AcDbLine
 10
435.8240576322
 20
168.1416938786
 30
0.0
 11
436.8240576322
 21
169.1416938786
 31
0.0
  0
LINE
  5
11B
330
1F
100
AcDbEntity
  8
0
  6
Continuous
 62
     7
370
    15
100
AcDbLine
 10
436.8240576322
 20
195.1416938786
 30
0.0
 11
435.8240576322
 21
196.1416938786
 31
0.0
  0
LINE
  5
11C
330
1F
100
AcDbEntity
  8
0
  6
Continuous
 62
     7
370
    15
100
AcDbLine
 10
429.8240576322
 20
168.1416938786
 30
0.0
 11
435.8240576322
 21
168.1416938786
 31
0.0
  0
LINE
  5
11D
330
1F
100
AcDbEntity
  8
0
  6
Continuous
 62
     7
370
    15
100
AcDbLine
 10
435.8240576322
 20
196.1416938786
 30
0.0
 11
429.8240576322
 21
196.1416938786
 31
0.0
  0
LINE
  5
11E
330
1F
100
AcDbEntity
  8
0
  6
Continuous
 62
     7
370
    15
100
AcDbLine
 10
429.8240576322
 20
196.1416938786
 30
0.0
 11
428.8240576322
 21
195.1416938786
 31
0.0
  0
LINE
  5
11F
330
1F
100
AcDbEntity
  8
0
  6
Continuous
 62
     7
370
    15
100
AcDbLine
 10
428.8240576322
 20
169.1416938786
 30
0.0
 11
429.8240576322
 21
168.1416938786
 31
0.0
  0
LINE
  5
120
330
1F
100
AcDbEntity
  8
0
  6
Continuous
 62
     7
370
    15
100
AcDbLine
 10
425.3333099034
 20
171.1416938786
 30
0.0
 11
425.8240576322
 21
171.9916938786
 31
0.0
  0
LINE
  5
121
330
1F
100
AcDbEntity
  8
0
  6
Continuous
 62
     7
370
    15
100
AcDbLine
 10
425.8240576322
 20
192.2916938786
 30
0.0
 11
425.3333099034
 21
193.1416938786
 31
0.0
  0
LINE
  5
122
330
1F
100
AcDbEntity
  8
0
  6
Continuous
 62
     7
370
    15
100
AcDbLine
 10
406.8240576322
 20
171.1416938786
 30
0.0
 11
425.3333099034
 21
171.1416938786
 31
0.0
  0
LINE
  5
123
330
1F
100
AcDbEntity
  8
0
  6
Continuous
 62
     7
370
    15
100
AcDbLine
 10
425.3333099034
 20
193.1416938786
 30
0.0
 11
406.8240576322
 21
193.1416938786
 31
0.0
  0
ARC
  5
124
330
1F
100
AcDbEntity
  8
0
  6
Continuous
 62
     7
370
    15
100
AcDbCircle
 10
428.3240576322
 20
176.6416938786
 30
0.0
 40
0.5
100
AcDbArc
 50
0.0
 51
90.0
  0
ARC
  5
125
330
1F
100
AcDbEntity
  8
0
  6
Continuous
 62
     7
370
    15
100
AcDbCircle
 10
428.3240576322
 20
187.6416938786
 30
0.0
 40
0.5
100
AcDbArc
 50
270.0
 51
0.0
  0
LINE
  5
126
330
1F
100
AcDbEntity
  8
0
  6
Continuous
 62
     7
370
    15
100
AcDbLine
 10
425.8240576322
 20
177.1416938786
 30
0.0
 11
428.3240576322
 21
177.1416938786
 31
0.0
  0
LINE
  5
127
330
1F
100
AcDbEntity
  8
0
  6
Continuous
 62
     7
370
    15
100
AcDbLine
 10
428.3240576322
 20
187.1416938786
 30
0.0
 11
425.8240576322
 21
187.1416938786
 31
0.0
  0
LINE
  5
128
330
1F
100
AcDbEntity
  8
0
  6
Continuous
 62
     7
370
    15
100
AcDbLine
 10
264.7583722073
 20
168.7446157072
 30
0.0
 11
264.7583722073
 21
195.53877205
 31
0.0
  0
LINE
  5
129
330
1F
100
AcDbEntity
  8
0
  6
Continuous
 62
     7
370
    15
100
AcDbLine
 10
261.1716528964
 20
133.3916938786
 30
0.0
 11
261.1716528964
 21
230.8916938786
 31
0.0
  0
LINE
  5
12A
330
1F
100
AcDbEntity
  8
0
  6
Continuous
 62
     7
370
    15
100
AcDbLine
 10
265.0412149197
 20
168.8394146384
 30
0.0
 11
265.0412149197
 21
195.4439731189
 31
0.0
  0
SPLINE
  5
12B
330
1F
100
AcDbEntity
  8
0
  6
Continuous
 62
     7
370
    15
100
AcDbSpline
210
0.0
220
0.0
230
1.0
 70
     8
 71
     3
 72
     8
 73
     4
 74
     0
 42
0.000000001
 43
0.00000001
 40
0.0
 40
0.0
 40
0.0
 40
0.0
 40
1.0
 40
1.0
 40
1.0
 40
1.0
 10
265.0412149197469
 20
168.8394146383726
 30
0.0
 10
264.969899107565
 20
168.7816872530999
 30
0.0
 10
264.8669979499282
 20
168.7446157072094
 30
0.0
 10
264.7583722072723
 20
168.7446157072094
 30
0.0
  0
SPLINE
  5
12C
330
1F
100
AcDbEntity
  8
0
  6
Continuous
 62
     7
370
    15
100
AcDbSpline
210
0.0
220
0.0
230
1.0
 70
     8
 71
     3
 72
     8
 73
     4
 74
     0
 42
0.000000001
 43
0.00000001
 40
0.0
 40
0.0
 40
0.0
 40
0.0
 40
1.0
 40
1.0
 40
1.0
 40
1.0
 10
264.7583722072723
 20
195.5387720500348
 30
0.0
 10
264.8668891987234
 20
195.5387720500348
 30
0.0
 10
264.9699300505857
 20
195.5016754569686
 30
0.0
 10
265.041214919747
 20
195.4439731188716
 30
0.0
  0
LINE
  5
12D
330
1F
100
AcDbEntity
  8
0
  6
Continuous
 62
     7
370
    15
100
AcDbLine
 10
259.8240576322
 20
228.557590413
 30
0.0
 11
259.8240576322
 21
135.7257973442
 31
0.0
  0
LINE
  5
12E
330
1F
100
AcDbEntity
  8
0
  6
Continuous
 62
     7
370
    15
100
AcDbLine
 10
256.0240576322
 20
182.1416938786
 30
0.0
 11
256.0240576322
 21
228.557590413
 31
0.0
  0
LINE
  5
12F
330
1F
100
AcDbEntity
  8
0
  6
Continuous
 62
     7
370
    15
100
AcDbLine
 10
256.0240576322
 20
135.7257973442
 30
0.0
 11
256.0240576322
 21
182.1416938786
 31
0.0
  0
LINE
  5
130
330
1F
100
AcDbEntity
  8
0
  6
Continuous
 62
     7
370
    15
100
AcDbLine
 10
254.676462368
 20
182.1416938786
 30
0.0
 11
254.676462368
 21
133.3916938786
 31
0.0
  0
LINE
  5
131
330
1F
100
AcDbEntity
  8
0
  6
Continuous
 62
     7
370
    15
100
AcDbLine
 10
254.676462368
 20
230.8916938786
 30
0.0
 11
254.676462368
 21
182.1416938786
 31
0.0
  0
LINE
  5
132
330
1F
100
AcDbEntity
  8
0
  6
Continuous
 62
     7
370
    15
100
AcDbLine
 10
251.1897430572
 20
168.7446157072
 30
0.0
 11
251.1897430572
 21
195.53877205
 31
0.0
  0
SPLINE
  5
133
330
1F
100
AcDbEntity
  8
0
  6
Continuous
 62
     7
370
    15
100
AcDbSpline
210
0.0
220
0.0
230
1.0
 70
     8
 71
     3
 72
     8
 73
     4
 74
     0
 42
0.000000001
 43
0.00000001
 40
0.0
 40
0.0
 40
0.0
 40
0.0
 40
1.0
 40
1.0
 40
1.0
 40
1.0
 10
251.1897430571708
 20
168.7446157072094
 30
0.0
 10
251.0812260657198
 20
168.7446157072094
 30
0.0
 10
250.9781852138575
 20
168.7817123002756
 30
0.0
 10
250.9069003446962
 20
168.8394146383726
 30
0.0
  0
LINE
  5
134
330
1F
100
AcDbEntity
  8
0
  6
Continuous
 62
     7
370
    15
100
AcDbLine
 10
250.9069003447
 20
168.8394146384
 30
0.0
 11
250.9069003447
 21
195.4439731189
 31
0.0
  0
SPLINE
  5
135
330
1F
100
AcDbEntity
  8
0
  6
Continuous
 62
     7
370
    15
100
AcDbSpline
210
0.0
220
0.0
230
1.0
 70
     8
 71
     3
 72
     8
 73
     4
 74
     0
 42
0.000000001
 43
0.00000001
 40
0.0
 40
0.0
 40
0.0
 40
0.0
 40
1.0
 40
1.0
 40
1.0
 40
1.0
 10
250.9069003446962
 20
195.4439731188716
 30
0.0
 10
250.9782161568781
 20
195.5017005041443
 30
0.0
 10
251.0811173145149
 20
195.5387720500348
 30
0.0
 10
251.1897430571708
 20
195.5387720500348
 30
0.0
  0
LINE
  5
136
330
1F
100
AcDbEntity
  8
0
  6
Continuous
 62
     7
370
    15
100
AcDbLine
 10
250.1412149197
 20
168.7088511661
 30
0.0
 11
250.1412149197
 21
195.5745365911
 31
0.0
  0
LINE
  5
137
330
1F
100
AcDbEntity
  8
0
  6
Continuous
 62
     7
370
    15
100
AcDbLine
 10
265.8069003447
 20
169.2916938786
 30
0.0
 11
265.8069003447
 21
194.9916938786
 31
0.0
  0
LINE
  5
138
330
1F
100
AcDbEntity
  8
0
  6
Continuous
 62
     7
370
    15
100
AcDbLine
 10
265.924057627
 20
169.2916691259
 30
0.0
 11
265.924057627
 21
194.9917186314
 31
0.0
  0
SPLINE
  5
139
330
1F
100
AcDbEntity
  8
0
  6
Continuous
 62
     7
370
    15
100
AcDbSpline
210
0.0
220
0.0
230
1.0
 70
    24
 71
     3
 72
     8
 73
     4
 74
     0
 42
0.000000001
 43
0.00000001
 40
0.0
 40
0.0
 40
0.0
 40
0.0
 40
1.0
 40
1.0
 40
1.0
 40
1.0
 10
265.9240576322216
 20
169.2916938786221
 30
0.0
 10
265.9240576322215
 20
169.2916938786221
 30
0.0
 10
265.8825138982691
 20
169.2916938786221
 30
0.0
 10
265.8069003446962
 20
169.2916938786221
 30
0.0
  0
SPLINE
  5
13A
330
1F
100
AcDbEntity
  8
0
  6
Continuous
 62
     7
370
    15
100
AcDbSpline
210
0.0
220
0.0
230
1.0
 70
    24
 71
     3
 72
     8
 73
     4
 74
     0
 42
0.000000001
 43
0.00000001
 40
0.0
 40
0.0
 40
0.0
 40
0.0
 40
1.0
 40
1.0
 40
1.0
 40
1.0
 10
265.9240576322216
 20
194.9916938786221
 30
0.0
 10
265.9240576322216
 20
194.9916938786221
 30
0.0
 10
265.8825138982691
 20
194.9916938786221
 30
0.0
 10
265.8069003446962
 20
194.9916938786221
 30
0.0
  0
SPLINE
  5
13B
330
1F
100
AcDbEntity
  8
0
  6
Continuous
 62
     7
370
    15
100
AcDbSpline
210
0.0
220
0.0
230
1.0
 70
    24
 71
     3
 72
    10
 73
     6
 74
     0
 42
0.000000001
 43
0.00000001
 40
0.0
 40
0.0
 40
0.0
 40
0.0
 40
0.5
 40
0.5
 40
1.0
 40
1.0
 40
1.0
 40
1.0
 10
250.141214919747
 20
168.7088511661475
 30
0.0
 10
250.1085818587297
 20
168.6762181051302
 30
0.0
 10
250.0806009724635
 20
168.648237218864
 30
0.0
 10
250.0379441220884
 20
168.605580368489
 30
0.0
 10
250.0240576322216
 20
168.5916938786222
 30
0.0
 10
250.0240576322216
 20
168.5916938786222
 30
0.0
  0
LINE
  5
13C
330
1F
100
AcDbEntity
  8
0
  6
Continuous
 62
     7
370
    15
100
AcDbLine
 10
250.0240576322
 20
168.5916938786
 30
0.0
 11
250.0240576322
 21
195.6916938786
 31
0.0
  0
SPLINE
  5
13D
330
1F
100
AcDbEntity
  8
0
  6
Continuous
 62
     7
370
    15
100
AcDbSpline
210
0.0
220
0.0
230
1.0
 70
    24
 71
     3
 72
    10
 73
     6
 74
     0
 42
0.000000001
 43
0.00000001
 40
0.0
 40
0.0
 40
0.0
 40
0.0
 40
0.5
 40
0.5
 40
1.0
 40
1.0
 40
1.0
 40
1.0
 10
250.0240576322216
 20
195.6916938786221
 30
0.0
 10
250.0240576322216
 20
195.6916938786221
 30
0.0
 10
250.0379035082464
 20
195.6778480025973
 30
0.0
 10
250.0800692844338
 20
195.6356822264099
 30
0.0
 10
250.1085599846969
 20
195.6071915261469
 30
0.0
 10
250.141214919747
 20
195.5745365910968
 30
0.0
  0
SPLINE
  5
13E
330
1F
100
AcDbEntity
  8
0
  6
Continuous
 62
     7
370
    15
100
AcDbSpline
210
0.0
220
0.0
230
1.0
 70
    24
 71
     3
 72
    36
 73
    32
 74
     0
 42
0.000000001
 43
0.00000001
 40
0.0
 40
0.0
 40
0.0
 40
0.0
 40
0.010855060115309
 40
0.021700603247601
 40
0.0325387683476148
 40
0.0433716987364442
 40
0.0542015408431699
 40
0.0650304429332853
 40
0.0758605538316704
 40
0.0866940216439018
 40
0.0975329924797007
 40
0.1083796091823073
 40
0.1192360100675244
 40
0.181247834122235
 40
0.2432679244012066
 40
0.3069990489490812
 40
0.370738668921532
 40
0.4353656024873025
 40
0.5000011508910791
 40
0.5646280845655833
 40
0.6292636330748704
 40
0.6929947579300935
 40
0.7567343782029041
 40
0.8187462027125846
 40
0.8807662934441524
 40
0.9006583299602414
 40
0.9205248324912559
 40
0.9403790153804057
 40
0.9602341175685198
 40
0.9801033761588329
 40
1.0
 40
1.0
 40
1.0
 40
1.0
 10
265.9240576322216
 20
169.2916938786221
 30
0.0
 10
265.9240576322216
 20
169.0769070042598
 30
0.0
 10
265.9240576322216
 20
168.6475215661492
 30
0.0
 10
265.9240576322216
 20
168.0070250560488
 30
0.0
 10
265.9240576322216
 20
167.36957484462
 30
0.0
 10
265.9240576322216
 20
166.7354011901477
 30
0.0
 10
265.9240576322216
 20
166.1044425581595
 30
0.0
 10
265.9240576322216
 20
165.4767154895752
 30
0.0
 10
265.9240576322216
 20
164.8522157704965
 30
0.0
 10
265.9240576322216
 20
164.2309441649714
 30
0.0
 10
265.9240576322216
 20
163.6129022656665
 30
0.0
 10
265.9240576322216
 20
162.998083353525
 30
0.0
 10
265.9240576322216
 20
161.4262256968663
 30
0.0
 10
265.9240576322216
 20
158.9465764028341
 30
0.0
 10
265.9240576322216
 20
155.6479033443611
 30
0.0
 10
265.9240576322216
 20
152.4945264191801
 30
0.0
 10
265.9240576322216
 20
149.5024537106135
 30
0.0
 10
265.9240576322216
 20
146.7217075019981
 30
0.0
 10
265.9240576322216
 20
144.1784081949218
 30
0.0
 10
265.9240576322216
 20
141.9003967098536
 30
0.0
 10
265.9240576322216
 20
139.9159642141348
 30
0.0
 10
265.9240576322216
 20
138.2312109770648
 30
0.0
 10
265.9240576322216
 20
136.868350483514
 30
0.0
 10
265.9240576322216
 20
135.8161721628583
 30
0.0
 10
265.9240576322216
 20
135.2426707108037
 30
0.0
 10
265.9240576322216
 20
134.9466433101198
 30
0.0
 10
265.9240576322216
 20
134.804628224674
 30
0.0
 10
265.9240576322216
 20
134.6940260321123
 30
0.0
 10
265.9240576322216
 20
134.6155965028983
 30
0.0
 10
265.9240576322216
 20
134.5664803910936
 30
0.0
 10
265.9240576322216
 20
134.5604143908697
 30
0.0
 10
265.9240576322216
 20
134.5573793035713
 30
0.0
  0
SPLINE
  5
13F
330
1F
100
AcDbEntity
  8
0
  6
Continuous
 62
     7
370
    15
100
AcDbSpline
210
0.0
220
0.0
230
1.0
 70
    24
 71
     3
 72
    18
 73
    14
 74
     0
 42
0.000000001
 43
0.00000001
 40
0.0
 40
0.0
 40
0.0
 40
0.0
 40
0.0493410091687669
 40
0.1443029880143527
 40
0.23710424017658
 40
0.3299054923388072
 40
0.424867471184393
 40
0.5213266033289872
 40
0.61855212008829
 40
0.7157776368475928
 40
0.8122367689921868
 40
0.9071987478377727
 40
1.0
 40
1.0
 40
1.0
 40
1.0
 10
265.9240576322216
 20
229.6329360682768
 30
0.0
 10
265.9240576322216
 20
229.6501509634273
 30
0.0
 10
265.9240576322216
 20
229.7004977408934
 30
0.0
 10
265.9240576322216
 20
228.9957617207843
 30
0.0
 10
265.9240576322216
 20
227.6082005730986
 30
0.0
 10
265.9240576322216
 20
225.5209088525789
 30
0.0
 10
265.9240576322216
 20
222.7673318046879
 30
0.0
 10
265.9240576322216
 20
219.3390399720954
 30
0.0
 10
265.9240576322216
 20
215.2969349965521
 30
0.0
 10
265.9240576322216
 20
210.730194748663
 30
0.0
 10
265.9240576322216
 20
205.7477203386969
 30
0.0
 10
265.9240576322216
 20
200.4960718748007
 30
0.0
 10
265.9240576322216
 20
196.81235615436
 30
0.0
 10
265.9240576322216
 20
194.9916938786221
 30
0.0
  0
SPLINE
  5
140
330
1F
100
AcDbEntity
  8
0
  6
Continuous
 62
     7
370
    15
100
AcDbSpline
210
0.0
220
0.0
230
1.0
 70
    24
 71
     3
 72
    36
 73
    32
 74
     0
 42
0.000000001
 43
0.00000001
 40
0.0
 40
0.0
 40
0.0
 40
0.0
 40
0.0108663901693764
 40
0.0217235992689927
 40
0.0325737239461297
 40
0.0434188649567969
 40
0.0542611259538548
 40
0.0651026122666534
 40
0.0759454296758007
 40
0.0867916831866139
 40
0.0976434758048303
 40
0.1085029073181251
 40
0.1193720730869558
 40
0.1813968254495411
 40
0.2434299782169203
 40
0.3071319268850098
 40
0.3708425031356519
 40
0.4354174425596918
 40
0.5000011278075956
 40
0.5645760673346892
 40
0.6291597526862437
 40
0.6928617016453169
 40
0.7565722781921671
 40
0.8185970309917204
 40
0.88063018420144
 40
0.9005456124940234
 40
0.9204355775907559
 40
0.9403130284544624
 40
0.9601909385042273
 40
0.9800822802606719
 40
1.0
 40
1.0
 40
1.0
 40
1.0
 10
250.0240576322216
 20
134.5573793035713
 30
0.0
 10
250.0240576322216
 20
134.5582603504533
 30
0.0
 10
250.0240576322216
 20
134.5600216998159
 30
0.0
 10
250.0240576322216
 20
134.5743169466626
 30
0.0
 10
250.0240576322216
 20
134.5971458431879
 30
0.0
 10
250.0240576322216
 20
134.6293429621232
 30
0.0
 10
250.0240576322216
 20
134.6706848776925
 30
0.0
 10
250.0240576322216
 20
134.7212314356582
 30
0.0
 10
250.0240576322216
 20
134.7809665390891
 30
0.0
 10
250.0240576322216
 20
134.8498947113617
 30
0.0
 10
250.0240576322216
 20
134.9280138932197
 30
0.0
 10
250.0240576322216
 20
135.0153277142121
 30
0.0
 10
250.0240576322216
 20
135.2631644286213
 30
0.0
 10
250.0240576322216
 20
135.7888122436522
 30
0.0
 10
250.0240576322216
 20
136.8172032501756
 30
0.0
 10
250.0240576322216
 20
138.1491530634698
 30
0.0
 10
250.0240576322216
 20
139.795078978184
 30
0.0
 10
250.0240576322216
 20
141.73410003046
 30
0.0
 10
250.0240576322216
 20
143.9600750129589
 30
0.0
 10
250.0240576322216
 20
146.4464302891162
 30
0.0
 10
250.0240576322216
 20
149.1661980831137
 30
0.0
 10
250.0240576322216
 20
152.0949064211071
 30
0.0
 10
250.0240576322216
 20
155.184232420332
 30
0.0
 10
250.0240576322216
 20
158.4193334685053
 30
0.0
 10
250.0240576322216
 20
161.016945338265
 30
0.0
 10
250.0240576322216
 20
162.8998327682606
 30
0.0
 10
250.0240576322216
 20
164.0158877426923
 30
0.0
 10
250.0240576322216
 20
165.1429818777095
 30
0.0
 10
250.0240576322216
 20
166.2813468013703
 30
0.0
 10
250.0240576322216
 20
167.4301782826567
 30
0.0
 10
250.0240576322216
 20
168.2043510211151
 30
0.0
 10
250.0240576322216
 20
168.5916938786221
 30
0.0
  0
SPLINE
  5
141
330
1F
100
AcDbEntity
  8
0
  6
Continuous
 62
     7
370
    15
100
AcDbSpline
210
0.0
220
0.0
230
1.0
 70
    24
 71
     3
 72
    18
 73
    14
 74
     0
 42
0.000000001
 43
0.00000001
 40
0.0
 40
0.0
 40
0.0
 40
0.0
 40
0.0932231664383691
 40
0.1885829732450733
 40
0.2854223567770079
 40
0.383018846774494
 40
0.4806153367719804
 40
0.5774547203039149
 40
0.6728145271106194
 40
0.7660376935489883
 40
0.8592608599873572
 40
0.9546206667940617
 40
0.9999999999999999
 40
0.9999999999999999
 40
0.9999999999999999
 40
0.9999999999999999
 10
250.0240576322216
 20
195.6916938786221
 30
0.0
 10
250.0240576322216
 20
197.4901597855708
 30
0.0
 10
250.0240576322216
 20
201.1283117704265
 30
0.0
 10
250.0240576322216
 20
206.3030093188961
 30
0.0
 10
250.0240576322216
 20
211.2038169597502
 30
0.0
 10
250.0240576322216
 20
215.6872989456567
 30
0.0
 10
250.0240576322216
 20
219.6484627158683
 30
0.0
 10
250.0240576322216
 20
223.0013829792458
 30
0.0
 10
250.0240576322216
 20
225.6873807164073
 30
0.0
 10
250.0240576322216
 20
227.7162028281124
 30
0.0
 10
250.0240576322216
 20
229.0512404915027
 30
0.0
 10
250.0240576322216
 20
229.7147884722411
 30
0.0
 10
250.0240576322216
 20
229.6542386027167
 30
0.0
 10
250.0240576322216
 20
229.6347151588157
 30
0.0
  0
LINE
  5
142
330
1F
100
AcDbEntity
  8
0
  6
Continuous
 62
     7
370
    15
100
AcDbLine
 10
246.8240576322
 20
182.1416938786
 30
0.0
 11
246.8240576322
 21
147.2166938786
 31
0.0
  0
LINE
  5
143
330
1F
100
AcDbEntity
  8
0
  6
Continuous
 62
     7
370
    15
100
AcDbLine
 10
246.8240576322
 20
217.0666938786
 30
0.0
 11
246.8240576322
 21
182.1416938786
 31
0.0
  0
LINE
  5
144
330
1F
100
AcDbEntity
  8
0
  6
Continuous
 62
     7
370
    15
100
AcDbLine
 10
247.7354730734
 20
182.1416938786
 30
0.0
 11
247.7354730734
 21
147.6416938786
 31
0.0
  0
LINE
  5
145
330
1F
100
AcDbEntity
  8
0
  6
Continuous
 62
     7
370
    15
100
AcDbLine
 10
247.7354730734
 20
216.6416938786
 30
0.0
 11
247.7354730734
 21
182.1416938786
 31
0.0
  0
LINE
  5
146
330
1F
100
AcDbEntity
  8
0
  6
Continuous
 62
     7
370
    15
100
AcDbLine
 10
406.8240576322
 20
182.1416938786
 30
0.0
 11
406.8240576322
 21
205.1416938786
 31
0.0
  0
LINE
  5
147
330
1F
100
AcDbEntity
  8
0
  6
Continuous
 62
     7
370
    15
100
AcDbLine
 10
406.8240576322
 20
159.1416938786
 30
0.0
 11
406.8240576322
 21
182.1416938786
 31
0.0
  0
LINE
  5
148
330
1F
100
AcDbEntity
  8
0
  6
Continuous
 62
     7
370
    15
100
AcDbLine
 10
405.8240576322
 20
182.1416938786
 30
0.0
 11
405.8240576322
 21
206.1416938786
 31
0.0
  0
LINE
  5
149
330
1F
100
AcDbEntity
  8
0
  6
Continuous
 62
     7
370
    15
100
AcDbLine
 10
405.8240576322
 20
158.1416938786
 30
0.0
 11
405.8240576322
 21
182.1416938786
 31
0.0
  0
SPLINE
  5
14A
330
1F
100
AcDbEntity
  8
0
  6
Continuous
 62
     7
370
    15
100
AcDbSpline
210
0.0
220
0.0
230
1.0
 70
    24
 71
     3
 72
    10
 73
     6
 74
     0
 42
0.000000001
 43
0.00000001
 40
0.0
 40
0.0
 40
0.0
 40
0.0
 40
0.4999999999999997
 40
0.4999999999999997
 40
0.9999999999999999
 40
0.9999999999999999
 40
0.9999999999999999
 40
0.9999999999999999
 10
145.0740576322216
 20
201.3632688791675
 30
0.0
 10
145.0740576322216
 20
201.3632688791674
 30
0.0
 10
145.0740576322216
 20
199.3380424530984
 30
0.0
 10
145.0740576322216
 20
192.1287573600884
 30
0.0
 10
145.0740576322216
 20
187.2394282553965
 30
0.0
 10
145.0740576322216
 20
182.1416938786221
 30
0.0
  0
SPLINE
  5
14B
330
1F
100
AcDbEntity
  8
0
  6
Continuous
 62
     7
370
    15
100
AcDbSpline
210
0.0
220
0.0
230
1.0
 70
    24
 71
     3
 72
    10
 73
     6
 74
     0
 42
0.000000001
 43
0.00000001
 40
0.0
 40
0.0
 40
0.0
 40
0.0
 40
0.4999999999999999
 40
0.4999999999999999
 40
0.9999999999999999
 40
0.9999999999999999
 40
0.9999999999999999
 40
0.9999999999999999
 10
145.0740576322216
 20
182.1416938786221
 30
0.0
 10
145.0740576322216
 20
177.0439595018477
 30
0.0
 10
145.0740576322216
 20
172.1546303971554
 30
0.0
 10
145.0740576322216
 20
164.9453453041455
 30
0.0
 10
145.0740576322216
 20
162.9201188780766
 30
0.0
 10
145.0740576322216
 20
162.9201188780767
 30
0.0
  0
LINE
  5
14C
330
1F
100
AcDbEntity
  8
0
  6
Continuous
 62
     7
370
    15
100
AcDbLine
 10
436.8240576322
 20
182.1416938786
 30
0.0
 11
436.8240576322
 21
195.1416938786
 31
0.0
  0
LINE
  5
14D
330
1F
100
AcDbEntity
  8
0
  6
Continuous
 62
     7
370
    15
100
AcDbLine
 10
436.8240576322
 20
169.1416938786
 30
0.0
 11
436.8240576322
 21
182.1416938786
 31
0.0
  0
LINE
  5
14E
330
1F
100
AcDbEntity
  8
0
  6
Continuous
 62
     7
370
    15
100
AcDbLine
 10
435.8240576322
 20
182.1416938786
 30
0.0
 11
435.8240576322
 21
196.1416938786
 31
0.0
  0
LINE
  5
14F
330
1F
100
AcDbEntity
  8
0
  6
Continuous
 62
     7
370
    15
100
AcDbLine
 10
435.8240576322
 20
168.1416938786
 30
0.0
 11
435.8240576322
 21
182.1416938786
 31
0.0
  0
LINE
  5
150
330
1F
100
AcDbEntity
  8
0
  6
Continuous
 62
     7
370
    15
100
AcDbLine
 10
429.8240576322
 20
168.1416938786
 30
0.0
 11
429.8240576322
 21
196.1416938786
 31
0.0
  0
LINE
  5
151
330
1F
100
AcDbEntity
  8
0
  6
Continuous
 62
     7
370
    15
100
AcDbLine
 10
428.8240576322
 20
169.1416938786
 30
0.0
 11
428.8240576322
 21
195.1416938786
 31
0.0
  0
LINE
  5
152
330
1F
100
AcDbEntity
  8
0
  6
Continuous
 62
     7
370
    15
100
AcDbLine
 10
425.3333099034
 20
182.1416938786
 30
0.0
 11
425.3333099034
 21
193.1416938786
 31
0.0
  0
LINE
  5
153
330
1F
100
AcDbEntity
  8
0
  6
Continuous
 62
     7
370
    15
100
AcDbLine
 10
425.3333099034
 20
171.1416938786
 30
0.0
 11
425.3333099034
 21
182.1416938786
 31
0.0
  0
LINE
  5
154
330
1F
100
AcDbEntity
  8
0
  6
Continuous
 62
     7
370
    15
100
AcDbLine
 10
425.8240576322
 20
171.9916938786
 30
0.0
 11
425.8240576322
 21
192.2916938786
 31
0.0
  0
LINE
  5
155
330
1F
100
AcDbEntity
  8
0
  6
Continuous
 62
     7
370
    15
100
AcDbLine
 10
411.5740576322
 20
170.1416938786
 30
0.0
 11
411.5740576322
 21
169.6416938786
 31
0.0
  0
LINE
  5
156
330
1F
100
AcDbEntity
  8
0
  6
Continuous
 62
     7
370
    15
100
AcDbLine
 10
406.8240576322
 20
169.6416938786
 30
0.0
 11
411.5740576322
 21
169.6416938786
 31
0.0
  0
LINE
  5
157
330
1F
100
AcDbEntity
  8
0
  6
Continuous
 62
     7
370
    15
100
AcDbLine
 10
411.5740576322
 20
170.1416938786
 30
0.0
 11
406.8240576322
 21
170.1416938786
 31
0.0
  0
LINE
  5
158
330
1F
100
AcDbEntity
  8
0
  6
Continuous
 62
     7
370
    15
100
AcDbLine
 10
411.5740576322
 20
169.6416938786
 30
0.0
 11
411.5740576322
 21
160.6416938786
 31
0.0
  0
LINE
  5
159
330
1F
100
AcDbEntity
  8
0
  6
Continuous
 62
     7
370
    15
100
AcDbLine
 10
411.5740576322
 20
160.6416938786
 30
0.0
 11
406.8240576322
 21
160.6416938786
 31
0.0
  0
LINE
  5
15A
330
1F
100
AcDbEntity
  8
0
  6
Continuous
 62
     7
370
    15
100
AcDbLine
 10
406.8240576322
 20
160.1416938786
 30
0.0
 11
411.5740576322
 21
160.1416938786
 31
0.0
  0
LINE
  5
15B
330
1F
100
AcDbEntity
  8
0
  6
Continuous
 62
     7
370
    15
100
AcDbLine
 10
411.5740576322
 20
160.6416938786
 30
0.0
 11
411.5740576322
 21
160.1416938786
 31
0.0
  0
LINE
  5
15C
330
1F
100
AcDbEntity
  8
0
  6
Continuous
 62
     7
370
    15
100
AcDbLine
 10
406.8240576322
 20
203.6416938786
 30
0.0
 11
411.5740576322
 21
203.6416938786
 31
0.0
  0
LINE
  5
15D
330
1F
100
AcDbEntity
  8
0
  6
Continuous
 62
     7
370
    15
100
AcDbLine
 10
411.5740576322
 20
203.6416938786
 30
0.0
 11
411.5740576322
 21
194.6416938786
 31
0.0
  0
LINE
  5
15E
330
1F
100
AcDbEntity
  8
0
  6
Continuous
 62
     7
370
    15
100
AcDbLine
 10
411.5740576322
 20
194.6416938786
 30
0.0
 11
406.8240576322
 21
194.6416938786
 31
0.0
  0
LINE
  5
15F
330
1F
100
AcDbEntity
  8
0
  6
Continuous
 62
     7
370
    15
100
AcDbLine
 10
411.5740576322
 20
204.1416938786
 30
0.0
 11
411.5740576322
 21
203.6416938786
 31
0.0
  0
LINE
  5
160
330
1F
100
AcDbEntity
  8
0
  6
Continuous
 62
     7
370
    15
100
AcDbLine
 10
411.5740576322
 20
204.1416938786
 30
0.0
 11
406.8240576322
 21
204.1416938786
 31
0.0
  0
LINE
  5
161
330
1F
100
AcDbEntity
  8
0
  6
Continuous
 62
     7
370
    15
100
AcDbLine
 10
406.8240576322
 20
194.1416938786
 30
0.0
 11
411.5740576322
 21
194.1416938786
 31
0.0
  0
LINE
  5
162
330
1F
100
AcDbEntity
  8
0
  6
Continuous
 62
     7
370
    15
100
AcDbLine
 10
411.5740576322
 20
194.6416938786
 30
0.0
 11
411.5740576322
 21
194.1416938786
 31
0.0
  0
LINE
  5
163
330
1F
100
AcDbEntity
  8
0
  6
Continuous
 62
     8
370
    15
100
AcDbLine
 10
264.7583722073
 20
133.3916938786
 30
0.0
 11
264.7583722073
 21
168.7446157072
 31
0.0
  0
LINE
  5
164
330
1F
100
AcDbEntity
  8
0
  6
Continuous
 62
     8
370
    15
100
AcDbLine
 10
264.7583722073
 20
195.53877205
 30
0.0
 11
264.7583722073
 21
230.8916938786
 31
0.0
  0
LINE
  5
165
330
1F
100
AcDbEntity
  8
0
  6
Continuous
 62
     8
370
    15
100
AcDbLine
 10
251.1897430572
 20
168.7446157072
 30
0.0
 11
251.1897430572
 21
133.3916938786
 31
0.0
  0
LINE
  5
166
330
1F
100
AcDbEntity
  8
0
  6
Continuous
 62
     8
370
    15
100
AcDbLine
 10
251.1897430572
 20
230.8916938786
 30
0.0
 11
251.1897430572
 21
195.53877205
 31
0.0
  0
LINE
  5
167
330
1F
100
AcDbEntity
  8
0
  6
Continuous
 62
     8
370
    15
100
AcDbLine
 10
250.1412149197
 20
195.5745365911
 30
0.0
 11
250.1412149197
 21
230.0088511661
 31
0.0
  0
LINE
  5
168
330
1F
100
AcDbEntity
  8
0
  6
Continuous
 62
     8
370
    15
100
AcDbLine
 10
250.1412149197
 20
134.2745365911
 30
0.0
 11
250.1412149197
 21
168.7088511661
 31
0.0
  0
LINE
  5
169
330
1F
100
AcDbEntity
  8
0
  6
Continuous
 62
     8
370
    15
100
AcDbLine
 10
250.9069003447
 20
133.5088511661
 30
0.0
 11
250.9069003447
 21
168.8394146384
 31
0.0
  0
LINE
  5
16A
330
1F
100
AcDbEntity
  8
0
  6
Continuous
 62
     8
370
    15
100
AcDbLine
 10
250.9069003447
 20
230.7745365911
 30
0.0
 11
250.9069003447
 21
195.4439731189
 31
0.0
  0
LINE
  5
16B
330
1F
100
AcDbEntity
  8
0
  6
Continuous
 62
     8
370
    15
100
AcDbLine
 10
265.8069003447
 20
230.0088511661
 30
0.0
 11
265.8069003447
 21
194.9916938786
 31
0.0
  0
LINE
  5
16C
330
1F
100
AcDbEntity
  8
0
  6
Continuous
 62
     8
370
    15
100
AcDbLine
 10
265.8069003447
 20
169.2916938786
 30
0.0
 11
265.8069003447
 21
134.2745365911
 31
0.0
  0
LINE
  5
16D
330
1F
100
AcDbEntity
  8
0
  6
Continuous
 62
     8
370
    15
100
AcDbLine
 10
265.0412149197
 20
168.8394146384
 30
0.0
 11
265.0412149197
 21
133.5088511661
 31
0.0
  0
LINE
  5
16E
330
1F
100
AcDbEntity
  8
0
  6
Continuous
 62
     8
370
    15
100
AcDbLine
 10
265.0412149197
 20
230.7745365911
 30
0.0
 11
265.0412149197
 21
195.4439731189
 31
0.0
  0
LINE
  5
16F
330
1F
100
AcDbEntity
  8
0
  6
Continuous
 62
     8
370
    15
100
AcDbLine
 10
249.5240576322
 20
182.1416938786
 30
0.0
 11
249.5240576322
 21
216.6416938786
 31
0.0
  0
LINE
  5
170
330
1F
100
AcDbEntity
  8
0
  6
Continuous
 62
     8
370
    15
100
AcDbLine
 10
249.5240576322
 20
147.6416938786
 30
0.0
 11
249.5240576322
 21
182.1416938786
 31
0.0
  0
LINE
  5
171
330
1F
100
AcDbEntity
  8
0
  6
Continuous
 62
     8
370
    15
100
AcDbLine
 10
145.929749405
 20
202.3528016657
 30
0.0
 11
145.929749405
 21
161.9305860916
 31
0.0
  0
LINE
  5
172
330
1F
100
AcDbEntity
  8
0
  6
Continuous
 62
     8
370
    15
100
AcDbLine
 10
268.9240576322
 20
182.1416938786
 30
0.0
 11
268.9240576322
 21
158.1416938786
 31
0.0
  0
LINE
  5
173
330
1F
100
AcDbEntity
  8
0
  6
Continuous
 62
     8
370
    15
100
AcDbLine
 10
268.9240576322
 20
206.1416938786
 30
0.0
 11
268.9240576322
 21
182.1416938786
 31
0.0
  0
LINE
  5
174
330
1F
100
AcDbEntity
  8
0
  6
Continuous
 62
     8
370
    15
100
AcDbLine
 10
428.3240576322
 20
182.1416938786
 30
0.0
 11
428.3240576322
 21
187.1416938786
 31
0.0
  0
LINE
  5
175
330
1F
100
AcDbEntity
  8
0
  6
Continuous
 62
     8
370
    15
100
AcDbLine
 10
428.3240576322
 20
177.1416938786
 30
0.0
 11
428.3240576322
 21
182.1416938786
 31
0.0
  0
DIMENSION
  5
176
330
1F
100
AcDbEntity
  8
DIM
100
AcDbDimension
  2
_D
 10
446.9074873343
 20
171.1416938786
 30
0.0
 11
446.9074873343
 21
182.1416938786
 31
0.0
 70
   160
  1
%%c<>
 71
     2
 42
-1.0
  3
SLDDIMSTYLE0
100
AcDbAlignedDimension
 13
425.3333099034
 23
193.1416938786
 33
0.0
 14
425.3333099034
 24
171.1416938786
 34
0.0
 50
90.0
100
AcDbRotatedDimension
  0
DIMENSION
  5
184
330
1F
100
AcDbEntity
  8
DIM
100
AcDbDimension
  2
_D_1
 10
454.8302930773
 20
158.1416938786
 30
0.0
 11
454.8302930773
 21
182.1416938786
 31
0.0
 70
   160
  1
%%c<>
 71
     2
 42
-1.0
  3
SLDDIMSTYLE1
100
AcDbAlignedDimension
 13
405.8240576322
 23
206.1416938786
 33
0.0
 14
405.8240576322
 24
158.1416938786
 34
0.0
 50
90.0
100
AcDbRotatedDimension
  0
DIMENSION
  5
190
330
1F
100
AcDbEntity
  8
DIM
100
AcDbDimension
  2
_D_2
 10
406.8240576322
 20
120.2192875172
 30
0.0
 11
416.3240576322
 21
120.2192875172
 31
0.0
 70
   160
  1
<>
 71
     2
 42
-1.0
  3
SLDDIMSTYLE0
100
AcDbAlignedDimension
 13
425.8240576322
 23
171.9916938786
 33
0.0
 14
406.8240576322
 24
159.1416938786
 34
0.0
100
AcDbRotatedDimension
  0
DIMENSION
  5
19C
330
1F
100
AcDbEntity
  8
DIM
100
AcDbDimension
  2
_D_3
 10
246.8240576322
 20
120.2192875172
 30
0.0
 11
326.8240576322
 21
120.2192875172
 31
0.0
 70
   160
  1
<>
 71
     2
 42
-1.0
  3
SLDDIMSTYLE1
100
AcDbAlignedDimension
 13
406.8240576322
 23
160.1416938786
 33
0.0
 14
246.8240576322
 24
147.2166938786
 34
0.0
 50
0.0
100
AcDbRotatedDimension
  0
DIMENSION
  5
1A6
330
1F
100
AcDbEntity
  8
DIM
100
AcDbDimension
  2
_D_4
 10
436.8240576322
 20
107.7915938786
 30
0.0
 11
290.9490576322
 21
107.7915938786
 31
0.0
 70
   160
  1
<>
 71
     2
 42
-1.0
  3
SLDDIMSTYLE1
100
AcDbAlignedDimension
 13
145.0740576322
 23
182.1416938786
 33
0.0
 14
436.8240576322
 24
169.1416938786
 34
0.0
 50
0.0
100
AcDbRotatedDimension
  0
DIMENSION
  5
1B0
330
1F
100
AcDbEntity
  8
DIM
100
AcDbDimension
  2
_D_5
 10
138.0737333839
 20
133.3916938786
 30
0.0
 11
138.0737333839
 21
182.1416938786
 31
0.0
 70
   160
  1
%%c<>
 71
     2
 42
-1.0
  3
SLDDIMSTYLE2
100
AcDbAlignedDimension
 13
251.1897430572
 23
230.8916938786
 33
0.0
 14
251.1897430572
 24
133.3916938786
 34
0.0
 50
90.0
100
AcDbRotatedDimension
  0
LINE
  5
1BC
330
1F
100
AcDbEntity
  8
DIM
  6
CENTERX2
 48
1.25
370
     0
100
AcDbLine
 10
145.3062513375
 20
182.1416938786
 30
0.0
 11
437.2823813888
 21
182.1416938786
 31
0.0
  0
ENDSEC
  0
SECTION
  2
OBJECTS
  0
DICTIONARY
  5
C
330
0
100
AcDbDictionary
281
     1
  3
ACAD_GROUP
350
D
  3
ACAD_LAYOUT
350
1A
  3
ACAD_MLINESTYLE
350
17
  3
ACAD_PLOTSETTINGS
350
19
  3
ACAD_PLOTSTYLENAME
350
E
  3
ACAD_SCALELIST
350
47
  0
DICTIONARY
  5
D
102
{ACAD_REACTORS
330
C
102
}
330
C
100
AcDbDictionary
281
     1
  0
DICTIONARY
  5
1A
102
{ACAD_REACTORS
330
C
102
}
330
C
100
AcDbDictionary
281
     1
  3
Layout1
350
1E
  3
Layout2
350
26
  3
Model
350
22
  0
DICTIONARY
  5
17
102
{ACAD_REACTORS
330
C
102
}
330
C
100
AcDbDictionary
281
     1
  3
Standard
350
18
  0
DICTIONARY
  5
19
102
{ACAD_REACTORS
330
C
102
}
330
C
100
AcDbDictionary
281
     1
  0
ACDBDICTIONARYWDFLT
  5
E
102
{ACAD_REACTORS
330
C
102
}
330
C
100
AcDbDictionary
281
     1
  3
Normal
350
F
100
AcDbDictionaryWithDefault
340
F
  0
DICTIONARY
  5
47
102
{ACAD_REACTORS
330
C
102
}
330
C
100
AcDbDictionary
281
     1
  3
A0
350
48
  3
A1
350
49
  3
A2
350
4A
  3
A3
350
4B
  3
A4
350
4C
  3
A5
350
4D
  3
A6
350
4E
  3
A7
350
4F
  3
A8
350
50
  3
A9
350
51
  3
B0
350
52
  3
B1
350
53
  3
B2
350
54
  3
B3
350
55
  3
B4
350
56
  3
B5
350
57
  3
B6
350
58
  3
B7
350
59
  3
B8
350
5A
  3
B9
350
5B
  3
C0
350
5C
  3
C1
350
5D
  3
C2
350
5E
  3
C3
350
5F
  3
C4
350
60
  3
C5
350
61
  3
C6
350
62
  3
C7
350
63
  3
C8
350
64
  3
C9
350
65
  3
D0
350
66
  3
D1
350
67
  3
D2
350
68
  0
LAYOUT
  5
1E
102
{ACAD_REACTORS
330
1A
102
}
330
1A
100
AcDbPlotSettings
  1

  2
none_device
  4

  6

 40
0.0
 41
0.0
 42
0.0
 43
0.0
 44
0.0
 45
0.0
 46
0.0
 47
0.0
 48
0.0
 49
0.0
140
0.0
141
0.0
142
1.0
143
1.0
 70
   688
 72
     1
 73
     0
 74
     5
  7

 75
    16
147
1.0
148
0.0
149
0.0
100
AcDbLayout
  1
Layout1
 70
     1
 71
     1
 10
0.0
 20
0.0
 11
420.0
 21
297.0
 12
0.0
 22
0.0
 32
0.0
 14
1.0000000000E+20
 24
1.0000000000E+20
 34
1.0000000000E+20
 15
-1.0000000000E+20
 25
-1.0000000000E+20
 35
-1.0000000000E+20
146
0.0
 13
0.0
 23
0.0
 33
0.0
 16
1.0
 26
0.0
 36
0.0
 17
0.0
 27
1.0
 37
0.0
 76
     0
330
1B
  0
LAYOUT
  5
26
102
{ACAD_REACTORS
330
1A
102
}
330
1A
100
AcDbPlotSettings
  1

  2
none_device
  4

  6

 40
0.0
 41
0.0
 42
0.0
 43
0.0
 44
0.0
 45
0.0
 46
0.0
 47
0.0
 48
0.0
 49
0.0
140
0.0
141
0.0
142
1.0
143
1.0
 70
   688
 72
     1
 73
     0
 74
     5
  7

 75
    16
147
1.0
148
0.0
149
0.0
100
AcDbLayout
  1
Layout2
 70
     1
 71
     2
 10
0.0
 20
0.0
 11
0.0
 21
0.0
 12
0.0
 22
0.0
 32
0.0
 14
0.0
 24
0.0
 34
0.0
 15
0.0
 25
0.0
 35
0.0
146
0.0
 13
0.0
 23
0.0
 33
0.0
 16
1.0
 26
0.0
 36
0.0
 17
0.0
 27
1.0
 37
0.0
 76
     0
330
23
  0
LAYOUT
  5
22
102
{ACAD_REACTORS
330
1A
102
}
330
1A
100
AcDbPlotSettings
  1

  2
none_device
  4
Letter_(8.50_x_11.00_Inches)
  6

 40
6.35
 41
6.35
 42
6.35000508
 43
6.35000508
 44
215.9
 45
279.4
 46
0.0
 47
0.0
 48
0.0
 49
0.0
140
0.0
141
0.0
142
1.0
143
1.0
 70
  1712
 72
     1
 73
     0
 74
     0
  7

 75
     0
147
1.0
148
0.0
149
0.0
100
AcDbLayout
  1
Model
 70
     1
 71
     0
 10
0.0
 20
0.0
 11
475.2
 21
336.0
 12
0.0
 22
0.0
 32
0.0
 14
0.0
 24
0.0
 34
0.0
 15
475.2
 25
336.0
 35
0.0
146
0.0
 13
0.0
 23
0.0
 33
0.0
 16
1.0
 26
0.0
 36
0.0
 17
0.0
 27
1.0
 37
0.0
 76
     0
330
1F
331
29
  0
MLINESTYLE
  5
18
102
{ACAD_REACTORS
330
17
102
}
330
17
100
AcDbMlineStyle
  2
Standard
 70
     0
  3

 62
   256
 51
90.0
 52
90.0
 71
     2
 49
0.5
 62
   256
  6
BYLAYER
 49
-0.5
 62
   256
  6
BYLAYER
  0
ACDBPLACEHOLDER
  5
F
102
{ACAD_REACTORS
330
E
102
}
330
E
  0
SCALE
  5
48
102
{ACAD_REACTORS
330
47
102
}
330
47
100
AcDbScale
 70
     0
300
1:1
140
1.0
141
1.0
290
     1
  0
SCALE
  5
49
102
{ACAD_REACTORS
330
47
102
}
330
47
100
AcDbScale
 70
     0
300
1:2
140
1.0
141
2.0
290
     0
  0
SCALE
  5
4A
102
{ACAD_REACTORS
330
47
102
}
330
47
100
AcDbScale
 70
     0
300
1:4
140
1.0
141
4.0
290
     0
  0
SCALE
  5
4B
102
{ACAD_REACTORS
330
47
102
}
330
47
100
AcDbScale
 70
     0
300
1:5
140
1.0
141
5.0
290
     0
  0
SCALE
  5
4C
102
{ACAD_REACTORS
330
47
102
}
330
47
100
AcDbScale
 70
     0
300
1:8
140
1.0
141
8.0
290
     0
  0
SCALE
  5
4D
102
{ACAD_REACTORS
330
47
102
}
330
47
100
AcDbScale
 70
     0
300
1:10
140
1.0
141
10.0
290
     0
  0
SCALE
  5
4E
102
{ACAD_REACTORS
330
47
102
}
330
47
100
AcDbScale
 70
     0
300
1:16
140
1.0
141
16.0
290
     0
  0
SCALE
  5
4F
102
{ACAD_REACTORS
330
47
102
}
330
47
100
AcDbScale
 70
     0
300
1:20
140
1.0
141
20.0
290
     0
  0
SCALE
  5
50
102
{ACAD_REACTORS
330
47
102
}
330
47
100
AcDbScale
 70
     0
300
1:30
140
1.0
141
30.0
290
     0
  0
SCALE
  5
51
102
{ACAD_REACTORS
330
47
102
}
330
47
100
AcDbScale
 70
     0
300
1:40
140
1.0
141
40.0
290
     0
  0
SCALE
  5
52
102
{ACAD_REACTORS
330
47
102
}
330
47
100
AcDbScale
 70
     0
300
1:50
140
1.0
141
50.0
290
     0
  0
SCALE
  5
53
102
{ACAD_REACTORS
330
47
102
}
330
47
100
AcDbScale
 70
     0
300
1:100
140
1.0
141
100.0
290
     0
  0
SCALE
  5
54
102
{ACAD_REACTORS
330
47
102
}
330
47
100
AcDbScale
 70
     0
300
2:1
140
2.0
141
1.0
290
     0
  0
SCALE
  5
55
102
{ACAD_REACTORS
330
47
102
}
330
47
100
AcDbScale
 70
     0
300
4:1
140
4.0
141
1.0
290
     0
  0
SCALE
  5
56
102
{ACAD_REACTORS
330
47
102
}
330
47
100
AcDbScale
 70
     0
300
8:1
140
8.0
141
1.0
290
     0
  0
SCALE
  5
57
102
{ACAD_REACTORS
330
47
102
}
330
47
100
AcDbScale
 70
     0
300
10:1
140
10.0
141
1.0
290
     0
  0
SCALE
  5
58
102
{ACAD_REACTORS
330
47
102
}
330
47
100
AcDbScale
 70
     0
300
100:1
140
100.0
141
1.0
290
     0
  0
SCALE
  5
59
102
{ACAD_REACTORS
330
47
102
}
330
47
100
AcDbScale
 70
     0
300
1/128" = 1'-0"
140
0.0078125
141
12.0
290
     0
  0
SCALE
  5
5A
102
{ACAD_REACTORS
330
47
102
}
330
47
100
AcDbScale
 70
     0
300
1/64" = 1'-0"
140
0.015625
141
12.0
290
     0
  0
SCALE
  5
5B
102
{ACAD_REACTORS
330
47
102
}
330
47
100
AcDbScale
 70
     0
300
1/32" = 1'-0"
140
0.03125
141
12.0
290
     0
  0
SCALE
  5
5C
102
{ACAD_REACTORS
330
47
102
}
330
47
100
AcDbScale
 70
     0
300
1/16" = 1'-0"
140
0.0625
141
12.0
290
     0
  0
SCALE
  5
5D
102
{ACAD_REACTORS
330
47
102
}
330
47
100
AcDbScale
 70
     0
300
3/32" = 1'-0"
140
0.09375
141
12.0
290
     0
  0
SCALE
  5
5E
102
{ACAD_REACTORS
330
47
102
}
330
47
100
AcDbScale
 70
     0
300
1/8" = 1'-0"
140
0.125
141
12.0
290
     0
  0
SCALE
  5
5F
102
{ACAD_REACTORS
330
47
102
}
330
47
100
AcDbScale
 70
     0
300
3/16" = 1'-0"
140
0.1875
141
12.0
290
     0
  0
SCALE
  5
60
102
{ACAD_REACTORS
330
47
102
}
330
47
100
AcDbScale
 70
     0
300
1/4" = 1'-0"
140
0.25
141
12.0
290
     0
  0
SCALE
  5
61
102
{ACAD_REACTORS
330
47
102
}
330
47
100
AcDbScale
 70
     0
300
3/8" = 1'-0"
140
0.375
141
12.0
290
     0
  0
SCALE
  5
62
102
{ACAD_REACTORS
330
47
102
}
330
47
100
AcDbScale
 70
     0
300
1/2" = 1'-0"
140
0.5
141
12.0
290
     0
  0
SCALE
  5
63
102
{ACAD_REACTORS
330
47
102
}
330
47
100
AcDbScale
 70
     0
300
3/4" = 1'-0"
140
0.75
141
12.0
290
     0
  0
SCALE
  5
64
102
{ACAD_REACTORS
330
47
102
}
330
47
100
AcDbScale
 70
     0
300
1" = 1'-0"
140
1.0
141
12.0
290
     0
  0
SCALE
  5
65
102
{ACAD_REACTORS
330
47
102
}
330
47
100
AcDbScale
 70
     0
300
1-1/2" = 1'-0"
140
1.5
141
12.0
290
     0
  0
SCALE
  5
66
102
{ACAD_REACTORS
330
47
102
}
330
47
100
AcDbScale
 70
     0
300
3" = 1'-0"
140
3.0
141
12.0
290
     0
  0
SCALE
  5
67
102
{ACAD_REACTORS
330
47
102
}
330
47
100
AcDbScale
 70
     0
300
6" = 1'-0"
140
6.0
141
12.0
290
     0
  0
SCALE
  5
68
102
{ACAD_REACTORS
330
47
102
}
330
47
100
AcDbScale
 70
     0
300
1'-0" = 1'-0"
140
12.0
141
12.0
290
     0
  0
ENDSEC
  0
EOF
