  0
SECTION
  2
HEADER
  9
$ACADVER
  1
AC1015
  9
$ACADMAINTVER
 70
     6
  9
$DWGCODEPAGE
  3
ANSI_1252
  9
$INSBASE
 10
0.0
 20
0.0
 30
0.0
  9
$EXTMIN
 10
0.0
 20
0.0
 30
0.0
  9
$EXTMAX
 10
445.5
 20
315.0
 30
0.0
  9
$LIMMIN
 10
0.0
 20
0.0
  9
$LIMMAX
 10
445.5
 20
315.0
  9
$ORTHOMODE
 70
     0
  9
$REGENMODE
 70
     1
  9
$FILLMODE
 70
     1
  9
$QTEXTMODE
 70
     0
  9
$MIRRTEXT
 70
     1
  9
$LTSCALE
 40
1.5
  9
$ATTMODE
 70
     1
  9
$TEXTSIZE
 40
5.8208333333
  9
$TRACEWID
 40
1.0
  9
$TEXTSTYLE
  7
Standard
  9
$CLAYER
  8
0
  9
$CELTYPE
  6
ByLayer
  9
$CECOLOR
 62
   256
  9
$CELTSCALE
 40
1.0
  9
$DISPSILH
 70
     0
  9
$DIMSCALE
 40
1.0
  9
$DIMASZ
 40
4.953
  9
$DIMEXO
 40
1.5
  9
$DIMDLI
 40
3.75
  9
$DIMRND
 40
0.0
  9
$DIMDLE
 40
0.0
  9
$DIMEXE
 40
1.5
  9
$DIMTP
 40
0.0
  9
$DIMTM
 40
0.0
  9
$DIMTXT
 40
5.8208333333
  9
$DIMCEN
 40
2.5
  9
$DIMTSZ
 40
0.0
  9
$DIMTOL
 70
     0
  9
$DIMLIM
 70
     0
  9
$DIMTIH
 70
     1
  9
$DIMTOH
 70
     1
  9
$DIMSE1
 70
     0
  9
$DIMSE2
 70
     0
  9
$DIMTAD
 70
     1
  9
$DIMZIN
 70
     0
  9
$DIMBLK
  1

  9
$DIMASO
 70
     1
  9
$DIMSHO
 70
     1
  9
$DIMPOST
  1

  9
$DIMAPOST
  1

  9
$DIMALT
 70
     0
  9
$DIMALTD
 70
     3
  9
$DIMALTF
 40
0.0393700787
  9
$DIMLFAC
 40
1.0
  9
$DIMTOFL
 70
     1
  9
$DIMTVP
 40
0.0
  9
$DIMTIX
 70
     0
  9
$DIMSOXD
 70
     0
  9
$DIMSAH
 70
     0
  9
$DIMBLK1
  1

  9
$DIMBLK2
  1

  9
$DIMSTYLE
  2
ISO-25
  9
$DIMCLRD
 70
     0
  9
$DIMCLRE
 70
     0
  9
$DIMCLRT
 70
     0
  9
$DIMTFAC
 40
1.0
  9
$DIMGAP
 40
2.286
  9
$DIMJUST
 70
     0
  9
$DIMSD1
 70
     0
  9
$DIMSD2
 70
     0
  9
$DIMTOLJ
 70
     0
  9
$DIMTZIN
 70
     0
  9
$DIMALTZ
 70
     0
  9
$DIMALTTZ
 70
     0
  9
$DIMUPT
 70
     0
  9
$DIMDEC
 70
     2
  9
$DIMTDEC
 70
     2
  9
$DIMALTU
 70
     2
  9
$DIMALTTD
 70
     3
  9
$DIMTXSTY
  7
Standard
  9
$DIMAUNIT
 70
     0
  9
$DIMADEC
 70
     2
  9
$DIMALTRND
 40
0.0
  9
$DIMAZIN
 70
     0
  9
$DIMDSEP
 70
    44
  9
$DIMATFIT
 70
     3
  9
$DIMFRAC
 70
     0
  9
$DIMLDRBLK
  1

  9
$DIMLUNIT
 70
     2
  9
$DIMLWD
 70
    -2
  9
$DIMLWE
 70
    -2
  9
$DIMTMOVE
 70
     0
  9
$LUNITS
 70
     2
  9
$LUPREC
 70
     2
  9
$SKETCHINC
 40
1.0
  9
$FILLETRAD
 40
10.0
  9
$AUNITS
 70
     1
  9
$AUPREC
 70
     2
  9
$MENU
  1
.
  9
$ELEVATION
 40
0.0
  9
$PELEVATION
 40
0.0
  9
$THICKNESS
 40
0.0
  9
$LIMCHECK
 70
     0
  9
$CHAMFERA
 40
0.0
  9
$CHAMFERB
 40
0.0
  9
$CHAMFERC
 40
0.0
  9
$CHAMFERD
 40
0.0
  9
$SKPOLY
 70
     0
  9
$TDCREATE
 40
2458606.650953125
  9
$TDUCREATE
 40
2458606.421786458
  9
$TDUPDATE
 40
2458606.650954051
  9
$TDUUPDATE
 40
2458606.421787384
  9
$TDINDWG
 40
0.0000000116
  9
$TDUSRTIMER
 40
0.0000000116
  9
$USRTIMER
 70
     1
  9
$ANGBASE
 50
0.0
  9
$ANGDIR
 70
     0
  9
$PDMODE
 70
     0
  9
$PDSIZE
 40
-1.0
  9
$PLINEWID
 40
0.0
  9
$SPLFRAME
 70
     0
  9
$SPLINETYPE
 70
     6
  9
$SPLINESEGS
 70
     8
  9
$HANDSEED
  5
1BC
  9
$SURFTAB1
 70
     6
  9
$SURFTAB2
 70
     6
  9
$SURFTYPE
 70
     6
  9
$SURFU
 70
     6
  9
$SURFV
 70
     6
  9
$UCSBASE
  2

  9
$UCSNAME
  2

  9
$UCSORG
 10
0.0
 20
0.0
 30
0.0
  9
$UCSXDIR
 10
1.0
 20
0.0
 30
0.0
  9
$UCSYDIR
 10
0.0
 20
1.0
 30
0.0
  9
$UCSORTHOREF
  2

  9
$UCSORTHOVIEW
 70
     0
  9
$UCSORGTOP
 10
0.0
 20
0.0
 30
0.0
  9
$UCSORGBOTTOM
 10
0.0
 20
0.0
 30
0.0
  9
$UCSORGLEFT
 10
0.0
 20
0.0
 30
0.0
  9
$UCSORGRIGHT
 10
0.0
 20
0.0
 30
0.0
  9
$UCSORGFRONT
 10
0.0
 20
0.0
 30
0.0
  9
$UCSORGBACK
 10
0.0
 20
0.0
 30
0.0
  9
$PUCSBASE
  2

  9
$PUCSNAME
  2

  9
$PUCSORG
 10
0.0
 20
0.0
 30
0.0
  9
$PUCSXDIR
 10
1.0
 20
0.0
 30
0.0
  9
$PUCSYDIR
 10
0.0
 20
1.0
 30
0.0
  9
$PUCSORTHOREF
  2

  9
$PUCSORTHOVIEW
 70
     0
  9
$PUCSORGTOP
 10
0.0
 20
0.0
 30
0.0
  9
$PUCSORGBOTTOM
 10
0.0
 20
0.0
 30
0.0
  9
$PUCSORGLEFT
 10
0.0
 20
0.0
 30
0.0
  9
$PUCSORGRIGHT
 10
0.0
 20
0.0
 30
0.0
  9
$PUCSORGFRONT
 10
0.0
 20
0.0
 30
0.0
  9
$PUCSORGBACK
 10
0.0
 20
0.0
 30
0.0
  9
$USERI1
 70
     0
  9
$USERI2
 70
     0
  9
$USERI3
 70
     0
  9
$USERI4
 70
     0
  9
$USERI5
 70
     0
  9
$USERR1
 40
0.0
  9
$USERR2
 40
0.0
  9
$USERR3
 40
0.0
  9
$USERR4
 40
0.0
  9
$USERR5
 40
0.0
  9
$WORLDVIEW
 70
     1
  9
$SHADEDGE
 70
     3
  9
$SHADEDIF
 70
    70
  9
$TILEMODE
 70
     1
  9
$MAXACTVP
 70
    64
  9
$PINSBASE
 10
0.0
 20
0.0
 30
0.0
  9
$PLIMCHECK
 70
     0
  9
$PEXTMIN
 10
1.0000000000E+20
 20
1.0000000000E+20
 30
1.0000000000E+20
  9
$PEXTMAX
 10
-1.0000000000E+20
 20
-1.0000000000E+20
 30
-1.0000000000E+20
  9
$PLIMMIN
 10
0.0
 20
0.0
  9
$PLIMMAX
 10
420.0
 20
297.0
  9
$UNITMODE
 70
     0
  9
$VISRETAIN
 70
     1
  9
$PLINEGEN
 70
     0
  9
$PSLTSCALE
 70
     1
  9
$TREEDEPTH
 70
  3020
  9
$CMLSTYLE
  2
Standard
  9
$CMLJUST
 70
     0
  9
$CMLSCALE
 40
20.0
  9
$PROXYGRAPHICS
 70
     1
  9
$MEASUREMENT
 70
     1
  9
$CELWEIGHT
370
    -1
  9
$ENDCAPS
280
     0
  9
$JOINSTYLE
280
     0
  9
$LWDISPLAY
290
     1
  9
$INSUNITS
 70
     4
  9
$HYPERLINKBASE
  1

  9
$STYLESHEET
  1

  9
$XEDIT
290
     1
  9
$CEPSNTYPE
380
     0
  9
$PSTYLEMODE
290
     1
  9
$FINGERPRINTGUID
  2
{26BE3B0E-4A22-48BC-83C9-06F5EA8D0B1D}
  9
$VERSIONGUID
  2
{FAEB1C32-E019-11D5-929B-00C0DF256EC4}
  9
$EXTNAMES
290
     1
  9
$PSVPSCALE
 40
0.0
  9
$OLESTARTUP
290
     0
  0
ENDSEC
  0
SECTION
  2
CLASSES
  0
CLASS
  1
ACDBDICTIONARYWDFLT
  2
AcDbDictionaryWithDefault
  3
ObjectDBX Classes
 90
        0
280
     0
281
     0
  0
CLASS
  1
VISUALSTYLE
  2
AcDbVisualStyle
  3
ObjectDBX Classes
 90
     4095
280
     0
281
     0
  0
CLASS
  1
MATERIAL
  2
AcDbMaterial
  3
ObjectDBX Classes
 90
     1153
280
     0
281
     0
  0
CLASS
  1
SCALE
  2
AcDbScale
  3
ObjectDBX Classes
 90
     1153
280
     0
281
     0
  0
CLASS
  1
SUN
  2
AcDbSun
  3
SCENEOE
 90
     1153
280
     0
281
     0
  0
CLASS
  1
ACDBPLACEHOLDER
  2
AcDbPlaceHolder
  3
ObjectDBX Classes
 90
        0
280
     0
281
     0
  0
CLASS
  1
LAYOUT
  2
AcDbLayout
  3
ObjectDBX Classes
 90
        0
280
     0
281
     0
  0
ENDSEC
  0
SECTION
  2
TABLES
  0
TABLE
  2
VPORT
  5
8
330
0
100
AcDbSymbolTable
 70
     1
  0
VPORT
  5
29
330
8
100
AcDbSymbolTableRecord
100
AcDbViewportTableRecord
  2
*Active
 70
     0
 10
0.0
 20
0.0
 11
1.0
 21
1.0
 12
222.75
 22
157.5
 13
0.0
 23
0.0
 14
10.0
 24
10.0
 15
10.0
 25
10.0
 16
0.0
 26
0.0
 36
1.0
 17
0.0
 27
0.0
 37
0.0
 40
315.0
 41
1.4142857143
 42
50.0
 43
0.0
 44
0.0
 50
0.0
 51
0.0
 71
     0
 72
  2000
 73
     1
 74
     3
 75
     0
 76
     0
 77
     0
 78
     0
281
     0
 65
     1
110
0.0
120
0.0
130
0.0
111
1.0
121
0.0
131
0.0
112
0.0
122
1.0
132
0.0
 79
     0
146
0.0
  0
ENDTAB
  0
TABLE
  2
LTYPE
  5
5
330
0
100
AcDbSymbolTable
 70
     6
  0
LTYPE
  5
14
330
5
100
AcDbSymbolTableRecord
100
AcDbLinetypeTableRecord
  2
ByBlock
 70
     0
  3

 72
    65
 73
     0
 40
0.0
  0
LTYPE
  5
15
330
5
100
AcDbSymbolTableRecord
100
AcDbLinetypeTableRecord
  2
ByLayer
 70
     0
  3

 72
    65
 73
     0
 40
0.0
  0
LTYPE
  5
16
330
5
100
AcDbSymbolTableRecord
100
AcDbLinetypeTableRecord
  2
Continuous
 70
     0
  3
Solid line
 72
    65
 73
     0
 40
0.0
  0
LTYPE
  5
6A
330
5
100
AcDbSymbolTableRecord
100
AcDbLinetypeTableRecord
  2
HIDDEN
 70
     0
  3
Hidden __ __ __ __ __ __ __ __ __ __ __ __ __ __
 72
    65
 73
     2
 40
1.905
 49
1.27
 74
     0
 49
-0.635
 74
     0
  0
LTYPE
  5
6B
330
5
100
AcDbSymbolTableRecord
100
AcDbLinetypeTableRecord
  2
PHANTOM
 70
     0
  3
Phantom ______  __  __  ______  __  __  ______
 72
    65
 73
     6
 40
12.7
 49
6.35
 74
     0
 49
-1.27
 74
     0
 49
1.27
 74
     0
 49
-1.27
 74
     0
 49
1.27
 74
     0
 49
-1.27
 74
     0
  0
LTYPE
  5
6C
330
5
100
AcDbSymbolTableRecord
100
AcDbLinetypeTableRecord
  2
CENTER
 70
     0
  3
Center ____ _ ____ _ ____ _ ____ _ ____ _ ____
 72
    65
 73
     4
 40
10.16
 49
6.35
 74
     0
 49
-1.27
 74
     0
 49
1.27
 74
     0
 49
-1.27
 74
     0
  0
LTYPE
  5
6D
330
5
100
AcDbSymbolTableRecord
100
AcDbLinetypeTableRecord
  2
CENTERX2
 70
     0
  3
Center (2x) ________  __  ________  __  _____
 72
    65
 73
     4
 40
20.32
 49
12.7
 74
     0
 49
-2.54
 74
     0
 49
2.54
 74
     0
 49
-2.54
 74
     0
  0
LTYPE
  5
6E
330
5
100
AcDbSymbolTableRecord
100
AcDbLinetypeTableRecord
  2
DOT2
 70
     0
  3
Dot (.5x) ........................................
 72
    65
 73
     2
 40
0.635
 49
0.0
 74
     0
 49
-0.635
 74
     0
  0
ENDTAB
  0
TABLE
  2
LAYER
  5
2
330
0
100
AcDbSymbolTable
 70
     8
  0
LAYER
  5
10
330
2
100
AcDbSymbolTableRecord
100
AcDbLayerTableRecord
  2
0
 70
     0
 62
     7
  6
Continuous
370
    -3
390
F
  0
LAYER
  5
6F
330
2
100
AcDbSymbolTableRecord
100
AcDbLayerTableRecord
  2
FORMAT
 70
     0
 62
     7
  6
Continuous
370
    -3
390
F
  0
LAYER
  5
70
330
2
100
AcDbSymbolTableRecord
100
AcDbLayerTableRecord
  2
SLD-0
 70
     0
 62
     2
  6
Continuous
370
    -3
390
F
  0
LAYER
  5
71
330
2
100
AcDbSymbolTableRecord
100
AcDbLayerTableRecord
  2
DIM
 70
     0
 62
   179
  6
Continuous
370
    -3
390
F
  0
LAYER
  5
72
330
2
100
AcDbSymbolTableRecord
100
AcDbLayerTableRecord
  2
SLD-DEFPOINTS
 70
     0
 62
   179
  6
Continuous
370
    -3
390
F
  0
LAYER
  5
73
330
2
100
AcDbSymbolTableRecord
100
AcDbLayerTableRecord
  2
HAT
 70
     0
 62
   135
  6
Continuous
370
    -3
390
F
  0
LAYER
  5
74
330
2
100
AcDbSymbolTableRecord
100
AcDbLayerTableRecord
  2
JOB
 70
     0
 62
   201
  6
Continuous
370
    -3
390
F
  0
LAYER
  5
75
330
2
100
AcDbSymbolTableRecord
100
AcDbLayerTableRecord
  2
INSPECTION_REPORT
 70
     0
 62
   255
  6
Continuous
370
    -3
390
F
  0
ENDTAB
  0
TABLE
  2
STYLE
  5
3
330
0
100
AcDbSymbolTable
 70
     4
  0
STYLE
  5
11
330
3
100
AcDbSymbolTableRecord
100
AcDbTextStyleTableRecord
  2
Standard
 70
     0
 40
0.0
 41
1.0
 50
0.0
 71
     0
 42
5.8208333333
  3
txt
  4

  0
STYLE
  5
96
330
3
100
AcDbSymbolTableRecord
100
AcDbTextStyleTableRecord
  2
SLDTEXTSTYLE0
 70
     0
 40
0.0
 41
0.7
 50
0.0
 71
     0
 42
5.8208333333
  3
TXT
  4

  0
STYLE
  5
98
330
3
100
AcDbSymbolTableRecord
100
AcDbTextStyleTableRecord
  2
SLDTEXTSTYLE1
 70
     0
 40
0.0
 41
0.75
 50
0.0
 71
     0
 42
5.8208333333
  3
TXT
  4

  0
STYLE
  5
AB
330
3
100
AcDbSymbolTableRecord
100
AcDbTextStyleTableRecord
  2
SLDTEXTSTYLE2
 70
     0
 40
0.0
 41
0.6875
 50
0.0
 71
     0
 42
5.8208333333
  3
TXT
  4

  0
ENDTAB
  0
TABLE
  2
VIEW
  5
6
330
0
100
AcDbSymbolTable
 70
     0
  0
ENDTAB
  0
TABLE
  2
UCS
  5
7
330
0
100
AcDbSymbolTable
 70
     0
  0
ENDTAB
  0
TABLE
  2
APPID
  5
9
330
0
100
AcDbSymbolTable
 70
     1
  0
APPID
  5
12
330
9
100
AcDbSymbolTableRecord
100
AcDbRegAppTableRecord
  2
ACAD
 70
     0
  0
ENDTAB
  0
TABLE
  2
DIMSTYLE
  5
A
330
0
100
AcDbSymbolTable
 70
     4
100
AcDbDimStyleTable
  0
DIMSTYLE
105
27
330
A
100
AcDbSymbolTableRecord
100
AcDbDimStyleTableRecord
  2
ISO-25
 70
     0
 41
2.5
 42
0.625
 43
3.75
 44
1.25
 73
     0
 74
     0
 77
     1
 78
     8
140
2.5
141
2.5
143
0.0393700787
147
0.625
171
     3
172
     1
178
     0
271
     2
272
     2
274
     3
278
    44
283
     0
284
     8
340
11
  0
DIMSTYLE
105
176
102
{ACAD_REACTORS
330
175
330
18F
102
}
330
A
100
AcDbSymbolTableRecord
100
AcDbDimStyleTableRecord
  2
SLDDIMSTYLE0
 70
     0
 41
4.953
 44
0.0
 45
0.000000001
 73
     0
 74
     0
 77
     1
 78
    12
 79
     3
140
4.365625
144
1.0
147
1.09140625
172
     1
173
     1
178
     0
271
     2
272
     2
276
     2
284
    12
289
     0
340
96
  0
DIMSTYLE
105
184
102
{ACAD_REACTORS
330
183
330
19B
330
1B1
102
}
330
A
100
AcDbSymbolTableRecord
100
AcDbDimStyleTableRecord
  2
SLDDIMSTYLE1
 70
     0
 41
4.953
 44
0.0
 45
0.000000001
 73
     0
 74
     0
 77
     1
 78
    12
 79
     3
140
4.365625
144
1.0
147
1.09140625
173
     1
178
     0
271
     2
272
     2
276
     2
284
    12
340
96
  0
DIMSTYLE
105
1A6
102
{ACAD_REACTORS
330
1A5
102
}
330
A
100
AcDbSymbolTableRecord
100
AcDbDimStyleTableRecord
  2
SLDDIMSTYLE2
 70
     0
 41
4.953
 44
0.0
 45
0.000000001
 73
     0
 74
     0
 77
     1
 78
     4
 79
     1
140
4.365625
144
1.0
147
1.09140625
173
     1
178
     0
271
     2
272
     2
276
     2
284
    12
340
96
  0
ENDTAB
  0
TABLE
  2
BLOCK_RECORD
  5
1
330
0
100
AcDbSymbolTable
 70
     8
  0
BLOCK_RECORD
  5
1F
330
1
100
AcDbSymbolTableRecord
100
AcDbBlockTableRecord
  2
*Model_Space
340
22
  0
BLOCK_RECORD
  5
1B
330
1
100
AcDbSymbolTableRecord
100
AcDbBlockTableRecord
  2
*Paper_Space
340
1E
  0
BLOCK_RECORD
  5
23
330
1
100
AcDbSymbolTableRecord
100
AcDbBlockTableRecord
  2
*Paper_Space0
340
26
  0
BLOCK_RECORD
  5
E8
330
1
100
AcDbSymbolTableRecord
100
AcDbBlockTableRecord
  2
SW_CENTERMARKSYMBOL_0
340
0
102
{BLKREFS
331
F3
102
}
  0
BLOCK_RECORD
  5
177
330
1
100
AcDbSymbolTableRecord
100
AcDbBlockTableRecord
  2
_D
340
0
  0
BLOCK_RECORD
  5
185
330
1
100
AcDbSymbolTableRecord
100
AcDbBlockTableRecord
  2
_D_1
340
0
  0
BLOCK_RECORD
  5
190
330
1
100
AcDbSymbolTableRecord
100
AcDbBlockTableRecord
  2
_D_2
340
0
  0
BLOCK_RECORD
  5
19C
330
1
100
AcDbSymbolTableRecord
100
AcDbBlockTableRecord
  2
_D_3
340
0
  0
BLOCK_RECORD
  5
1A7
330
1
100
AcDbSymbolTableRecord
100
AcDbBlockTableRecord
  2
_D_4
340
0
  0
BLOCK_RECORD
  5
1B2
330
1
100
AcDbSymbolTableRecord
100
AcDbBlockTableRecord
  2
_D_5
340
0
  0
ENDTAB
  0
ENDSEC
  0
SECTION
  2
BLOCKS
  0
BLOCK
  5
20
330
1F
100
AcDbEntity
  8
0
100
AcDbBlockBegin
  2
*Model_Space
 70
     0
 10
0.0
 20
0.0
 30
0.0
  3
*Model_Space
  1
*Model_Space
  0
ENDBLK
  5
21
330
1F
100
AcDbEntity
  8
0
100
AcDbBlockEnd
  0
BLOCK
  5
1C
330
1B
100
AcDbEntity
 67
     1
  8
0
100
AcDbBlockBegin
  2
*Paper_Space
 70
     0
 10
0.0
 20
0.0
 30
0.0
  3
*Paper_Space
  1
*Paper_Space
  0
ENDBLK
  5
1D
330
1B
100
AcDbEntity
 67
     1
  8
0
100
AcDbBlockEnd
  0
BLOCK
  5
24
330
23
100
AcDbEntity
  8
0
100
AcDbBlockBegin
  2
*Paper_Space0
 70
     0
 10
0.0
 20
0.0
 30
0.0
  3
*Paper_Space0
  1
*Paper_Space0
  0
ENDBLK
  5
25
330
23
100
AcDbEntity
  8
0
100
AcDbBlockEnd
  0
BLOCK
  5
E9
330
E8
100
AcDbEntity
  8
0
100
AcDbBlockBegin
  2
SW_CENTERMARKSYMBOL_0
 70
     0
 10
0.0
 20
0.0
 30
0.0
  3
SW_CENTERMARKSYMBOL_0
  1
SW_CENTERMARKSYMBOL_0
  0
LINE
  5
EB
330
E8
100
AcDbEntity
  8
DIM
 62
     0
100
AcDbLine
 10
0.0
 20
0.0
 30
0.0
 11
0.0
 21
2.5
 31
0.0
  0
LINE
  5
EC
330
E8
100
AcDbEntity
  8
DIM
 62
     0
100
AcDbLine
 10
0.0
 20
0.0
 30
0.0
 11
-2.5
 21
0.0
 31
0.0
  0
LINE
  5
ED
330
E8
100
AcDbEntity
  8
DIM
 62
     0
100
AcDbLine
 10
0.0
 20
0.0
 30
0.0
 11
0.0
 21
-2.5
 31
0.0
  0
LINE
  5
EE
330
E8
100
AcDbEntity
  8
DIM
 62
     0
100
AcDbLine
 10
0.0
 20
0.0
 30
0.0
 11
2.5
 21
0.0
 31
0.0
  0
LINE
  5
EF
330
E8
100
AcDbEntity
  8
DIM
 62
     0
100
AcDbLine
 10
0.0
 20
5.0
 30
0.0
 11
0.0
 21
50.3671572875
 31
0.0
  0
LINE
  5
F0
330
E8
100
AcDbEntity
  8
DIM
 62
     0
100
AcDbLine
 10
-5.0
 20
0.0
 30
0.0
 11
-50.3671572875
 21
0.0
 31
0.0
  0
LINE
  5
F1
330
E8
100
AcDbEntity
  8
DIM
 62
     0
100
AcDbLine
 10
0.0
 20
-5.0
 30
0.0
 11
0.0
 21
-50.3671572875
 31
0.0
  0
LINE
  5
F2
330
E8
100
AcDbEntity
  8
DIM
 62
     0
100
AcDbLine
 10
5.0
 20
0.0
 30
0.0
 11
50.3671572875
 21
0.0
 31
0.0
  0
ENDBLK
  5
EA
330
E8
100
AcDbEntity
  8
0
100
AcDbBlockEnd
  0
BLOCK
  5
178
330
177
100
AcDbEntity
  8
0
100
AcDbBlockBegin
  2
_D
 70
     0
 10
0.0
 20
0.0
 30
0.0
  3
_D
  1
_D
  0
SOLID
  5
17A
330
177
100
AcDbEntity
  8
DIM
100
AcDbTrace
 10
398.0474491973
 20
181.7578380112
 30
0.0
 11
398.8094491973
 21
186.7108380112
 31
0.0
 12
397.2854491973
 22
186.7108380112
 32
0.0
 13
397.2854491973
 23
186.7108380112
 33
0.0
  0
SOLID
  5
17B
330
177
100
AcDbEntity
  8
DIM
100
AcDbTrace
 10
398.0474491973
 20
159.7578380112
 30
0.0
 11
397.2854491973
 21
154.8048380112
 31
0.0
 12
398.8094491973
 22
154.8048380112
 32
0.0
 13
398.8094491973
 23
154.8048380112
 33
0.0
  0
LINE
  5
17C
330
177
100
AcDbEntity
  8
DIM
100
AcDbLine
 10
375.4176247197
 20
181.7578380112
 30
0.0
 11
399.5474491973
 21
181.7578380112
 31
0.0
  0
LINE
  5
17D
330
177
100
AcDbEntity
  8
DIM
100
AcDbLine
 10
375.4176247197
 20
159.7578380112
 30
0.0
 11
399.5474491973
 21
159.7578380112
 31
0.0
  0
LINE
  5
17E
330
177
100
AcDbEntity
  8
DIM
100
AcDbLine
 10
398.0474491973
 20
181.7578380112
 30
0.0
 11
398.0474491973
 21
191.2828380112
 31
0.0
  0
LINE
  5
17F
330
177
100
AcDbEntity
  8
DIM
100
AcDbLine
 10
398.0474491973
 20
181.7578380112
 30
0.0
 11
398.0474491973
 21
159.7578380112
 31
0.0
  0
LINE
  5
180
330
177
100
AcDbEntity
  8
DIM
100
AcDbLine
 10
398.0474491973
 20
159.7578380112
 30
0.0
 11
398.0474491973
 21
150.2328380112
 31
0.0
  0
MTEXT
  5
181
330
177
100
AcDbEntity
  8
DIM
100
AcDbMText
 10
392.4198624967
 20
164.4315218539
 30
0.0
 40
4.365625
 41
0.0
 71
     1
 72
     1
  1
%%c
  7
SLDTEXTSTYLE0
 11
-7.044195017643634E-15
 21
1.0
 31
0.0
 73
     1
 44
1.0
  0
MTEXT
  5
182
330
177
100
AcDbEntity
  8
DIM
100
AcDbMText
 10
392.4198624967
 20
171.1824757033
 30
0.0
 40
4.365625
 41
0.0
 71
     1
 72
     1
  1
22
  7
SLDTEXTSTYLE0
 11
-7.044195017643634E-15
 21
1.0
 31
0.0
 73
     1
 44
1.0
  0
ENDBLK
  5
179
330
177
100
AcDbEntity
  8
0
100
AcDbBlockEnd
  0
BLOCK
  5
186
330
185
100
AcDbEntity
  8
0
100
AcDbBlockBegin
  2
_D_1
 70
     0
 10
0.0
 20
0.0
 30
0.0
  3
_D_1
  1
_D_1
  0
SOLID
  5
188
330
185
100
AcDbEntity
  8
DIM
100
AcDbTrace
 10
404.9665913208
 20
194.7578380112
 30
0.0
 11
404.2045913208
 21
189.8048380112
 31
0.0
 12
405.7285913208
 22
189.8048380112
 32
0.0
 13
405.7285913208
 23
189.8048380112
 33
0.0
  0
SOLID
  5
189
330
185
100
AcDbEntity
  8
DIM
100
AcDbTrace
 10
404.9665913208
 20
146.7578380112
 30
0.0
 11
405.7285913208
 21
151.7108380112
 31
0.0
 12
404.2045913208
 22
151.7108380112
 32
0.0
 13
404.2045913208
 23
151.7108380112
 33
0.0
  0
LINE
  5
18A
330
185
100
AcDbEntity
  8
DIM
100
AcDbLine
 10
355.9083724485
 20
194.7578380112
 30
0.0
 11
406.4665913208
 21
194.7578380112
 31
0.0
  0
LINE
  5
18B
330
185
100
AcDbEntity
  8
DIM
100
AcDbLine
 10
355.9083724485
 20
146.7578380112
 30
0.0
 11
406.4665913208
 21
146.7578380112
 31
0.0
  0
LINE
  5
18C
330
185
100
AcDbEntity
  8
DIM
100
AcDbLine
 10
404.9665913208
 20
194.7578380112
 30
0.0
 11
404.9665913208
 21
146.7578380112
 31
0.0
  0
MTEXT
  5
18D
330
185
100
AcDbEntity
  8
DIM
100
AcDbMText
 10
399.3390046201
 20
164.4315218539
 30
0.0
 40
4.365625
 41
0.0
 71
     1
 72
     1
  1
%%c
  7
SLDTEXTSTYLE0
 11
-7.044195017643634E-15
 21
1.0
 31
0.0
 73
     1
 44
1.0
  0
MTEXT
  5
18E
330
185
100
AcDbEntity
  8
DIM
100
AcDbMText
 10
399.3390046201
 20
171.1824757033
 30
0.0
 40
4.365625
 41
0.0
 71
     1
 72
     1
  1
48
  7
SLDTEXTSTYLE0
 11
-7.044195017643634E-15
 21
1.0
 31
0.0
 73
     1
 44
1.0
  0
ENDBLK
  5
187
330
185
100
AcDbEntity
  8
0
100
AcDbBlockEnd
  0
BLOCK
  5
191
330
190
100
AcDbEntity
  8
0
100
AcDbBlockBegin
  2
_D_2
 70
     0
 10
0.0
 20
0.0
 30
0.0
  3
_D_2
  1
_D_2
  0
SOLID
  5
193
330
190
100
AcDbEntity
  8
DIM
100
AcDbTrace
 10
374.4083724485
 20
106.0800775691
 30
0.0
 11
379.3613724485
 21
105.3180775691
 31
0.0
 12
379.3613724485
 22
106.8420775691
 32
0.0
 13
379.3613724485
 23
106.8420775691
 33
0.0
  0
SOLID
  5
194
330
190
100
AcDbEntity
  8
DIM
100
AcDbTrace
 10
355.4083724485
 20
106.0800775691
 30
0.0
 11
350.4553724485
 21
106.8420775691
 31
0.0
 12
350.4553724485
 22
105.3180775691
 32
0.0
 13
350.4553724485
 23
105.3180775691
 33
0.0
  0
LINE
  5
195
330
190
100
AcDbEntity
  8
DIM
100
AcDbLine
 10
374.4083724485
 20
159.1078380112
 30
0.0
 11
374.4083724485
 21
104.5800775691
 31
0.0
  0
LINE
  5
196
330
190
100
AcDbEntity
  8
DIM
100
AcDbLine
 10
355.4083724485
 20
146.2578380112
 30
0.0
 11
355.4083724485
 21
104.5800775691
 31
0.0
  0
LINE
  5
197
330
190
100
AcDbEntity
  8
DIM
100
AcDbLine
 10
374.4083724485
 20
106.0800775691
 30
0.0
 11
383.9333724485
 21
106.0800775691
 31
0.0
  0
LINE
  5
198
330
190
100
AcDbEntity
  8
DIM
100
AcDbLine
 10
374.4083724485
 20
106.0800775691
 30
0.0
 11
355.4083724485
 21
106.0800775691
 31
0.0
  0
LINE
  5
199
330
190
100
AcDbEntity
  8
DIM
100
AcDbLine
 10
355.4083724485
 20
106.0800775691
 30
0.0
 11
345.8833724485
 21
106.0800775691
 31
0.0
  0
MTEXT
  5
19A
330
190
100
AcDbEntity
  8
DIM
100
AcDbMText
 10
361.9575332158
 20
111.7076642698
 30
0.0
 40
4.365625
 41
0.0
 71
     1
 72
     1
  1
19
  7
SLDTEXTSTYLE0
 73
     1
 44
1.0
  0
ENDBLK
  5
192
330
190
100
AcDbEntity
  8
0
100
AcDbBlockEnd
  0
BLOCK
  5
19D
330
19C
100
AcDbEntity
  8
0
100
AcDbBlockBegin
  2
_D_3
 70
     0
 10
0.0
 20
0.0
 30
0.0
  3
_D_3
  1
_D_3
  0
SOLID
  5
19F
330
19C
100
AcDbEntity
  8
DIM
100
AcDbTrace
 10
355.4083724485
 20
106.0800775691
 30
0.0
 11
350.4553724485
 21
106.8420775691
 31
0.0
 12
350.4553724485
 22
105.3180775691
 32
0.0
 13
350.4553724485
 23
105.3180775691
 33
0.0
  0
SOLID
  5
1A0
330
19C
100
AcDbEntity
  8
DIM
100
AcDbTrace
 10
255.4083724485
 20
106.0800775691
 30
0.0
 11
260.3613724485
 21
105.3180775691
 31
0.0
 12
260.3613724485
 22
106.8420775691
 32
0.0
 13
260.3613724485
 23
106.8420775691
 33
0.0
  0
LINE
  5
1A1
330
19C
100
AcDbEntity
  8
DIM
100
AcDbLine
 10
355.4083724485
 20
146.2578380112
 30
0.0
 11
355.4083724485
 21
104.5800775691
 31
0.0
  0
LINE
  5
1A2
330
19C
100
AcDbEntity
  8
DIM
100
AcDbLine
 10
255.4083724485
 20
134.3328380112
 30
0.0
 11
255.4083724485
 21
104.5800775691
 31
0.0
  0
LINE
  5
1A3
330
19C
100
AcDbEntity
  8
DIM
100
AcDbLine
 10
355.4083724485
 20
106.0800775691
 30
0.0
 11
255.4083724485
 21
106.0800775691
 31
0.0
  0
MTEXT
  5
1A4
330
19C
100
AcDbEntity
  8
DIM
100
AcDbMText
 10
300.9821135995
 20
111.7076642698
 30
0.0
 40
4.365625
 41
0.0
 71
     1
 72
     1
  1
100
  7
SLDTEXTSTYLE0
 73
     1
 44
1.0
  0
ENDBLK
  5
19E
330
19C
100
AcDbEntity
  8
0
100
AcDbBlockEnd
  0
BLOCK
  5
1A8
330
1A7
100
AcDbEntity
  8
0
100
AcDbBlockBegin
  2
_D_4
 70
     0
 10
0.0
 20
0.0
 30
0.0
  3
_D_4
  1
_D_4
  0
SOLID
  5
1AA
330
1A7
100
AcDbEntity
  8
DIM
100
AcDbTrace
 10
138.6570077259
 20
219.5078380112
 30
0.0
 11
137.8950077259
 21
214.5548380112
 31
0.0
 12
139.4190077259
 22
214.5548380112
 32
0.0
 13
139.4190077259
 23
214.5548380112
 33
0.0
  0
SOLID
  5
1AB
330
1A7
100
AcDbEntity
  8
DIM
100
AcDbTrace
 10
138.6570077259
 20
122.0078380112
 30
0.0
 11
139.4190077259
 21
126.9608380112
 31
0.0
 12
137.8950077259
 22
126.9608380112
 32
0.0
 13
137.8950077259
 23
126.9608380112
 33
0.0
  0
LINE
  5
1AC
330
1A7
100
AcDbEntity
  8
DIM
100
AcDbLine
 10
258.2740578734
 20
219.5078380112
 30
0.0
 11
137.1570077259
 21
219.5078380112
 31
0.0
  0
LINE
  5
1AD
330
1A7
100
AcDbEntity
  8
DIM
100
AcDbLine
 10
258.2740578734
 20
122.0078380112
 30
0.0
 11
137.1570077259
 21
122.0078380112
 31
0.0
  0
LINE
  5
1AE
330
1A7
100
AcDbEntity
  8
DIM
100
AcDbLine
 10
138.6570077259
 20
219.5078380112
 30
0.0
 11
138.6570077259
 21
122.0078380112
 31
0.0
  0
MTEXT
  5
1AF
330
1A7
100
AcDbEntity
  8
DIM
100
AcDbMText
 10
133.0294210252
 20
160.7045714729
 30
0.0
 40
4.365625
 41
0.0
 71
     1
 72
     1
  1
%%c
  7
SLDTEXTSTYLE0
 11
-7.044195017643634E-15
 21
1.0
 31
0.0
 73
     1
 44
1.0
  0
MTEXT
  5
1B0
330
1A7
100
AcDbEntity
  8
DIM
100
AcDbMText
 10
133.0294210252
 20
167.4555253223
 30
0.0
 40
4.365625
 41
0.0
 71
     1
 72
     1
  1
97.50
  7
SLDTEXTSTYLE0
 11
-7.044195017643634E-15
 21
1.0
 31
0.0
 73
     1
 44
1.0
  0
ENDBLK
  5
1A9
330
1A7
100
AcDbEntity
  8
0
100
AcDbBlockEnd
  0
BLOCK
  5
1B3
330
1B2
100
AcDbEntity
  8
0
100
AcDbBlockBegin
  2
_D_5
 70
     0
 10
0.0
 20
0.0
 30
0.0
  3
_D_5
  1
_D_5
  0
SOLID
  5
1B5
330
1B2
100
AcDbEntity
  8
DIM
100
AcDbTrace
 10
153.6583724485
 20
98.0077380112
 30
0.0
 11
158.6113724485
 21
97.2457380112
 31
0.0
 12
158.6113724485
 22
98.7697380112
 32
0.0
 13
158.6113724485
 23
98.7697380112
 33
0.0
  0
SOLID
  5
1B6
330
1B2
100
AcDbEntity
  8
DIM
100
AcDbTrace
 10
385.4083724485
 20
98.0077380112
 30
0.0
 11
380.4553724485
 21
98.7697380112
 31
0.0
 12
380.4553724485
 22
97.2457380112
 32
0.0
 13
380.4553724485
 23
97.2457380112
 33
0.0
  0
LINE
  5
1B7
330
1B2
100
AcDbEntity
  8
DIM
100
AcDbLine
 10
153.6583724485
 20
169.2578380112
 30
0.0
 11
153.6583724485
 21
96.5077380112
 31
0.0
  0
LINE
  5
1B8
330
1B2
100
AcDbEntity
  8
DIM
100
AcDbLine
 10
385.4083724485
 20
156.2578380112
 30
0.0
 11
385.4083724485
 21
96.5077380112
 31
0.0
  0
LINE
  5
1B9
330
1B2
100
AcDbEntity
  8
DIM
100
AcDbLine
 10
153.6583724485
 20
98.0077380112
 30
0.0
 11
385.4083724485
 21
98.0077380112
 31
0.0
  0
MTEXT
  5
1BA
330
1B2
100
AcDbEntity
  8
DIM
100
AcDbMText
 10
261.3801632185
 20
103.6353247119
 30
0.0
 40
4.365625
 41
0.0
 71
     1
 72
     1
  1
231.75
  7
SLDTEXTSTYLE0
 73
     1
 44
1.0
  0
ENDBLK
  5
1B4
330
1B2
100
AcDbEntity
  8
0
100
AcDbBlockEnd
  0
ENDSEC
  0
SECTION
  2
ENTITIES
  0
LINE
  5
76
330
1F
100
AcDbEntity
  8
DIM
100
AcDbLine
 10
157.0566370335
 20
14.6864871853
 30
0.0
 11
157.0566370335
 21
7.1864871853
 31
0.0
  0
LINE
  5
77
330
1F
100
AcDbEntity
  8
DIM
100
AcDbLine
 10
381.7044025429
 20
14.6864871853
 30
0.0
 11
381.7044025429
 21
7.1864871853
 31
0.0
  0
LINE
  5
78
330
1F
100
AcDbEntity
  8
DIM
100
AcDbLine
 10
356.1775648974
 20
14.6864871853
 30
0.0
 11
356.1775648974
 21
7.1864871853
 31
0.0
  0
LINE
  5
79
330
1F
100
AcDbEntity
  8
DIM
100
AcDbLine
 10
418.3566370335
 20
7.1864871853
 30
0.0
 11
418.3566370335
 21
14.6864871853
 31
0.0
  0
LINE
  5
7A
330
1F
100
AcDbEntity
  8
DIM
100
AcDbLine
 10
168.7566370335
 20
14.6864871853
 30
0.0
 11
168.7566370335
 21
7.1864871853
 31
0.0
  0
LINE
  5
7B
330
1F
100
AcDbEntity
  8
DIM
100
AcDbLine
 10
197.5430656842
 20
14.6864871853
 30
0.0
 11
197.5430656842
 21
7.1864871853
 31
0.0
  0
LINE
  5
7C
330
1F
100
AcDbEntity
  8
DIM
100
AcDbLine
 10
437.8566370335
 20
7.1864871853
 30
0.0
 11
437.8566370335
 21
115.5614871853
 31
0.0
  0
LINE
  5
7D
330
1F
100
AcDbEntity
  8
DIM
100
AcDbLine
 10
428.728507042
 20
90.0614871853
 30
0.0
 11
437.8566370335
 21
90.0614871853
 31
0.0
  0
LINE
  5
7E
330
1F
100
AcDbEntity
  8
DIM
100
AcDbLine
 10
223.6550262788
 20
13.5614871853
 30
0.0
 11
223.6550262788
 21
7.1864871853
 31
0.0
  0
LINE
  5
7F
330
1F
100
AcDbEntity
  8
DIM
100
AcDbLine
 10
295.1459237406
 20
14.6864871853
 30
0.0
 11
295.1459237406
 21
7.1864871853
 31
0.0
  0
LINE
  5
80
330
1F
100
AcDbEntity
  8
DIM
100
AcDbLine
 10
223.6550262788
 20
14.6864871853
 30
0.0
 11
223.6550262788
 21
13.5614871853
 31
0.0
  0
LINE
  5
81
330
1F
100
AcDbEntity
  8
DIM
100
AcDbLine
 10
430.3566370335
 20
26.3113791853
 30
0.0
 11
437.8566370335
 21
26.3113791853
 31
0.0
  0
LINE
  5
82
330
1F
100
AcDbEntity
  8
DIM
100
AcDbLine
 10
430.3566370335
 20
299.6864871853
 30
0.0
 11
14.8566370335
 21
299.6864871853
 31
0.0
  0
LINE
  5
83
330
1F
100
AcDbEntity
  8
DIM
100
AcDbLine
 10
437.8566370335
 20
307.1864871853
 30
0.0
 11
7.3566370335
 21
307.1864871853
 31
0.0
  0
LINE
  5
84
330
1F
100
AcDbEntity
  8
DIM
100
AcDbLine
 10
14.8566370335
 20
299.6864871853
 30
0.0
 11
14.8566370335
 21
14.6864871853
 31
0.0
  0
LINE
  5
85
330
1F
100
AcDbEntity
  8
DIM
100
AcDbLine
 10
7.3566370335
 20
307.1864871853
 30
0.0
 11
7.3566370335
 21
7.1864871853
 31
0.0
  0
LINE
  5
86
330
1F
100
AcDbEntity
  8
DIM
100
AcDbLine
 10
14.8566370335
 20
82.1864871853
 30
0.0
 11
7.3566370335
 21
82.1864871853
 31
0.0
  0
LINE
  5
87
330
1F
100
AcDbEntity
  8
DIM
100
AcDbLine
 10
7.3566370335
 20
157.1864871853
 30
0.0
 11
14.8566370335
 21
157.1864871853
 31
0.0
  0
LINE
  5
88
330
1F
100
AcDbEntity
  8
DIM
100
AcDbLine
 10
7.3566370335
 20
7.1864871853
 30
0.0
 11
437.8566370335
 21
7.1864871853
 31
0.0
  0
LINE
  5
89
330
1F
100
AcDbEntity
  8
DIM
100
AcDbLine
 10
14.8566370335
 20
14.6864871853
 30
0.0
 11
437.8566370335
 21
14.6864871853
 31
0.0
  0
LINE
  5
8A
330
1F
100
AcDbEntity
  8
DIM
100
AcDbLine
 10
72.6066370335
 20
7.1864871853
 30
0.0
 11
72.6066370335
 21
14.6864871853
 31
0.0
  0
LINE
  5
8B
330
1F
100
AcDbEntity
  8
DIM
100
AcDbLine
 10
147.6066370335
 20
14.6864871853
 30
0.0
 11
147.6066370335
 21
7.1864871853
 31
0.0
  0
LINE
  5
8C
330
1F
100
AcDbEntity
  8
DIM
100
AcDbLine
 10
14.8566370335
 20
232.1864871853
 30
0.0
 11
7.3566370335
 21
232.1864871853
 31
0.0
  0
LINE
  5
8D
330
1F
100
AcDbEntity
  8
DIM
100
AcDbLine
 10
72.6066370335
 20
299.6864871853
 30
0.0
 11
72.6066370335
 21
307.1864871853
 31
0.0
  0
LINE
  5
8E
330
1F
100
AcDbEntity
  8
DIM
100
AcDbLine
 10
147.6066370335
 20
307.1864871853
 30
0.0
 11
147.6066370335
 21
299.6864871853
 31
0.0
  0
LINE
  5
8F
330
1F
100
AcDbEntity
  8
DIM
100
AcDbLine
 10
222.6066370335
 20
307.1864871853
 30
0.0
 11
222.6066370335
 21
299.6864871853
 31
0.0
  0
LINE
  5
90
330
1F
100
AcDbEntity
  8
DIM
100
AcDbLine
 10
430.3566370335
 20
14.6864871853
 30
0.0
 11
430.3566370335
 21
299.6864871853
 31
0.0
  0
LINE
  5
91
330
1F
100
AcDbEntity
  8
DIM
100
AcDbLine
 10
437.8566370335
 20
115.5614871853
 30
0.0
 11
437.8566370335
 21
307.1864871853
 31
0.0
  0
LINE
  5
92
330
1F
100
AcDbEntity
  8
DIM
100
AcDbLine
 10
437.8566370335
 20
157.1864871853
 30
0.0
 11
430.3566370335
 21
157.1864871853
 31
0.0
  0
LINE
  5
93
330
1F
100
AcDbEntity
  8
DIM
100
AcDbLine
 10
297.6066370335
 20
307.1864871853
 30
0.0
 11
297.6066370335
 21
299.6864871853
 31
0.0
  0
LINE
  5
94
330
1F
100
AcDbEntity
  8
DIM
100
AcDbLine
 10
372.6066370335
 20
299.6864871853
 30
0.0
 11
372.6066370335
 21
307.1864871853
 31
0.0
  0
LINE
  5
95
330
1F
100
AcDbEntity
  8
DIM
100
AcDbLine
 10
430.3566370335
 20
232.1864871853
 30
0.0
 11
437.8566370335
 21
232.1864871853
 31
0.0
  0
MTEXT
  5
97
330
1F
100
AcDbEntity
  8
DIM
100
AcDbMText
 10
24.1945055567
 20
290.8020739489
 30
0.0
 40
6.35
 41
0.0
 71
     1
 72
     1
  1
SK 50 FMH-K22 100 AD+B/6.3G15000 SL SP.S
  7
SLDTEXTSTYLE0
 73
     1
 44
1.0
  0
MTEXT
  5
99
330
1F
100
AcDbEntity
  8
DIM
 62
     7
100
AcDbMText
 10
296.59916797
 20
11.7029272894
 30
0.0
 40
2.2479
 41
0.0
 71
     1
 72
     1
  1
WEIGHT:
  7
SLDTEXTSTYLE1
 73
     1
 44
1.0
  0
MTEXT
  5
9A
330
1F
100
AcDbEntity
  8
DIM
 62
     7
100
AcDbMText
 10
432.8956151322
 20
122.9109202624
 30
0.0
 40
2.778125
 41
0.0
 71
     1
 72
     1
  1
C
  7
SLDTEXTSTYLE1
 73
     1
 44
1.0
  0
MTEXT
  5
9B
330
1F
100
AcDbEntity
  8
DIM
 62
     7
100
AcDbMText
 10
424.5653709292
 20
22.2809729754
 30
0.0
 40
4.365625
 41
0.0
 71
     1
 72
     1
  1
A4
  7
SLDTEXTSTYLE1
 73
     1
 44
1.0
  0
MTEXT
  5
9C
330
1F
100
AcDbEntity
  8
DIM
 62
     7
100
AcDbMText
 10
408.8566430335
 20
305.1885117906
 30
0.0
 40
2.778125
 41
0.0
 71
     1
 72
     1
  1
6
  7
SLDTEXTSTYLE1
 73
     1
 44
1.0
  0
MTEXT
  5
9D
330
1F
100
AcDbEntity
  8
DIM
 62
     7
100
AcDbMText
 10
333.8566430335
 20
305.1885117906
 30
0.0
 40
2.778125
 41
0.0
 71
     1
 72
     1
  1
5
  7
SLDTEXTSTYLE1
 73
     1
 44
1.0
  0
MTEXT
  5
9E
330
1F
100
AcDbEntity
  8
DIM
 62
     7
100
AcDbMText
 10
432.8566490335
 20
271.4385117906
 30
0.0
 40
2.778125
 41
0.0
 71
     1
 72
     1
  1
A
  7
SLDTEXTSTYLE1
 73
     1
 44
1.0
  0
MTEXT
  5
9F
330
1F
100
AcDbEntity
  8
DIM
 62
     7
100
AcDbMText
 10
432.8566490335
 20
196.4385117906
 30
0.0
 40
2.778125
 41
0.0
 71
     1
 72
     1
  1
B
  7
SLDTEXTSTYLE1
 73
     1
 44
1.0
  0
MTEXT
  5
A0
330
1F
100
AcDbEntity
  8
DIM
 62
     7
100
AcDbMText
 10
258.8566430335
 20
305.1885117906
 30
0.0
 40
2.778125
 41
0.0
 71
     1
 72
     1
  1
4
  7
SLDTEXTSTYLE1
 73
     1
 44
1.0
  0
MTEXT
  5
A1
330
1F
100
AcDbEntity
  8
DIM
 62
     7
100
AcDbMText
 10
34.4816430335
 20
305.1885117906
 30
0.0
 40
2.778125
 41
0.0
 71
     1
 72
     1
  1
1
  7
SLDTEXTSTYLE1
 73
     1
 44
1.0
  0
MTEXT
  5
A2
330
1F
100
AcDbEntity
  8
DIM
 62
     7
100
AcDbMText
 10
108.8566430335
 20
305.1885117906
 30
0.0
 40
2.778125
 41
0.0
 71
     1
 72
     1
  1
2
  7
SLDTEXTSTYLE1
 73
     1
 44
1.0
  0
MTEXT
  5
A3
330
1F
100
AcDbEntity
  8
DIM
 62
     7
100
AcDbMText
 10
183.8566430335
 20
305.1885117906
 30
0.0
 40
2.778125
 41
0.0
 71
     1
 72
     1
  1
3
  7
SLDTEXTSTYLE1
 73
     1
 44
1.0
  0
MTEXT
  5
A4
330
1F
100
AcDbEntity
  8
DIM
 62
     7
100
AcDbMText
 10
9.8566370335
 20
271.4385117906
 30
0.0
 40
2.778125
 41
0.0
 71
     1
 72
     1
  1
A
  7
SLDTEXTSTYLE1
 73
     1
 44
1.0
  0
MTEXT
  5
A5
330
1F
100
AcDbEntity
  8
DIM
 62
     7
100
AcDbMText
 10
108.8566430335
 20
12.6885117906
 30
0.0
 40
2.778125
 41
0.0
 71
     1
 72
     1
  1
2
  7
SLDTEXTSTYLE1
 73
     1
 44
1.0
  0
MTEXT
  5
A6
330
1F
100
AcDbEntity
  8
DIM
 62
     7
100
AcDbMText
 10
34.4816430335
 20
12.6885117906
 30
0.0
 40
2.778125
 41
0.0
 71
     1
 72
     1
  1
1
  7
SLDTEXTSTYLE1
 73
     1
 44
1.0
  0
MTEXT
  5
A7
330
1F
100
AcDbEntity
  8
DIM
 62
     7
100
AcDbMText
 10
9.8566370335
 20
46.4385117906
 30
0.0
 40
2.778125
 41
0.0
 71
     1
 72
     1
  1
D
  7
SLDTEXTSTYLE1
 73
     1
 44
1.0
  0
MTEXT
  5
A8
330
1F
100
AcDbEntity
  8
DIM
 62
     7
100
AcDbMText
 10
9.8566370335
 20
121.4385117906
 30
0.0
 40
2.778125
 41
0.0
 71
     1
 72
     1
  1
C
  7
SLDTEXTSTYLE1
 73
     1
 44
1.0
  0
MTEXT
  5
A9
330
1F
100
AcDbEntity
  8
DIM
 62
     7
100
AcDbMText
 10
9.8566370335
 20
196.4385117906
 30
0.0
 40
2.778125
 41
0.0
 71
     1
 72
     1
  1
B
  7
SLDTEXTSTYLE1
 73
     1
 44
1.0
  0
MTEXT
  5
AA
330
1F
100
AcDbEntity
  8
DIM
 62
     7
100
AcDbMText
 10
432.8956151322
 20
122.9109202624
 30
0.0
 40
2.778125
 41
0.0
 71
     1
 72
     1
  1
C
  7
SLDTEXTSTYLE1
 73
     1
 44
1.0
  0
MTEXT
  5
AC
330
1F
100
AcDbEntity
  8
DIM
 62
     7
100
AcDbMText
 10
384.7880487188
 20
11.5366180971
 30
0.0
 40
2.25
 41
0.0
 71
     1
 72
     1
  1
SHEET 1 OF 1
  7
SLDTEXTSTYLE2
 73
     1
 44
1.0
  0
MTEXT
  5
AD
330
1F
100
AcDbEntity
  8
DIM
 62
     7
100
AcDbMText
 10
225.5576705752
 20
11.7800512255
 30
0.0
 40
2.25
 41
0.0
 71
     1
 72
     1
  1
MATERIAL:
  7
SLDTEXTSTYLE1
 73
     1
 44
1.0
  0
MTEXT
  5
AE
330
1F
100
AcDbEntity
  8
DIM
 62
     7
100
AcDbMText
 10
408.8566430335
 20
305.1885117906
 30
0.0
 40
2.778125
 41
0.0
 71
     1
 72
     1
  1
6
  7
SLDTEXTSTYLE1
 73
     1
 44
1.0
  0
MTEXT
  5
AF
330
1F
100
AcDbEntity
  8
DIM
 62
     7
100
AcDbMText
 10
333.8566430335
 20
305.1885117906
 30
0.0
 40
2.778125
 41
0.0
 71
     1
 72
     1
  1
5
  7
SLDTEXTSTYLE1
 73
     1
 44
1.0
  0
MTEXT
  5
B0
330
1F
100
AcDbEntity
  8
DIM
 62
     7
100
AcDbMText
 10
432.8566490335
 20
271.4385117906
 30
0.0
 40
2.778125
 41
0.0
 71
     1
 72
     1
  1
A
  7
SLDTEXTSTYLE1
 73
     1
 44
1.0
  0
MTEXT
  5
B1
330
1F
100
AcDbEntity
  8
DIM
 62
     7
100
AcDbMText
 10
432.8566490335
 20
196.4385117906
 30
0.0
 40
2.778125
 41
0.0
 71
     1
 72
     1
  1
B
  7
SLDTEXTSTYLE1
 73
     1
 44
1.0
  0
MTEXT
  5
B2
330
1F
100
AcDbEntity
  8
DIM
 62
     7
100
AcDbMText
 10
258.8566430335
 20
305.1885117906
 30
0.0
 40
2.778125
 41
0.0
 71
     1
 72
     1
  1
4
  7
SLDTEXTSTYLE1
 73
     1
 44
1.0
  0
MTEXT
  5
B3
330
1F
100
AcDbEntity
  8
DIM
 62
     7
100
AcDbMText
 10
34.4816430335
 20
305.1885117906
 30
0.0
 40
2.778125
 41
0.0
 71
     1
 72
     1
  1
1
  7
SLDTEXTSTYLE1
 73
     1
 44
1.0
  0
MTEXT
  5
B4
330
1F
100
AcDbEntity
  8
DIM
 62
     7
100
AcDbMText
 10
108.8566430335
 20
305.1885117906
 30
0.0
 40
2.778125
 41
0.0
 71
     1
 72
     1
  1
2
  7
SLDTEXTSTYLE1
 73
     1
 44
1.0
  0
MTEXT
  5
B5
330
1F
100
AcDbEntity
  8
DIM
 62
     7
100
AcDbMText
 10
183.8566430335
 20
305.1885117906
 30
0.0
 40
2.778125
 41
0.0
 71
     1
 72
     1
  1
3
  7
SLDTEXTSTYLE1
 73
     1
 44
1.0
  0
MTEXT
  5
B6
330
1F
100
AcDbEntity
  8
DIM
 62
     7
100
AcDbMText
 10
9.8566370335
 20
271.4385117906
 30
0.0
 40
2.778125
 41
0.0
 71
     1
 72
     1
  1
A
  7
SLDTEXTSTYLE1
 73
     1
 44
1.0
  0
MTEXT
  5
B7
330
1F
100
AcDbEntity
  8
DIM
 62
     7
100
AcDbMText
 10
108.8566430335
 20
12.6885117906
 30
0.0
 40
2.778125
 41
0.0
 71
     1
 72
     1
  1
2
  7
SLDTEXTSTYLE1
 73
     1
 44
1.0
  0
MTEXT
  5
B8
330
1F
100
AcDbEntity
  8
DIM
 62
     7
100
AcDbMText
 10
34.4816430335
 20
12.6885117906
 30
0.0
 40
2.778125
 41
0.0
 71
     1
 72
     1
  1
1
  7
SLDTEXTSTYLE1
 73
     1
 44
1.0
  0
MTEXT
  5
B9
330
1F
100
AcDbEntity
  8
DIM
 62
     7
100
AcDbMText
 10
9.8566370335
 20
46.4385117906
 30
0.0
 40
2.778125
 41
0.0
 71
     1
 72
     1
  1
D
  7
SLDTEXTSTYLE1
 73
     1
 44
1.0
  0
MTEXT
  5
BA
330
1F
100
AcDbEntity
  8
DIM
 62
     7
100
AcDbMText
 10
9.8566370335
 20
121.4385117906
 30
0.0
 40
2.778125
 41
0.0
 71
     1
 72
     1
  1
C
  7
SLDTEXTSTYLE1
 73
     1
 44
1.0
  0
MTEXT
  5
BB
330
1F
100
AcDbEntity
  8
DIM
 62
     7
100
AcDbMText
 10
9.8566370335
 20
196.4385117906
 30
0.0
 40
2.778125
 41
0.0
 71
     1
 72
     1
  1
B
  7
SLDTEXTSTYLE1
 73
     1
 44
1.0
  0
SPLINE
  5
BC
330
1F
100
AcDbEntity
  8
0
  6
Continuous
 62
     7
370
    15
100
AcDbSpline
210
0.0
220
0.0
230
1.0
 70
     8
 71
     3
 72
    14
 73
    10
 74
     0
 42
0.000000001
 43
0.00000001
 40
0.0
 40
0.0
 40
0.0
 40
0.0
 40
0.25
 40
0.25
 40
0.5
 40
0.5
 40
0.75
 40
0.75
 40
1.0
 40
1.0
 40
1.0
 40
1.0
 10
87.23032065923981
 20
170.7578380112082
 30
0.0
 10
87.23032065923981
 20
165.6601036344338
 30
0.0
 10
85.20509423317087
 20
160.7707745297417
 30
0.0
 10
77.99580914016089
 20
153.5614894367318
 30
0.0
 10
73.10648003546886
 20
151.5362630106629
 30
0.0
 10
62.91101128191998
 20
151.5362630106629
 30
0.0
 10
58.02168217722794
 20
153.5614894367318
 30
0.0
 10
50.81239708421796
 20
160.7707745297417
 30
0.0
 10
48.78717065814902
 20
165.6601036344338
 30
0.0
 10
48.78717065814901
 20
170.7578380112082
 30
0.0
  0
SPLINE
  5
BD
330
1F
100
AcDbEntity
  8
0
  6
Continuous
 62
     7
370
    15
100
AcDbSpline
210
0.0
220
0.0
230
1.0
 70
     8
 71
     3
 72
    14
 73
    10
 74
     0
 42
0.000000001
 43
0.00000001
 40
0.0
 40
0.0
 40
0.0
 40
0.0
 40
0.25
 40
0.25
 40
0.5
 40
0.5
 40
0.75
 40
0.75
 40
1.0
 40
1.0
 40
1.0
 40
1.0
 10
48.78717065814902
 20
170.7578380112082
 30
0.0
 10
48.78717065814902
 20
175.8555723879827
 30
0.0
 10
50.81239708421796
 20
180.7449014926747
 30
0.0
 10
58.02168217722794
 20
187.9541865856847
 30
0.0
 10
62.91101128191998
 20
189.9794130117536
 30
0.0
 10
73.10648003546885
 20
189.9794130117536
 30
0.0
 10
77.99580914016089
 20
187.9541865856847
 30
0.0
 10
85.20509423317087
 20
180.7449014926747
 30
0.0
 10
87.23032065923981
 20
175.8555723879827
 30
0.0
 10
87.23032065923981
 20
170.7578380112082
 30
0.0
  0
CIRCLE
  5
BE
330
1F
100
AcDbEntity
  8
0
  6
Continuous
 62
     7
370
    15
100
AcDbCircle
 10
68.0087456587
 20
170.7578380112
 30
0.0
 40
20.21110778703758
  0
CIRCLE
  5
BF
330
1F
100
AcDbEntity
  8
0
  6
Continuous
 62
     7
370
    15
100
AcDbCircle
 10
68.0087456587
 20
170.7578380112
 30
0.0
 40
34.925
  0
SPLINE
  5
C0
330
1F
100
AcDbEntity
  8
0
  6
Continuous
 62
     7
370
    15
100
AcDbSpline
210
0.0
220
0.0
230
1.0
 70
     8
 71
     3
 72
    52
 73
    48
 74
     0
 42
0.000000001
 43
0.00000001
 40
0.0
 40
0.0
 40
0.0
 40
0.0
 40
0.0053074994726554
 40
0.0106084744807156
 40
0.0159043870752884
 40
0.0211967035030982
 40
0.0264868930010475
 40
0.031776426578386
 40
0.0370667757915106
 40
0.0423594115164833
 40
0.0476558027243854
 40
0.0529574152645906
 40
0.0582657106609693
 40
0.0891348494758177
 40
0.1200087595578935
 40
0.1521645941108524
 40
0.1843252192282218
 40
0.2171652710885947
 40
0.2500102154523581
 40
0.2828502674523063
 40
0.3156952119562962
 40
0.3478510468948057
 40
0.380011672397905
 40
0.4108808109142898
 40
0.4417547207534483
 40
0.470875333637603
 40
0.5000007798720159
 40
0.5291213927975412
 40
0.5582468390472084
 40
0.5891159778617261
 40
0.6199898879441322
 40
0.652145722497098
 40
0.6843063476144644
 40
0.7171463994755694
 40
0.7499913438386044
 40
0.7828313958395676
 40
0.8156763403425417
 40
0.8478321752819549
 40
0.8799928007841501
 40
0.9108619393016738
 40
0.941735849139696
 40
0.9514609652020397
 40
0.9611682412334405
 40
0.9708667191333772
 40
0.9805654654081966
 40
0.9902735458123287
 40
1.0
 40
1.0
 40
1.0
 40
1.0
 10
33.00874565869441
 20
170.7578380112082
 30
0.0
 10
33.00967368960486
 20
170.9523001692612
 30
0.0
 10
33.01152861060518
 20
171.3409854346669
 30
0.0
 10
33.0265576449568
 20
171.9235484046884
 30
0.0
 10
33.05055627399118
 20
172.5052342920577
 30
0.0
 10
33.08440057807429
 20
173.0860429868748
 30
0.0
 10
33.12785611980789
 20
173.6659743352941
 30
0.0
 10
33.18098568087395
 20
174.2450282557187
 30
0.0
 10
33.24377235059614
 20
174.8232044198554
 30
0.0
 10
33.31622094311271
 20
175.4005034172238
 30
0.0
 10
33.39832898060573
 20
175.9769224173713
 30
0.0
 10
33.49010138259938
 20
176.5524713789494
 30
0.0
 10
33.75424088423279
 20
178.0490839824631
 30
0.0
 10
34.31800863713819
 20
180.4447908436312
 30
0.0
 10
35.43062581747691
 20
183.7056619496836
 30
0.0
 10
36.87779203301751
 20
186.8855508319774
 30
0.0
 10
38.67696766242422
 20
189.9640497637331
 30
0.0
 10
40.79338823798457
 20
192.86550967177
 30
0.0
 10
43.21627343149969
 20
195.5500566477639
 30
0.0
 10
45.90093391011816
 20
197.9730818227104
 30
0.0
 10
48.80223404967845
 20
200.0894210587875
 30
0.0
 10
51.88088714770544
 20
201.8887132509065
 30
0.0
 10
55.06055058171376
 20
203.3358213841138
 30
0.0
 10
58.32178687972009
 20
204.4485512011187
 30
0.0
 10
61.5675311784541
 20
205.2124386865149
 30
0.0
 10
64.80639729661002
 20
205.6607166865253
 30
0.0
 10
68.00856868653987
 20
205.8063945513655
 30
0.0
 10
71.21091615718616
 20
205.660733173917
 30
0.0
 10
74.44961441690006
 20
205.2125029814559
 30
0.0
 10
77.69553502647311
 20
204.4486009223332
 30
0.0
 10
80.95661542703256
 20
203.3359505929745
 30
0.0
 10
84.13644599548763
 20
201.8887936179191
 30
0.0
 10
87.21496083569767
 20
200.08961545069
 30
0.0
 10
90.11641639182425
 20
197.9731956338424
 30
0.0
 10
92.80096454983375
 20
195.5503099927321
 30
0.0
 10
95.22398937941651
 20
192.8656505402466
 30
0.0
 10
97.34032881358152
 20
189.9643467688937
 30
0.0
 10
99.1396205662196
 20
186.8857069063117
 30
0.0
 10
100.5867302355792
 20
183.7059949608879
 30
0.0
 10
101.6994545592425
 20
180.4449327512126
 30
0.0
 10
102.3003004912853
 20
177.8915186658584
 30
0.0
 10
102.6082405708044
 20
176.0740989602567
 30
0.0
 10
102.754379681727
 20
175.0166522220282
 30
0.0
 10
102.8681857089881
 20
173.9562149686534
 30
0.0
 10
102.9488810297946
 20
172.8927609945012
 30
0.0
 10
102.9994025652103
 20
171.8263006257668
 30
0.0
 10
103.005629331898
 20
171.1142166220411
 30
0.0
 10
103.0087456586944
 20
170.7578380112082
 30
0.0
  0
SPLINE
  5
C1
330
1F
100
AcDbEntity
  8
0
  6
Continuous
 62
     7
370
    15
100
AcDbSpline
210
0.0
220
0.0
230
1.0
 70
     8
 71
     3
 72
    52
 73
    48
 74
     0
 42
0.000000001
 43
0.00000001
 40
0.0
 40
0.0
 40
0.0
 40
0.0
 40
0.0053074994726554
 40
0.0106084744807156
 40
0.0159043870752884
 40
0.0211967035030983
 40
0.0264868930010475
 40
0.0317764265783861
 40
0.0370667757915106
 40
0.0423594115164834
 40
0.0476558027243854
 40
0.0529574152645907
 40
0.0582657106609694
 40
0.0891348494759667
 40
0.1200087595578951
 40
0.1521645941111445
 40
0.1843252192282232
 40
0.2171652710889209
 40
0.25001021545236
 40
0.2828502674525652
 40
0.315695211956297
 40
0.3478510468951538
 40
0.3800116723979077
 40
0.41088081091547
 40
0.4417547207534571
 40
0.4708753336379863
 40
0.5000007798720127
 40
0.5291213927971703
 40
0.5582468390472111
 40
0.5891159778626601
 40
0.6199898879441411
 40
0.6521457224976949
 40
0.6843063476144631
 40
0.7171463994753853
 40
0.7499913438386053
 40
0.7828313958393156
 40
0.8156763403425399
 40
0.8478321752809374
 40
0.8799928007841432
 40
0.9108619393011222
 40
0.9417358491396983
 40
0.9514609652021586
 40
0.9611682412336295
 40
0.9708667191335897
 40
0.9805654654083855
 40
0.9902735458124469
 40
1.0
 40
1.0
 40
1.0
 40
1.0
 10
103.0087456586944
 20
170.7578380112082
 30
0.0
 10
103.007817627784
 20
170.5633758531553
 30
0.0
 10
103.0059627067837
 20
170.1746905877496
 30
0.0
 10
102.990933672432
 20
169.5921276177281
 30
0.0
 10
102.9669350433977
 20
169.0104417303587
 30
0.0
 10
102.9330907393146
 20
168.4296330355416
 30
0.0
 10
102.8896351975809
 20
167.8497016871224
 30
0.0
 10
102.8365056365149
 20
167.2706477666977
 30
0.0
 10
102.7737189667927
 20
166.6924716025611
 30
0.0
 10
102.7012703742761
 20
166.1151726051927
 30
0.0
 10
102.6191623367831
 20
165.5387536050451
 30
0.0
 10
102.5273899347894
 20
164.963204643467
 30
0.0
 10
102.263250433155
 20
163.466592039948
 30
0.0
 10
101.6994826802519
 20
161.0708851787792
 30
0.0
 10
100.5868654999055
 20
157.810014072718
 30
0.0
 10
99.13969928436649
 20
154.6301251904295
 30
0.0
 10
97.34052365495216
 20
151.5516262586646
 30
0.0
 10
95.2241030793972
 20
148.6501663506368
 30
0.0
 10
92.80121788587417
 20
145.9656193746374
 30
0.0
 10
90.11655740726214
 20
143.5425941997013
 30
0.0
 10
87.21525726769168
 20
141.4262549636174
 30
0.0
 10
84.1366041696739
 20
139.6269627715002
 30
0.0
 10
80.95694073562248
 20
138.1798546382841
 30
0.0
 10
77.69570443763011
 20
137.0671248212761
 30
0.0
 10
74.44996013887894
 20
136.3032373358886
 30
0.0
 10
71.21109402076267
 20
135.854959335913
 30
0.0
 10
68.00892263084887
 20
135.7092814710491
 30
0.0
 10
64.80657516021498
 20
135.8549428484876
 30
0.0
 10
61.56787690046928
 20
136.3031730409675
 30
0.0
 10
58.32195629087992
 20
137.067075100082
 30
0.0
 10
55.06087589030397
 20
138.1797254294621
 30
0.0
 10
51.88104532188982
 20
139.6268824045229
 30
0.0
 10
48.80253048167735
 20
141.4260605717325
 30
0.0
 10
45.90107492556853
 20
143.5424803885683
 30
0.0
 10
43.21652676756582
 20
145.9653660296726
 30
0.0
 10
40.79350193798246
 20
148.6500254821659
 30
0.0
 10
38.67716250383089
 20
151.5513292534828
 30
0.0
 10
36.8778707511942
 20
154.6299691160758
 30
0.0
 10
35.43076108183224
 20
157.8096810614757
 30
0.0
 10
34.31803675813552
 20
161.0707432711797
 30
0.0
 10
33.71719082610501
 20
163.6241573565422
 30
0.0
 10
33.40925074658479
 20
165.4415770621711
 30
0.0
 10
33.26311163566218
 20
166.4990238004074
 30
0.0
 10
33.14930560840101
 20
167.5594610537848
 30
0.0
 10
33.06861028759437
 20
168.6229150279343
 30
0.0
 10
33.01808875217856
 20
169.6893753966609
 30
0.0
 10
33.01186198549086
 20
170.4014594003797
 30
0.0
 10
33.00874565869441
 20
170.7578380112082
 30
0.0
  0
SPLINE
  5
C2
330
1F
100
AcDbEntity
  8
0
  6
Continuous
 62
     7
370
    15
100
AcDbSpline
210
0.0
220
0.0
230
1.0
 70
    24
 71
     3
 72
     8
 73
     4
 74
     0
 42
0.000000001
 43
0.00000001
 40
0.0
 40
0.0
 40
0.0
 40
0.0
 40
1.0
 40
1.0
 40
1.0
 40
1.0
 10
38.00874565869439
 20
208.0574994947753
 30
0.0
 10
38.00874565869439
 20
207.9539904505409
 30
0.0
 10
38.00874565869441
 20
207.8245668887088
 30
0.0
 10
38.00874565869441
 20
207.6938230877889
 30
0.0
  0
ARC
  5
C3
330
1F
100
AcDbEntity
  8
0
  6
Continuous
 62
     7
370
    15
100
AcDbCircle
 10
68.0087456587
 20
170.7578380112
 30
0.0
 40
47.58431457505077
100
AcDbArc
 50
129.0840578538
 51
140.9159421462
  0
SPLINE
  5
C4
330
1F
100
AcDbEntity
  8
0
  6
Continuous
 62
     7
370
    15
100
AcDbSpline
210
0.0
220
0.0
230
1.0
 70
    24
 71
     3
 72
     8
 73
     4
 74
     0
 42
0.000000001
 43
0.00000001
 40
0.0
 40
0.0
 40
0.0
 40
0.0
 40
1.0
 40
1.0
 40
1.0
 40
1.0
 10
31.07276058211375
 20
200.7578380112082
 30
0.0
 10
30.94205643250686
 20
200.7578380112082
 30
0.0
 10
30.81251946549069
 20
200.7578380112082
 30
0.0
 10
30.70908417512736
 20
200.7578380112082
 30
0.0
  0
ARC
  5
C5
330
1F
100
AcDbEntity
  8
0
  6
Continuous
 62
     7
370
    15
100
AcDbCircle
 10
68.0087456587
 20
170.7578380112
 30
0.0
 40
47.8671572875254
100
AcDbArc
 50
128.8096103904
 51
141.1903896096
  0
SPLINE
  5
C6
330
1F
100
AcDbEntity
  8
0
  6
Continuous
 62
     7
370
    15
100
AcDbSpline
210
0.0
220
0.0
230
1.0
 70
     8
 71
     3
 72
    10
 73
     6
 74
     0
 42
0.000000001
 43
0.00000001
 40
0.0
 40
0.0
 40
0.0
 40
0.0
 40
0.5
 40
0.5
 40
1.0
 40
1.0
 40
1.0
 40
1.0
 10
113.6230470736826
 20
184.3078380112082
 30
0.0
 10
113.6869987625257
 20
184.3078380112082
 30
0.0
 10
113.7485631009768
 20
184.2939921351834
 30
0.0
 10
113.8591884518258
 20
184.251826358996
 30
0.0
 10
113.9088751434953
 20
184.223335658733
 30
0.0
 10
113.9524447201611
 20
184.1906807236829
 30
0.0
  0
ARC
  5
C7
330
1F
100
AcDbEntity
  8
0
  6
Continuous
 62
     7
370
    15
100
AcDbCircle
 10
68.0087456587
 20
170.7578380112
 30
0.0
 40
47.86715728752541
100
AcDbArc
 50
343.7023380383
 51
16.2976619617
  0
SPLINE
  5
C8
330
1F
100
AcDbEntity
  8
0
  6
Continuous
 62
     7
370
    15
100
AcDbSpline
210
0.0
220
0.0
230
1.0
 70
     8
 71
     3
 72
    10
 73
     6
 74
     0
 42
0.000000001
 43
0.00000001
 40
0.0
 40
0.0
 40
0.0
 40
0.0
 40
0.5
 40
0.5
 40
1.0
 40
1.0
 40
1.0
 40
1.0
 10
113.9524447201611
 20
157.3249952987336
 30
0.0
 10
113.9089043287424
 20
157.2923622377163
 30
0.0
 10
113.8603497246246
 20
157.2643813514501
 30
0.0
 10
113.7489001888627
 20
157.2217245010751
 30
0.0
 10
113.6869419362736
 20
157.2078380112083
 30
0.0
 10
113.6230470736826
 20
157.2078380112083
 30
0.0
  0
ARC
  5
C9
330
1F
100
AcDbEntity
  8
0
  6
Continuous
 62
     7
370
    15
100
AcDbCircle
 10
68.0087456587
 20
170.7578380112
 30
0.0
 40
47.5843145750508
100
AcDbArc
 50
343.4556342686
 51
16.5443657314
  0
ARC
  5
CA
330
1F
100
AcDbEntity
  8
0
  6
Continuous
 62
     7
370
    15
100
AcDbCircle
 10
68.0087456587
 20
170.7578380112
 30
0.0
 40
47.58431457505078
100
AcDbArc
 50
163.4556342686
 51
196.5443657314
  0
SPLINE
  5
CB
330
1F
100
AcDbEntity
  8
0
  6
Continuous
 62
     7
370
    15
100
AcDbSpline
210
0.0
220
0.0
230
1.0
 70
     8
 71
     3
 72
    10
 73
     6
 74
     0
 42
0.000000001
 43
0.00000001
 40
0.0
 40
0.0
 40
0.0
 40
0.0
 40
0.5
 40
0.5
 40
1.0
 40
1.0
 40
1.0
 40
1.0
 10
22.39444424370626
 20
157.2078380112083
 30
0.0
 10
22.33049255486313
 20
157.2078380112083
 30
0.0
 10
22.26892821641201
 20
157.2216838872331
 30
0.0
 10
22.15830286556297
 20
157.2638496634204
 30
0.0
 10
22.10861617389356
 20
157.2923403636835
 30
0.0
 10
22.06504659722774
 20
157.3249952987336
 30
0.0
  0
ARC
  5
CC
330
1F
100
AcDbEntity
  8
0
  6
Continuous
 62
     7
370
    15
100
AcDbCircle
 10
68.0087456587
 20
170.7578380112
 30
0.0
 40
47.86715728752539
100
AcDbArc
 50
163.7023380383
 51
196.2976619617
  0
SPLINE
  5
CD
330
1F
100
AcDbEntity
  8
0
  6
Continuous
 62
     7
370
    15
100
AcDbSpline
210
0.0
220
0.0
230
1.0
 70
     8
 71
     3
 72
    10
 73
     6
 74
     0
 42
0.000000001
 43
0.00000001
 40
0.0
 40
0.0
 40
0.0
 40
0.0
 40
0.5
 40
0.5
 40
1.0
 40
1.0
 40
1.0
 40
1.0
 10
22.39444424370626
 20
184.3078380112082
 30
0.0
 10
22.33049255486313
 20
184.3078380112082
 30
0.0
 10
22.26892821641199
 20
184.2939921351834
 30
0.0
 10
22.15830286556299
 20
184.2518263589961
 30
0.0
 10
22.10861617389356
 20
184.223335658733
 30
0.0
 10
22.06504659722774
 20
184.1906807236829
 30
0.0
  0
SPLINE
  5
CE
330
1F
100
AcDbEntity
  8
0
  6
Continuous
 62
     7
370
    15
100
AcDbSpline
210
0.0
220
0.0
230
1.0
 70
     8
 71
     3
 72
    40
 73
    36
 74
     0
 42
0.000000001
 43
0.00000001
 40
0.0
 40
0.0
 40
0.0
 40
0.0
 40
0.0076138096090706
 40
0.015222703696619
 40
0.0228283796622113
 40
0.0304325370604607
 40
0.0380368764641707
 40
0.0456430983240686
 40
0.0532529018289472
 40
0.0608679837700325
 40
0.0919930035882894
 40
0.1231236538966525
 40
0.1547321881285151
 40
0.1863461940165317
 40
0.2182020912711853
 40
0.2500635030030784
 40
0.3137495787501998
 40
0.3769416086590435
 40
0.439168148565131
 40
0.5000004350472922
 40
0.5608327215294534
 40
0.6230592614355407
 40
0.6862512913443847
 40
0.7499373670915059
 40
0.7817932643700992
 40
0.813654676120411
 40
0.8452632104154371
 40
0.8768772163635395
 40
0.9080022357785864
 40
0.9391328857746177
 40
0.9513123423166135
 40
0.963481817855821
 40
0.9756482751522532
 40
0.9878186821461872
 40
1.0
 40
1.0
 40
1.0
 40
1.0
 10
113.6230470736826
 20
184.3078380112082
 30
0.0
 10
113.5545476628503
 20
184.5348507689309
 30
0.0
 10
113.4175930648196
 20
184.9887297235672
 30
0.0
 10
113.1993629756825
 20
185.6653969447374
 30
0.0
 10
112.971867354287
 20
186.3386676453043
 30
0.0
 10
112.7341823901189
 20
187.0082671760945
 30
0.0
 10
112.4865552440771
 20
187.6742693164449
 30
0.0
 10
112.2289208140256
 20
188.3366528514638
 30
0.0
 10
111.961292633678
 20
188.9954282864766
 30
0.0
 10
111.3980999836881
 20
190.3245320217169
 30
0.0
 10
110.4730813115223
 20
192.2958327931268
 30
0.0
 10
109.0706685990716
 20
194.8626778725413
 30
0.0
 10
107.5051289909633
 20
197.3516276989486
 30
0.0
 10
105.7746175357098
 20
199.7566571110441
 30
0.0
 10
103.8929630985451
 20
202.0557674687834
 30
0.0
 10
101.191133331447
 20
204.9643613427345
 30
0.0
 10
97.4917695939281
 20
208.2649401891934
 30
0.0
 10
92.63149268878925
 20
211.6169895067675
 30
0.0
 10
87.47520498793467
 20
214.3053002957442
 30
0.0
 10
82.10204117242361
 20
216.325928963017
 30
0.0
 10
76.52630449915695
 20
217.6915753643128
 30
0.0
 10
70.75263095202189
 20
218.3836820948645
 30
0.0
 10
64.84856429734857
 20
218.3608281621394
 30
0.0
 10
59.93193657193319
 20
217.7250771500896
 30
0.0
 10
56.05979077998589
 20
216.8497021238496
 30
0.0
 10
53.2088633284862
 20
216.0143963385269
 30
0.0
 10
50.42256551038549
 20
215.0062303478416
 30
0.0
 10
47.72538008044405
 20
213.8357899533297
 30
0.0
 10
45.11853734895571
 20
212.508804640556
 30
0.0
 10
43.11956542324968
 20
211.3317846130075
 30
0.0
 10
41.66910118936468
 20
210.3927109273555
 30
0.0
 10
40.72936893135148
 20
209.752069124006
 30
0.0
 10
39.80580685485496
 20
209.0888873827112
 30
0.0
 10
38.89685037076269
 20
208.4050721948161
 30
0.0
 10
38.3048689757022
 20
207.9309769300438
 30
0.0
 10
38.00874565869442
 20
207.6938230877889
 30
0.0
  0
SPLINE
  5
CF
330
1F
100
AcDbEntity
  8
0
  6
Continuous
 62
     7
370
    15
100
AcDbSpline
210
0.0
220
0.0
230
1.0
 70
     8
 71
     3
 72
    48
 73
    44
 74
     0
 42
0.000000001
 43
0.00000001
 40
0.0
 40
0.0
 40
0.0
 40
0.0
 40
0.0054347037870314
 40
0.0108647463485207
 40
0.0162911759177293
 40
0.0217150428226928
 40
0.0271373988806366
 40
0.0325592967880729
 40
0.0379817895083434
 40
0.0434059296583851
 40
0.0488327688965038
 40
0.0542633573129332
 40
0.059698742824938
 40
0.0907177254008823
 40
0.1217409090757531
 40
0.1535986684470912
 40
0.1854607425290452
 40
0.2177550902622351
 40
0.2500538118399259
 40
0.2823481596244854
 40
0.3146468812542022
 40
0.346504640772552
 40
0.3783667150011477
 40
0.440359683087698
 40
0.5000005600694972
 40
0.5596414370512967
 40
0.621634405137847
 40
0.6534921645093787
 40
0.6853542385911302
 40
0.7176485863248414
 40
0.749947307902022
 40
0.7822416556872713
 40
0.8145403773162883
 40
0.8463981368333431
 40
0.87826021106323
 40
0.9092791938585987
 40
0.9403023777537969
 40
0.9502622131370424
 40
0.9602093142102202
 40
0.970150156833966
 40
0.98009122909965
 40
0.9900390186493149
 40
0.9999999999999999
 40
0.9999999999999999
 40
0.9999999999999999
 40
0.9999999999999999
 10
22.39444424370626
 20
157.2078380112083
 30
0.0
 10
22.45820474079469
 20
156.9962986747803
 30
0.0
 10
22.58567104899981
 20
156.5734014345464
 30
0.0
 10
22.78793458002247
 20
155.9427271923186
 30
0.0
 10
22.99817914852295
 20
155.315149712636
 30
0.0
 10
23.21720461326721
 20
154.690906661183
 30
0.0
 10
23.4447968165964
 20
154.0699345133882
 30
0.0
 10
23.68101310407595
 20
153.4522503393382
 30
0.0
 10
23.92583798692914
 20
152.8378497724999
 30
0.0
 10
24.17927593183522
 20
152.2267336327935
 30
0.0
 10
24.44132437483043
 20
151.6189034167069
 30
0.0
 10
24.71198890236966
 20
151.0143527096129
 30
0.0
 10
25.42926814274058
 20
149.4700541144346
 30
0.0
 10
26.70078166988046
 20
147.0356116454045
 30
0.0
 10
28.73454682022176
 20
143.8006659863193
 30
0.0
 10
31.04176988213323
 20
140.7111869887984
 30
0.0
 10
33.62873554794643
 20
137.7825971761858
 30
0.0
 10
36.4594649682497
 20
135.0626932518076
 30
0.0
 10
39.52013055632136
 20
132.5764313421238
 30
0.0
 10
42.77515941967776
 20
130.3503401647298
 30
0.0
 10
46.18830281439038
 20
128.4113797086406
 30
0.0
 10
49.73269684117695
 20
126.7653834522657
 30
0.0
 10
54.53293164313981
 20
124.9978975249449
 30
0.0
 10
60.63285393768292
 20
123.5525361182975
 30
0.0
 10
68.0087457005378
 20
122.9876816516109
 30
0.0
 10
75.38463720903196
 20
123.552536188005
 30
0.0
 10
81.48438869442693
 20
124.997856662624
 30
0.0
 10
86.28463110869087
 20
126.7653163973469
 30
0.0
 10
89.8288747283706
 20
128.411217887758
 30
0.0
 10
93.24217986571661
 20
130.3502455707319
 30
0.0
 10
96.49707585476065
 20
132.5762187683812
 30
0.0
 10
99.55789249499412
 20
135.0625745228193
 30
0.0
 10
102.3885108424333
 20
137.7823421890136
 30
0.0
 10
104.9756123255245
 20
140.7110505608108
 30
0.0
 10
107.2827424799327
 20
143.8003765510623
 30
0.0
 10
109.3166467713763
 20
147.0354776015999
 30
0.0
 10
110.6733508853412
 20
149.6330894708123
 30
0.0
 10
111.5347848803036
 20
151.5159769008522
 30
0.0
 10
112.0113316739638
 20
152.632031875277
 30
0.0
 10
112.4590782033413
 20
153.759126010296
 30
0.0
 10
112.8773173440862
 20
154.8974909339563
 30
0.0
 10
113.2687305484022
 20
156.0463224152428
 30
0.0
 10
113.5048894046502
 20
156.8204951537013
 30
0.0
 10
113.6230470736826
 20
157.2078380112082
 30
0.0
  0
SPLINE
  5
D0
330
1F
100
AcDbEntity
  8
0
  6
Continuous
 62
     7
370
    15
100
AcDbSpline
210
0.0
220
0.0
230
1.0
 70
     8
 71
     3
 72
    27
 73
    23
 74
     0
 42
0.000000001
 43
0.00000001
 40
0.0
 40
0.0
 40
0.0
 40
0.0
 40
0.0385569892848211
 40
0.0770658329194701
 40
0.1155353026399639
 40
0.1539741971376514
 40
0.1923913361118491
 40
0.2307955542506346
 40
0.2691956951601454
 40
0.3076006052631416
 40
0.3460191276878565
 40
0.3844600961682111
 40
0.4229323289763935
 40
0.461444622908547
 40
0.5000057473438686
 40
0.5715713334491092
 40
0.6429967682524639
 40
0.7143384572505677
 40
0.7856530046539444
 40
0.8569970792753662
 40
0.9284272796518032
 40
1.0
 40
1.0
 40
1.0
 40
1.0
 10
31.07276058211375
 20
200.7578380112082
 30
0.0
 10
30.92189124628382
 20
200.5704328270364
 30
0.0
 10
30.62034096335447
 20
200.1958564692988
 30
0.0
 10
30.17905528384871
 20
199.6257457758812
 30
0.0
 10
29.74626816256322
 20
199.0501039405099
 30
0.0
 10
29.32274414640096
 20
198.4683101049692
 30
0.0
 10
28.90827876814137
 20
197.8805304942902
 30
0.0
 10
28.50292685032223
 20
197.2867207252094
 30
0.0
 10
28.10667380293275
 20
196.6868927987717
 30
0.0
 10
27.71952361333492
 20
196.0810436115725
 30
0.0
 10
27.34147529358187
 20
195.4691741540005
 30
0.0
 10
26.97252914989835
 20
194.8512841622911
 30
0.0
 10
26.61268525014108
 20
194.2273743148847
 30
0.0
 10
26.26194328209352
 20
193.5974427885863
 30
0.0
 10
25.82301252416188
 20
192.7803916396039
 30
0.0
 10
25.3083712990362
 20
191.771036046847
 30
0.0
 10
24.73448008078272
 20
190.5628726458353
 30
0.0
 10
24.19550279749371
 20
189.3404479669574
 30
0.0
 10
23.69121122647598
 20
188.1038385389342
 30
0.0
 10
23.22247491747124
 20
186.8527870972638
 30
0.0
 10
22.7860450249154
 20
185.5882615550604
 30
0.0
 10
22.52506453714444
 20
184.7349293426063
 30
0.0
 10
22.39444424370627
 20
184.3078380112082
 30
0.0
  0
ARC
  5
D1
330
1F
100
AcDbEntity
  8
0
  6
Continuous
 62
     7
370
    15
100
AcDbCircle
 10
68.0087456587
 20
170.7578380112
 30
0.0
 40
47.86715728752541
100
AcDbArc
 50
196.2976619617
 51
343.7023380383
  0
ARC
  5
D2
330
1F
100
AcDbEntity
  8
0
  6
Continuous
 62
     7
370
    15
100
AcDbCircle
 10
68.0087456587
 20
170.7578380112
 30
0.0
 40
47.8671572875254
100
AcDbArc
 50
16.2976619617
 51
128.8096103904
  0
ARC
  5
D3
330
1F
100
AcDbEntity
  8
0
  6
Continuous
 62
     7
370
    15
100
AcDbCircle
 10
68.0087456587
 20
170.7578380112
 30
0.0
 40
47.86715728752539
100
AcDbArc
 50
141.1903896096
 51
163.7023380383
  0
ARC
  5
D4
330
1F
100
AcDbEntity
  8
0
  6
Continuous
 62
     7
370
    15
100
AcDbCircle
 10
68.0087456587
 20
170.7578380112
 30
0.0
 40
48.63284271247463
100
AcDbArc
 50
141.9122882504
 51
164.0342140175
  0
ARC
  5
D5
330
1F
100
AcDbEntity
  8
0
  6
Continuous
 62
     7
370
    15
100
AcDbCircle
 10
68.0087456587
 20
170.7578380112
 30
0.0
 40
48.63284271247462
100
AcDbArc
 50
128.0877117496
 51
141.9122882504
  0
ARC
  5
D6
330
1F
100
AcDbEntity
  8
0
  6
Continuous
 62
     7
370
    15
100
AcDbCircle
 10
68.0087456587
 20
170.7578380112
 30
0.0
 40
48.63284271247465
100
AcDbArc
 50
15.8741097166
 51
128.0877117496
  0
ARC
  5
D7
330
1F
100
AcDbEntity
  8
0
  6
Continuous
 62
     7
370
    15
100
AcDbCircle
 10
68.0087456587
 20
170.7578380112
 30
0.0
 40
48.63284271247462
100
AcDbArc
 50
344.1258902834
 51
15.8741097166
  0
ARC
  5
D8
330
1F
100
AcDbEntity
  8
0
  6
Continuous
 62
     7
370
    15
100
AcDbCircle
 10
68.0087456587
 20
170.7578380112
 30
0.0
 40
48.63284271247463
100
AcDbArc
 50
195.9657859825
 51
344.1258902834
  0
ARC
  5
D9
330
1F
100
AcDbEntity
  8
0
  6
Continuous
 62
     7
370
    15
100
AcDbCircle
 10
68.0087456587
 20
170.7578380112
 30
0.0
 40
48.63284271247462
100
AcDbArc
 50
164.0342140175
 51
195.9657859825
  0
SPLINE
  5
DA
330
1F
100
AcDbEntity
  8
0
  6
Continuous
 62
     7
370
    15
100
AcDbSpline
210
0.0
220
0.0
230
1.0
 70
    24
 71
     3
 72
     8
 73
     4
 74
     0
 42
0.000000001
 43
0.00000001
 40
0.0
 40
0.0
 40
0.0
 40
0.0
 40
1.0
 40
1.0
 40
1.0
 40
1.0
 10
38.00874565869442
 20
209.1839033835567
 30
0.0
 10
38.00874565869442
 20
209.1839033835567
 30
0.0
 10
38.00874565869441
 20
209.1223878351253
 30
0.0
 10
38.00874565869441
 20
209.0351601523442
 30
0.0
  0
SPLINE
  5
DB
330
1F
100
AcDbEntity
  8
0
  6
Continuous
 62
     7
370
    15
100
AcDbSpline
210
0.0
220
0.0
230
1.0
 70
    24
 71
     3
 72
     8
 73
     4
 74
     0
 42
0.000000001
 43
0.00000001
 40
0.0
 40
0.0
 40
0.0
 40
0.0
 40
1.0
 40
1.0
 40
1.0
 40
1.0
 10
29.73142351755847
 20
200.7578380112082
 30
0.0
 10
29.64414910134438
 20
200.7578380112082
 30
0.0
 10
29.5826802863459
 20
200.7578380112082
 30
0.0
 10
29.58268028634589
 20
200.7578380112082
 30
0.0
  0
ARC
  5
DC
330
1F
100
AcDbEntity
  8
0
  6
Continuous
 62
     7
370
    15
100
AcDbCircle
 10
68.0087456587
 20
170.7578380112
 30
0.0
 40
48.74999999999999
100
AcDbArc
 50
127.9798724449
 51
142.0201275551
  0
SPLINE
  5
DD
330
1F
100
AcDbEntity
  8
0
  6
Continuous
 62
     7
370
    15
100
AcDbSpline
210
0.0
220
0.0
230
1.0
 70
    24
 71
     3
 72
     8
 73
     4
 74
     0
 42
0.000000001
 43
0.00000001
 40
0.0
 40
0.0
 40
0.0
 40
0.0
 40
1.0
 40
1.0
 40
1.0
 40
1.0
 10
114.8817741129031
 20
184.1549161826209
 30
0.0
 10
114.8817741129031
 20
184.1549161826209
 30
0.0
 10
114.8446775198369
 20
184.1178195895547
 30
0.0
 10
114.7869751817399
 20
184.0601172514577
 30
0.0
  0
ARC
  5
DE
330
1F
100
AcDbEntity
  8
0
  6
Continuous
 62
     7
370
    15
100
AcDbCircle
 10
68.0087456587
 20
170.7578380112
 30
0.0
 40
48.75000000000002
100
AcDbArc
 50
344.0491974398
 51
15.9508025602
  0
SPLINE
  5
DF
330
1F
100
AcDbEntity
  8
0
  6
Continuous
 62
     7
370
    15
100
AcDbSpline
210
0.0
220
0.0
230
1.0
 70
    24
 71
     3
 72
     8
 73
     4
 74
     0
 42
0.000000001
 43
0.00000001
 40
0.0
 40
0.0
 40
0.0
 40
0.0
 40
1.0
 40
1.0
 40
1.0
 40
1.0
 10
114.8817741129031
 20
157.3607598397955
 30
0.0
 10
114.8817741129031
 20
157.3607598397955
 30
0.0
 10
114.8446775198369
 20
157.3978564328617
 30
0.0
 10
114.7869751817399
 20
157.4555587709587
 30
0.0
  0
SPLINE
  5
E0
330
1F
100
AcDbEntity
  8
0
  6
Continuous
 62
     7
370
    15
100
AcDbSpline
210
0.0
220
0.0
230
1.0
 70
    24
 71
     3
 72
    10
 73
     6
 74
     0
 42
0.000000001
 43
0.00000001
 40
0.0
 40
0.0
 40
0.0
 40
0.0
 40
0.5
 40
0.5
 40
1.0
 40
1.0
 40
1.0
 40
1.0
 10
21.25186035426999
 20
157.3807281991001
 30
0.0
 10
21.2289188340329
 20
157.3405348668369
 30
0.0
 10
21.20879774381332
 20
157.3052829020003
 30
0.0
 10
21.17952846975676
 20
157.2540034032966
 30
0.0
 10
21.17078187224299
 20
157.238679444971
 30
0.0
 10
21.170781872243
 20
157.238679444971
 30
0.0
  0
ARC
  5
E1
330
1F
100
AcDbEntity
  8
0
  6
Continuous
 62
     7
370
    15
100
AcDbCircle
 10
68.0087456587
 20
170.7578380112
 30
0.0
 40
48.75
100
AcDbArc
 50
163.8999153276
 51
196.1000846724
  0
SPLINE
  5
E2
330
1F
100
AcDbEntity
  8
0
  6
Continuous
 62
     7
370
    15
100
AcDbSpline
210
0.0
220
0.0
230
1.0
 70
    24
 71
     3
 72
    10
 73
     6
 74
     0
 42
0.000000001
 43
0.00000001
 40
0.0
 40
0.0
 40
0.0
 40
0.0
 40
0.5
 40
0.5
 40
1.0
 40
1.0
 40
1.0
 40
1.0
 10
21.25186035427001
 20
184.1349478233163
 30
0.0
 10
21.2289188340329
 20
184.1751411555796
 30
0.0
 10
21.20879774381332
 20
184.2103931204162
 30
0.0
 10
21.17952846975676
 20
184.2616726191198
 30
0.0
 10
21.17078187224301
 20
184.2769965774456
 30
0.0
 10
21.17078187224302
 20
184.2769965774456
 30
0.0
  0
ARC
  5
E3
330
1F
100
AcDbEntity
  8
0
  6
Continuous
 62
     7
370
    15
100
AcDbCircle
 10
68.0087456587
 20
170.7578380112
 30
0.0
 40
48.75000000000002
100
AcDbArc
 50
196.1000846724
 51
344.0491974398
  0
ARC
  5
E4
330
1F
100
AcDbEntity
  8
0
  6
Continuous
 62
     7
370
    15
100
AcDbCircle
 10
68.0087456587
 20
170.7578380112
 30
0.0
 40
48.74999999999999
100
AcDbArc
 50
142.0201275551
 51
163.8999153276
  0
ARC
  5
E5
330
1F
100
AcDbEntity
  8
0
  6
Continuous
 62
     7
370
    15
100
AcDbCircle
 10
68.0087456587
 20
170.7578380112
 30
0.0
 40
48.75000000000001
100
AcDbArc
 50
15.9508025602
 51
127.9798724449
  0
ARC
  5
E6
330
1F
100
AcDbEntity
  8
0
  6
Continuous
 62
     7
370
    15
100
AcDbCircle
 10
68.0087456587
 20
170.7578380112
 30
0.0
 40
48.75000000000001
100
AcDbArc
 50
180.0
 51
196.0177586807
  0
ARC
  5
E7
330
1F
100
AcDbEntity
  8
0
  6
Continuous
 62
     7
370
    15
100
AcDbCircle
 10
68.0087456587
 20
170.7578380112
 30
0.0
 40
48.75000000000001
100
AcDbArc
 50
163.8999153276
 51
180.0
  0
INSERT
  5
F3
330
1F
100
AcDbEntity
  8
DIM
100
AcDbBlockReference
  2
SW_CENTERMARKSYMBOL_0
 10
68.0087456587
 20
170.7578380112
 30
0.0
  0
LINE
  5
F4
330
1F
100
AcDbEntity
  8
0
  6
Continuous
 62
     7
370
    15
100
AcDbLine
 10
269.7559677127
 20
122.0078380112
 30
0.0
 11
273.3426870235
 21
122.0078380112
 31
0.0
  0
LINE
  5
F5
330
1F
100
AcDbEntity
  8
0
  6
Continuous
 62
     7
370
    15
100
AcDbLine
 10
273.3426870235
 20
219.5078380112
 30
0.0
 11
269.7559677127
 21
219.5078380112
 31
0.0
  0
LINE
  5
F6
330
1F
100
AcDbEntity
  8
0
  6
Continuous
 62
     7
370
    15
100
AcDbLine
 10
269.7559677127
 20
219.5078380112
 30
0.0
 11
268.4083724485
 21
217.1737345456
 31
0.0
  0
LINE
  5
F7
330
1F
100
AcDbEntity
  8
0
  6
Continuous
 62
     7
370
    15
100
AcDbLine
 10
268.4083724485
 20
124.3419414768
 30
0.0
 11
269.7559677127
 21
122.0078380112
 31
0.0
  0
LINE
  5
F8
330
1F
100
AcDbEntity
  8
0
  6
Continuous
 62
     7
370
    15
100
AcDbLine
 10
263.2607771843
 20
122.0078380112
 30
0.0
 11
264.6083724485
 21
124.3419414768
 31
0.0
  0
LINE
  5
F9
330
1F
100
AcDbEntity
  8
0
  6
Continuous
 62
     7
370
    15
100
AcDbLine
 10
264.6083724485
 20
217.1737345456
 30
0.0
 11
263.2607771843
 21
219.5078380112
 31
0.0
  0
LINE
  5
FA
330
1F
100
AcDbEntity
  8
0
  6
Continuous
 62
     7
370
    15
100
AcDbLine
 10
259.7740578734
 20
122.0078380112
 30
0.0
 11
263.2607771843
 21
122.0078380112
 31
0.0
  0
LINE
  5
FB
330
1F
100
AcDbEntity
  8
0
  6
Continuous
 62
     7
370
    15
100
AcDbLine
 10
263.2607771843
 20
219.5078380112
 30
0.0
 11
259.7740578734
 21
219.5078380112
 31
0.0
  0
LINE
  5
FC
330
1F
100
AcDbEntity
  8
0
  6
Continuous
 62
     7
370
    15
100
AcDbLine
 10
273.625529736
 20
122.1249952987
 30
0.0
 11
274.391215161
 21
122.8906807237
 31
0.0
  0
LINE
  5
FD
330
1F
100
AcDbEntity
  8
0
  6
Continuous
 62
     7
370
    15
100
AcDbLine
 10
274.391215161
 20
218.6249952987
 30
0.0
 11
273.625529736
 21
219.3906807237
 31
0.0
  0
LINE
  5
FE
330
1F
100
AcDbEntity
  8
0
  6
Continuous
 62
     7
370
    15
100
AcDbLine
 10
259.491215161
 20
219.3906807237
 30
0.0
 11
258.725529736
 21
218.6249952987
 31
0.0
  0
LINE
  5
FF
330
1F
100
AcDbEntity
  8
0
  6
Continuous
 62
     7
370
    15
100
AcDbLine
 10
258.725529736
 20
122.8906807237
 30
0.0
 11
259.491215161
 21
122.1249952987
 31
0.0
  0
ARC
  5
100
330
1F
100
AcDbEntity
  8
0
  6
Continuous
 62
     7
370
    15
100
AcDbCircle
 10
273.3426870235
 20
122.4078380112
 30
0.0
 40
0.4000000000000093
100
AcDbArc
 50
270.0
 51
315.0
  0
ARC
  5
101
330
1F
100
AcDbEntity
  8
0
  6
Continuous
 62
     7
370
    15
100
AcDbCircle
 10
259.7740578734
 20
122.4078380112
 30
0.0
 40
0.4000000000000057
100
AcDbArc
 50
225.0
 51
270.0
  0
ARC
  5
102
330
1F
100
AcDbEntity
  8
0
  6
Continuous
 62
     7
370
    15
100
AcDbCircle
 10
273.3426870235
 20
219.1078380112
 30
0.0
 40
0.4000000000000057
100
AcDbArc
 50
45.0
 51
90.0
  0
ARC
  5
103
330
1F
100
AcDbEntity
  8
0
  6
Continuous
 62
     7
370
    15
100
AcDbCircle
 10
259.7740578734
 20
219.1078380112
 30
0.0
 40
0.4000000000000057
100
AcDbArc
 50
90.0
 51
135.0
  0
ARC
  5
104
330
1F
100
AcDbEntity
  8
0
  6
Continuous
 62
     7
370
    15
100
AcDbCircle
 10
274.1083724485
 20
123.1735234362
 30
0.0
 40
0.4000000000000341
100
AcDbArc
 50
315.0
 51
0.0
  0
ARC
  5
105
330
1F
100
AcDbEntity
  8
0
  6
Continuous
 62
     7
370
    15
100
AcDbCircle
 10
274.1083724485
 20
218.3421525863
 30
0.0
 40
0.4000000000000341
100
AcDbArc
 50
0.0
 51
45.0
  0
ARC
  5
106
330
1F
100
AcDbEntity
  8
0
  6
Continuous
 62
     7
370
    15
100
AcDbCircle
 10
259.0083724485
 20
123.1735234362
 30
0.0
 40
0.4000000000000341
100
AcDbArc
 50
180.0
 51
225.0
  0
ARC
  5
107
330
1F
100
AcDbEntity
  8
0
  6
Continuous
 62
     7
370
    15
100
AcDbCircle
 10
259.0083724485
 20
218.3421525863
 30
0.0
 40
0.4000000000000341
100
AcDbArc
 50
135.0
 51
180.0
  0
LINE
  5
108
330
1F
100
AcDbEntity
  8
0
  6
Continuous
 62
     7
370
    15
100
AcDbLine
 10
264.6083724485
 20
125.2578380112
 30
0.0
 11
268.4083724485
 21
125.2578380112
 31
0.0
  0
LINE
  5
109
330
1F
100
AcDbEntity
  8
0
  6
Continuous
 62
     7
370
    15
100
AcDbLine
 10
268.4083724485
 20
216.2578380112
 30
0.0
 11
264.6083724485
 21
216.2578380112
 31
0.0
  0
ARC
  5
10A
330
1F
100
AcDbEntity
  8
0
  6
Continuous
 62
     7
370
    15
100
AcDbCircle
 10
258.1083724485
 20
135.7578380112
 30
0.0
 40
0.5
100
AcDbArc
 50
0.0
 51
90.0
  0
ARC
  5
10B
330
1F
100
AcDbEntity
  8
0
  6
Continuous
 62
     7
370
    15
100
AcDbCircle
 10
258.1083724485
 20
205.7578380112
 30
0.0
 40
0.5
100
AcDbArc
 50
270.0
 51
0.0
  0
LINE
  5
10C
330
1F
100
AcDbEntity
  8
0
  6
Continuous
 62
     7
370
    15
100
AcDbLine
 10
255.4083724485
 20
205.6828380112
 30
0.0
 11
154.5140642212
 21
190.9689457982
 31
0.0
  0
LINE
  5
10D
330
1F
100
AcDbEntity
  8
0
  6
Continuous
 62
     7
370
    15
100
AcDbLine
 10
154.5140642212
 20
150.5467302242
 30
0.0
 11
255.4083724485
 21
135.8328380112
 31
0.0
  0
LINE
  5
10E
330
1F
100
AcDbEntity
  8
0
  6
Continuous
 62
     7
370
    15
100
AcDbLine
 10
255.4083724485
 20
135.8328380112
 30
0.0
 11
256.3197878897
 21
136.2578380112
 31
0.0
  0
LINE
  5
10F
330
1F
100
AcDbEntity
  8
0
  6
Continuous
 62
     7
370
    15
100
AcDbLine
 10
256.3197878897
 20
205.2578380112
 30
0.0
 11
255.4083724485
 21
205.6828380112
 31
0.0
  0
LINE
  5
110
330
1F
100
AcDbEntity
  8
0
  6
Continuous
 62
     7
370
    15
100
AcDbLine
 10
256.3197878897
 20
136.2578380112
 30
0.0
 11
258.1083724485
 21
136.2578380112
 31
0.0
  0
LINE
  5
111
330
1F
100
AcDbEntity
  8
0
  6
Continuous
 62
     7
370
    15
100
AcDbLine
 10
258.1083724485
 20
205.2578380112
 30
0.0
 11
256.3197878897
 21
205.2578380112
 31
0.0
  0
ARC
  5
112
330
1F
100
AcDbEntity
  8
0
  6
Continuous
 62
     7
370
    15
100
AcDbCircle
 10
277.5083724485
 20
197.7578380112
 30
0.0
 40
3.0
100
AcDbArc
 50
180.0
 51
270.0
  0
ARC
  5
113
330
1F
100
AcDbEntity
  8
0
  6
Continuous
 62
     7
370
    15
100
AcDbCircle
 10
277.5083724485
 20
143.7578380112
 30
0.0
 40
3.0
100
AcDbArc
 50
90.0
 51
180.0
  0
LINE
  5
114
330
1F
100
AcDbEntity
  8
0
  6
Continuous
 62
     7
370
    15
100
AcDbLine
 10
354.4083724485
 20
146.7578380112
 30
0.0
 11
355.4083724485
 21
147.7578380112
 31
0.0
  0
LINE
  5
115
330
1F
100
AcDbEntity
  8
0
  6
Continuous
 62
     7
370
    15
100
AcDbLine
 10
355.4083724485
 20
193.7578380112
 30
0.0
 11
354.4083724485
 21
194.7578380112
 31
0.0
  0
LINE
  5
116
330
1F
100
AcDbEntity
  8
0
  6
Continuous
 62
     7
370
    15
100
AcDbLine
 10
277.5083724485
 20
146.7578380112
 30
0.0
 11
354.4083724485
 21
146.7578380112
 31
0.0
  0
LINE
  5
117
330
1F
100
AcDbEntity
  8
0
  6
Continuous
 62
     7
370
    15
100
AcDbLine
 10
354.4083724485
 20
194.7578380112
 30
0.0
 11
277.5083724485
 21
194.7578380112
 31
0.0
  0
ARC
  5
118
330
1F
100
AcDbEntity
  8
0
  6
Continuous
 62
     7
370
    15
100
AcDbCircle
 10
154.6583724485
 20
151.5362630107
 30
0.0
 40
1.000000000000046
100
AcDbArc
 50
180.0
 51
261.7027777778
  0
ARC
  5
119
330
1F
100
AcDbEntity
  8
0
  6
Continuous
 62
     7
370
    15
100
AcDbCircle
 10
154.6583724485
 20
189.9794130118
 30
0.0
 40
1.000000000000028
100
AcDbArc
 50
98.2972222222
 51
180.0
  0
LINE
  5
11A
330
1F
100
AcDbEntity
  8
0
  6
Continuous
 62
     7
370
    15
100
AcDbLine
 10
384.4083724485
 20
156.7578380112
 30
0.0
 11
385.4083724485
 21
157.7578380112
 31
0.0
  0
LINE
  5
11B
330
1F
100
AcDbEntity
  8
0
  6
Continuous
 62
     7
370
    15
100
AcDbLine
 10
385.4083724485
 20
183.7578380112
 30
0.0
 11
384.4083724485
 21
184.7578380112
 31
0.0
  0
LINE
  5
11C
330
1F
100
AcDbEntity
  8
0
  6
Continuous
 62
     7
370
    15
100
AcDbLine
 10
378.4083724485
 20
156.7578380112
 30
0.0
 11
384.4083724485
 21
156.7578380112
 31
0.0
  0
LINE
  5
11D
330
1F
100
AcDbEntity
  8
0
  6
Continuous
 62
     7
370
    15
100
AcDbLine
 10
384.4083724485
 20
184.7578380112
 30
0.0
 11
378.4083724485
 21
184.7578380112
 31
0.0
  0
LINE
  5
11E
330
1F
100
AcDbEntity
  8
0
  6
Continuous
 62
     7
370
    15
100
AcDbLine
 10
378.4083724485
 20
184.7578380112
 30
0.0
 11
377.4083724485
 21
183.7578380112
 31
0.0
  0
LINE
  5
11F
330
1F
100
AcDbEntity
  8
0
  6
Continuous
 62
     7
370
    15
100
AcDbLine
 10
377.4083724485
 20
157.7578380112
 30
0.0
 11
378.4083724485
 21
156.7578380112
 31
0.0
  0
LINE
  5
120
330
1F
100
AcDbEntity
  8
0
  6
Continuous
 62
     7
370
    15
100
AcDbLine
 10
373.9176247197
 20
159.7578380112
 30
0.0
 11
374.4083724485
 21
160.6078380112
 31
0.0
  0
LINE
  5
121
330
1F
100
AcDbEntity
  8
0
  6
Continuous
 62
     7
370
    15
100
AcDbLine
 10
374.4083724485
 20
180.9078380112
 30
0.0
 11
373.9176247197
 21
181.7578380112
 31
0.0
  0
LINE
  5
122
330
1F
100
AcDbEntity
  8
0
  6
Continuous
 62
     7
370
    15
100
AcDbLine
 10
355.4083724485
 20
159.7578380112
 30
0.0
 11
373.9176247197
 21
159.7578380112
 31
0.0
  0
LINE
  5
123
330
1F
100
AcDbEntity
  8
0
  6
Continuous
 62
     7
370
    15
100
AcDbLine
 10
373.9176247197
 20
181.7578380112
 30
0.0
 11
355.4083724485
 21
181.7578380112
 31
0.0
  0
ARC
  5
124
330
1F
100
AcDbEntity
  8
0
  6
Continuous
 62
     7
370
    15
100
AcDbCircle
 10
376.9083724485
 20
165.2578380112
 30
0.0
 40
0.5000000000000568
100
AcDbArc
 50
0.0
 51
90.0
  0
ARC
  5
125
330
1F
100
AcDbEntity
  8
0
  6
Continuous
 62
     7
370
    15
100
AcDbCircle
 10
376.9083724485
 20
176.2578380112
 30
0.0
 40
0.5000000000000568
100
AcDbArc
 50
270.0
 51
0.0
  0
LINE
  5
126
330
1F
100
AcDbEntity
  8
0
  6
Continuous
 62
     7
370
    15
100
AcDbLine
 10
374.4083724485
 20
165.7578380112
 30
0.0
 11
376.9083724485
 21
165.7578380112
 31
0.0
  0
LINE
  5
127
330
1F
100
AcDbEntity
  8
0
  6
Continuous
 62
     7
370
    15
100
AcDbLine
 10
376.9083724485
 20
175.7578380112
 30
0.0
 11
374.4083724485
 21
175.7578380112
 31
0.0
  0
LINE
  5
128
330
1F
100
AcDbEntity
  8
0
  6
Continuous
 62
     7
370
    15
100
AcDbLine
 10
273.3426870235
 20
157.3607598398
 30
0.0
 11
273.3426870235
 21
184.1549161826
 31
0.0
  0
LINE
  5
129
330
1F
100
AcDbEntity
  8
0
  6
Continuous
 62
     7
370
    15
100
AcDbLine
 10
269.7559677127
 20
122.0078380112
 30
0.0
 11
269.7559677127
 21
219.5078380112
 31
0.0
  0
SPLINE
  5
12A
330
1F
100
AcDbEntity
  8
0
  6
Continuous
 62
     7
370
    15
100
AcDbSpline
210
0.0
220
0.0
230
1.0
 70
     8
 71
     3
 72
     8
 73
     4
 74
     0
 42
0.000000001
 43
0.00000001
 40
0.0
 40
0.0
 40
0.0
 40
0.0
 40
1.0
 40
1.0
 40
1.0
 40
1.0
 10
273.3426870235302
 20
184.1549161826209
 30
0.0
 10
273.4512040149813
 20
184.1549161826209
 30
0.0
 10
273.5542448668436
 20
184.1178195895547
 30
0.0
 10
273.6255297360049
 20
184.0601172514577
 30
0.0
  0
LINE
  5
12B
330
1F
100
AcDbEntity
  8
0
  6
Continuous
 62
     7
370
    15
100
AcDbLine
 10
273.625529736
 20
157.455558771
 30
0.0
 11
273.625529736
 21
184.0601172515
 31
0.0
  0
SPLINE
  5
12C
330
1F
100
AcDbEntity
  8
0
  6
Continuous
 62
     7
370
    15
100
AcDbSpline
210
0.0
220
0.0
230
1.0
 70
     8
 71
     3
 72
     8
 73
     4
 74
     0
 42
0.000000001
 43
0.00000001
 40
0.0
 40
0.0
 40
0.0
 40
0.0
 40
1.0
 40
1.0
 40
1.0
 40
1.0
 10
273.6255297360049
 20
157.4555587709587
 30
0.0
 10
273.5542139238229
 20
157.3978313856861
 30
0.0
 10
273.4513127661861
 20
157.3607598397955
 30
0.0
 10
273.3426870235302
 20
157.3607598397955
 30
0.0
  0
LINE
  5
12D
330
1F
100
AcDbEntity
  8
0
  6
Continuous
 62
     7
370
    15
100
AcDbLine
 10
268.4083724485
 20
217.1737345456
 30
0.0
 11
268.4083724485
 21
124.3419414768
 31
0.0
  0
LINE
  5
12E
330
1F
100
AcDbEntity
  8
0
  6
Continuous
 62
     7
370
    15
100
AcDbLine
 10
264.6083724485
 20
170.7578380112
 30
0.0
 11
264.6083724485
 21
217.1737345456
 31
0.0
  0
LINE
  5
12F
330
1F
100
AcDbEntity
  8
0
  6
Continuous
 62
     7
370
    15
100
AcDbLine
 10
264.6083724485
 20
124.3419414768
 30
0.0
 11
264.6083724485
 21
170.7578380112
 31
0.0
  0
LINE
  5
130
330
1F
100
AcDbEntity
  8
0
  6
Continuous
 62
     7
370
    15
100
AcDbLine
 10
263.2607771843
 20
170.7578380112
 30
0.0
 11
263.2607771843
 21
219.5078380112
 31
0.0
  0
LINE
  5
131
330
1F
100
AcDbEntity
  8
0
  6
Continuous
 62
     7
370
    15
100
AcDbLine
 10
263.2607771843
 20
122.0078380112
 30
0.0
 11
263.2607771843
 21
170.7578380112
 31
0.0
  0
LINE
  5
132
330
1F
100
AcDbEntity
  8
0
  6
Continuous
 62
     7
370
    15
100
AcDbLine
 10
259.7740578734
 20
157.3607598398
 30
0.0
 11
259.7740578734
 21
184.1549161826
 31
0.0
  0
SPLINE
  5
133
330
1F
100
AcDbEntity
  8
0
  6
Continuous
 62
     7
370
    15
100
AcDbSpline
210
0.0
220
0.0
230
1.0
 70
     8
 71
     3
 72
     8
 73
     4
 74
     0
 42
0.000000001
 43
0.00000001
 40
0.0
 40
0.0
 40
0.0
 40
0.0
 40
1.0
 40
1.0
 40
1.0
 40
1.0
 10
259.7740578734287
 20
184.1549161826209
 30
0.0
 10
259.6655408819777
 20
184.1549161826209
 30
0.0
 10
259.5625000301154
 20
184.1178195895547
 30
0.0
 10
259.4912151609541
 20
184.0601172514577
 30
0.0
  0
SPLINE
  5
134
330
1F
100
AcDbEntity
  8
0
  6
Continuous
 62
     7
370
    15
100
AcDbSpline
210
0.0
220
0.0
230
1.0
 70
     8
 71
     3
 72
     8
 73
     4
 74
     0
 42
0.000000001
 43
0.00000001
 40
0.0
 40
0.0
 40
0.0
 40
0.0
 40
1.0
 40
1.0
 40
1.0
 40
1.0
 10
259.7740578734287
 20
157.3607598397955
 30
0.0
 10
259.6655408819777
 20
157.3607598397955
 30
0.0
 10
259.5625000301154
 20
157.3978564328617
 30
0.0
 10
259.4912151609541
 20
157.4555587709587
 30
0.0
  0
LINE
  5
135
330
1F
100
AcDbEntity
  8
0
  6
Continuous
 62
     7
370
    15
100
AcDbLine
 10
259.491215161
 20
157.455558771
 30
0.0
 11
259.491215161
 21
184.0601172515
 31
0.0
  0
LINE
  5
136
330
1F
100
AcDbEntity
  8
0
  6
Continuous
 62
     7
370
    15
100
AcDbLine
 10
274.391215161
 20
157.9078380112
 30
0.0
 11
274.391215161
 21
183.6078380112
 31
0.0
  0
LINE
  5
137
330
1F
100
AcDbEntity
  8
0
  6
Continuous
 62
     7
370
    15
100
AcDbLine
 10
258.725529736
 20
157.3249952987
 30
0.0
 11
258.725529736
 21
184.1906807237
 31
0.0
  0
SPLINE
  5
138
330
1F
100
AcDbEntity
  8
0
  6
Continuous
 62
     7
370
    15
100
AcDbSpline
210
0.0
220
0.0
230
1.0
 70
    24
 71
     3
 72
     8
 73
     4
 74
     0
 42
0.000000001
 43
0.00000001
 40
0.0
 40
0.0
 40
0.0
 40
0.0
 40
1.0
 40
1.0
 40
1.0
 40
1.0
 10
274.5083724484795
 20
183.6078380112082
 30
0.0
 10
274.5083724484795
 20
183.6078380112082
 30
0.0
 10
274.466828714527
 20
183.6078380112082
 30
0.0
 10
274.3912151609541
 20
183.6078380112082
 30
0.0
  0
LINE
  5
139
330
1F
100
AcDbEntity
  8
0
  6
Continuous
 62
     7
370
    15
100
AcDbLine
 10
274.5083724485
 20
157.9078380112
 30
0.0
 11
274.5083724485
 21
183.6078380112
 31
0.0
  0
SPLINE
  5
13A
330
1F
100
AcDbEntity
  8
0
  6
Continuous
 62
     7
370
    15
100
AcDbSpline
210
0.0
220
0.0
230
1.0
 70
    24
 71
     3
 72
     8
 73
     4
 74
     0
 42
0.000000001
 43
0.00000001
 40
0.0
 40
0.0
 40
0.0
 40
0.0
 40
1.0
 40
1.0
 40
1.0
 40
1.0
 10
274.3912151609541
 20
157.9078380112082
 30
0.0
 10
274.4668031917087
 20
157.9078380112082
 30
0.0
 10
274.5083724484795
 20
157.9078380112082
 30
0.0
 10
274.5083724484795
 20
157.9078380112082
 30
0.0
  0
SPLINE
  5
13B
330
1F
100
AcDbEntity
  8
0
  6
Continuous
 62
     7
370
    15
100
AcDbSpline
210
0.0
220
0.0
230
1.0
 70
    24
 71
     3
 72
    10
 73
     6
 74
     0
 42
0.000000001
 43
0.00000001
 40
0.0
 40
0.0
 40
0.0
 40
0.0
 40
0.5
 40
0.5
 40
1.0
 40
1.0
 40
1.0
 40
1.0
 10
258.6083724484795
 20
184.3078380112082
 30
0.0
 10
258.6083724484795
 20
184.3078380112082
 30
0.0
 10
258.6222183245043
 20
184.2939921351834
 30
0.0
 10
258.6643841006917
 20
184.251826358996
 30
0.0
 10
258.6928748009548
 20
184.223335658733
 30
0.0
 10
258.7255297360049
 20
184.1906807236829
 30
0.0
  0
SPLINE
  5
13C
330
1F
100
AcDbEntity
  8
0
  6
Continuous
 62
     7
370
    15
100
AcDbSpline
210
0.0
220
0.0
230
1.0
 70
    24
 71
     3
 72
    10
 73
     6
 74
     0
 42
0.000000001
 43
0.00000001
 40
0.0
 40
0.0
 40
0.0
 40
0.0
 40
0.5
 40
0.5
 40
1.0
 40
1.0
 40
1.0
 40
1.0
 10
258.7255297360049
 20
157.3249952987336
 30
0.0
 10
258.6928966749875
 20
157.2923622377163
 30
0.0
 10
258.6649157887214
 20
157.2643813514501
 30
0.0
 10
258.6222589383464
 20
157.2217245010751
 30
0.0
 10
258.6083724484795
 20
157.2078380112083
 30
0.0
 10
258.6083724484795
 20
157.2078380112083
 30
0.0
  0
LINE
  5
13D
330
1F
100
AcDbEntity
  8
0
  6
Continuous
 62
     7
370
    15
100
AcDbLine
 10
258.6083724485
 20
157.2078380112
 30
0.0
 11
258.6083724485
 21
184.3078380112
 31
0.0
  0
SPLINE
  5
13E
330
1F
100
AcDbEntity
  8
0
  6
Continuous
 62
     7
370
    15
100
AcDbSpline
210
0.0
220
0.0
230
1.0
 70
    24
 71
     3
 72
    36
 73
    32
 74
     0
 42
0.000000001
 43
0.00000001
 40
0.0
 40
0.0
 40
0.0
 40
0.0
 40
0.010855060115309
 40
0.021700603247601
 40
0.0325387683476148
 40
0.0433716987364442
 40
0.0542015408431699
 40
0.0650304429332853
 40
0.0758605538316704
 40
0.0866940216439018
 40
0.0975329924797007
 40
0.1083796091823073
 40
0.1192360100675244
 40
0.181247834122235
 40
0.2432679244012066
 40
0.3069990489490812
 40
0.370738668921532
 40
0.4353656024873025
 40
0.5000011508910791
 40
0.5646280845655833
 40
0.6292636330748704
 40
0.6929947579300935
 40
0.7567343782029041
 40
0.8187462027125846
 40
0.8807662934441524
 40
0.9006583299602414
 40
0.9205248324912559
 40
0.9403790153804057
 40
0.9602341175685198
 40
0.9801033761588329
 40
1.0
 40
1.0
 40
1.0
 40
1.0
 10
274.5083724484795
 20
157.9078380112082
 30
0.0
 10
274.5083724484795
 20
157.693051136846
 30
0.0
 10
274.5083724484795
 20
157.2636656987354
 30
0.0
 10
274.5083724484795
 20
156.6231691886349
 30
0.0
 10
274.5083724484795
 20
155.9857189772062
 30
0.0
 10
274.5083724484795
 20
155.3515453227338
 30
0.0
 10
274.5083724484795
 20
154.7205866907456
 30
0.0
 10
274.5083724484795
 20
154.0928596221613
 30
0.0
 10
274.5083724484795
 20
153.4683599030826
 30
0.0
 10
274.5083724484795
 20
152.8470882975575
 30
0.0
 10
274.5083724484795
 20
152.2290463982527
 30
0.0
 10
274.5083724484795
 20
151.6142274861111
 30
0.0
 10
274.5083724484795
 20
150.0423698294524
 30
0.0
 10
274.5083724484795
 20
147.5627205354203
 30
0.0
 10
274.5083724484795
 20
144.2640474769472
 30
0.0
 10
274.5083724484795
 20
141.1106705517662
 30
0.0
 10
274.5083724484795
 20
138.1185978431997
 30
0.0
 10
274.5083724484795
 20
135.3378516345842
 30
0.0
 10
274.5083724484795
 20
132.794552327508
 30
0.0
 10
274.5083724484795
 20
130.5165408424397
 30
0.0
 10
274.5083724484795
 20
128.5321083467209
 30
0.0
 10
274.5083724484795
 20
126.8473551096509
 30
0.0
 10
274.5083724484795
 20
125.4844946161001
 30
0.0
 10
274.5083724484795
 20
124.4323162954444
 30
0.0
 10
274.5083724484795
 20
123.8588148433898
 30
0.0
 10
274.5083724484795
 20
123.562787442706
 30
0.0
 10
274.5083724484795
 20
123.4207723572601
 30
0.0
 10
274.5083724484795
 20
123.3101701646984
 30
0.0
 10
274.5083724484795
 20
123.2317406354844
 30
0.0
 10
274.5083724484795
 20
123.1826245236797
 30
0.0
 10
274.5083724484795
 20
123.1765585234558
 30
0.0
 10
274.5083724484795
 20
123.1735234361575
 30
0.0
  0
SPLINE
  5
13F
330
1F
100
AcDbEntity
  8
0
  6
Continuous
 62
     7
370
    15
100
AcDbSpline
210
0.0
220
0.0
230
1.0
 70
    24
 71
     3
 72
    23
 73
    19
 74
     0
 42
0.000000001
 43
0.00000001
 40
0.0
 40
0.0
 40
0.0
 40
0.0
 40
0.049344142439785
 40
0.1126391337887782
 40
0.1752432992499413
 40
0.2371050695636289
 40
0.2989591199343767
 40
0.3615634382303971
 40
0.4248659973704123
 40
0.4891594850324235
 40
0.5537405807095876
 40
0.6185525319731143
 40
0.6833570688697037
 40
0.7479382231567704
 40
0.812239066728002
 40
0.8755340580753496
 40
0.9381401318495213
 40
1.0
 40
1.0
 40
1.0
 40
1.0
 10
274.5083724484795
 20
218.3126644871751
 30
0.0
 10
274.5083724484795
 20
218.3057174059459
 30
0.0
 10
274.5083724484795
 20
218.2898591262529
 30
0.0
 10
274.5083724484795
 20
217.8831077133383
 30
0.0
 10
274.5083724484795
 20
217.1732924994452
 30
0.0
 10
274.5083724484795
 20
216.1568855739455
 30
0.0
 10
274.5083724484795
 20
214.8500160888253
 30
0.0
 10
274.5083724484795
 20
213.2433040798614
 30
0.0
 10
274.5083724484795
 20
211.3304589471522
 30
0.0
 10
274.5083724484795
 20
209.1188930354948
 30
0.0
 10
274.5083724484795
 20
206.6213867962145
 30
0.0
 10
274.5083724484795
 20
203.8644636443877
 30
0.0
 10
274.5083724484795
 20
200.8741463830475
 30
0.0
 10
274.5083724484795
 20
197.6799190806919
 30
0.0
 10
274.5083724484795
 20
194.3240394457285
 30
0.0
 10
274.5083724484795
 20
190.8409550874564
 30
0.0
 10
274.5083724484795
 20
187.2755445885882
 30
0.0
 10
274.5083724484795
 20
184.8255106739482
 30
0.0
 10
274.5083724484795
 20
183.6078380112082
 30
0.0
  0
SPLINE
  5
140
330
1F
100
AcDbEntity
  8
0
  6
Continuous
 62
     7
370
    15
100
AcDbSpline
210
0.0
220
0.0
230
1.0
 70
    24
 71
     3
 72
    36
 73
    32
 74
     0
 42
0.000000001
 43
0.00000001
 40
0.0
 40
0.0
 40
0.0
 40
0.0
 40
0.0108663901693764
 40
0.0217235992689927
 40
0.0325737239461297
 40
0.0434188649567969
 40
0.0542611259538548
 40
0.0651026122666534
 40
0.0759454296758007
 40
0.0867916831866139
 40
0.0976434758048303
 40
0.1085029073181251
 40
0.1193720730869558
 40
0.1813968254495411
 40
0.2434299782169203
 40
0.3071319268850098
 40
0.3708425031356519
 40
0.4354174425596918
 40
0.5000011278075956
 40
0.5645760673346892
 40
0.6291597526862437
 40
0.6928617016453169
 40
0.7565722781921671
 40
0.8185970309917204
 40
0.88063018420144
 40
0.9005456124940234
 40
0.9204355775907559
 40
0.9403130284544624
 40
0.9601909385042273
 40
0.9800822802606719
 40
1.0
 40
1.0
 40
1.0
 40
1.0
 10
258.6083724484795
 20
123.1735234361574
 30
0.0
 10
258.6083724484795
 20
123.1744044830393
 30
0.0
 10
258.6083724484795
 20
123.176165832402
 30
0.0
 10
258.6083724484795
 20
123.1904610792487
 30
0.0
 10
258.6083724484795
 20
123.213289975774
 30
0.0
 10
258.6083724484795
 20
123.2454870947093
 30
0.0
 10
258.6083724484795
 20
123.2868290102786
 30
0.0
 10
258.6083724484795
 20
123.3373755682443
 30
0.0
 10
258.6083724484795
 20
123.3971106716752
 30
0.0
 10
258.6083724484795
 20
123.4660388439478
 30
0.0
 10
258.6083724484795
 20
123.5441580258058
 30
0.0
 10
258.6083724484795
 20
123.6314718467982
 30
0.0
 10
258.6083724484795
 20
123.8793085612074
 30
0.0
 10
258.6083724484795
 20
124.4049563762383
 30
0.0
 10
258.6083724484795
 20
125.4333473827617
 30
0.0
 10
258.6083724484795
 20
126.7652971960559
 30
0.0
 10
258.6083724484795
 20
128.4112231107701
 30
0.0
 10
258.6083724484795
 20
130.3502441630461
 30
0.0
 10
258.6083724484795
 20
132.576219145545
 30
0.0
 10
258.6083724484795
 20
135.0625744217023
 30
0.0
 10
258.6083724484795
 20
137.7823422156998
 30
0.0
 10
258.6083724484795
 20
140.7110505536932
 30
0.0
 10
258.6083724484795
 20
143.8003765529181
 30
0.0
 10
258.6083724484795
 20
147.0354776010915
 30
0.0
 10
258.6083724484795
 20
149.6330894708511
 30
0.0
 10
258.6083724484795
 20
151.5159769008467
 30
0.0
 10
258.6083724484795
 20
152.6320318752784
 30
0.0
 10
258.6083724484795
 20
153.7591260102956
 30
0.0
 10
258.6083724484795
 20
154.8974909339564
 30
0.0
 10
258.6083724484795
 20
156.0463224152428
 30
0.0
 10
258.6083724484795
 20
156.8204951537012
 30
0.0
 10
258.6083724484795
 20
157.2078380112082
 30
0.0
  0
SPLINE
  5
141
330
1F
100
AcDbEntity
  8
0
  6
Continuous
 62
     7
370
    15
100
AcDbSpline
210
0.0
220
0.0
230
1.0
 70
    24
 71
     3
 72
    23
 73
    19
 74
     0
 42
0.000000001
 43
0.00000001
 40
0.0
 40
0.0
 40
0.0
 40
0.0
 40
0.0621371780016823
 40
0.1250125041989178
 40
0.18858029616004
 40
0.253127189537456
 40
0.3179582992717379
 40
0.3830175621109775
 40
0.4480693138239227
 40
0.5129004819881641
 40
0.5774548282112543
 40
0.6410149507156808
 40
0.70389205390056
 40
0.7660351298220105
 40
0.8281703793520515
 40
0.8910476401564842
 40
0.9546154321206017
 40
1.0
 40
1.0
 40
1.0
 40
1.0
 10
258.6083724484795
 20
184.3078380112082
 30
0.0
 10
258.6083724484795
 20
185.510793171113
 30
0.0
 10
258.6083724484795
 20
187.9309937952005
 30
0.0
 10
258.6083724484795
 20
191.447838264091
 30
0.0
 10
258.6083724484795
 20
194.8791796271148
 30
0.0
 10
258.6083724484795
 20
198.1809742901895
 30
0.0
 10
258.6083724484795
 20
201.3198747861432
 30
0.0
 10
258.6083724484795
 20
204.2548304331537
 30
0.0
 10
258.6083724484795
 20
206.9574062636028
 30
0.0
 10
258.6083724484795
 20
209.4025676763757
 30
0.0
 10
258.6083724484795
 20
211.5646909737419
 30
0.0
 10
258.6083724484795
 20
213.4316161577993
 30
0.0
 10
258.6083724484795
 20
214.9964707568126
 30
0.0
 10
258.6083724484795
 20
216.265117220604
 30
0.0
 10
258.6083724484795
 20
217.2472065059121
 30
0.0
 10
258.6083724484795
 20
217.9252526040505
 30
0.0
 10
258.6083724484795
 20
218.3013817349511
 30
0.0
 10
258.6083724484795
 20
218.306192017565
 30
0.0
 10
258.6083724484795
 20
218.3081957612023
 30
0.0
  0
LINE
  5
142
330
1F
100
AcDbEntity
  8
0
  6
Continuous
 62
     7
370
    15
100
AcDbLine
 10
255.4083724485
 20
135.8328380112
 30
0.0
 11
255.4083724485
 21
205.6828380112
 31
0.0
  0
LINE
  5
143
330
1F
100
AcDbEntity
  8
0
  6
Continuous
 62
     7
370
    15
100
AcDbLine
 10
256.3197878897
 20
170.7578380112
 30
0.0
 11
256.3197878897
 21
205.2578380112
 31
0.0
  0
LINE
  5
144
330
1F
100
AcDbEntity
  8
0
  6
Continuous
 62
     7
370
    15
100
AcDbLine
 10
256.3197878897
 20
136.2578380112
 30
0.0
 11
256.3197878897
 21
170.7578380112
 31
0.0
  0
LINE
  5
145
330
1F
100
AcDbEntity
  8
0
  6
Continuous
 62
     7
370
    15
100
AcDbLine
 10
355.4083724485
 20
170.7578380112
 30
0.0
 11
355.4083724485
 21
193.7578380112
 31
0.0
  0
LINE
  5
146
330
1F
100
AcDbEntity
  8
0
  6
Continuous
 62
     7
370
    15
100
AcDbLine
 10
355.4083724485
 20
147.7578380112
 30
0.0
 11
355.4083724485
 21
170.7578380112
 31
0.0
  0
LINE
  5
147
330
1F
100
AcDbEntity
  8
0
  6
Continuous
 62
     7
370
    15
100
AcDbLine
 10
354.4083724485
 20
170.7578380112
 30
0.0
 11
354.4083724485
 21
194.7578380112
 31
0.0
  0
LINE
  5
148
330
1F
100
AcDbEntity
  8
0
  6
Continuous
 62
     7
370
    15
100
AcDbLine
 10
354.4083724485
 20
146.7578380112
 30
0.0
 11
354.4083724485
 21
170.7578380112
 31
0.0
  0
SPLINE
  5
149
330
1F
100
AcDbEntity
  8
0
  6
Continuous
 62
     7
370
    15
100
AcDbSpline
210
0.0
220
0.0
230
1.0
 70
    24
 71
     3
 72
    10
 73
     6
 74
     0
 42
0.000000001
 43
0.00000001
 40
0.0
 40
0.0
 40
0.0
 40
0.0
 40
0.4999999999999997
 40
0.4999999999999997
 40
0.9999999999999999
 40
0.9999999999999999
 40
0.9999999999999999
 40
0.9999999999999999
 10
153.6583724484795
 20
189.9794130117536
 30
0.0
 10
153.6583724484795
 20
189.9794130117535
 30
0.0
 10
153.6583724484795
 20
187.9541865856846
 30
0.0
 10
153.6583724484795
 20
180.7449014926745
 30
0.0
 10
153.6583724484795
 20
175.8555723879827
 30
0.0
 10
153.6583724484795
 20
170.7578380112082
 30
0.0
  0
SPLINE
  5
14A
330
1F
100
AcDbEntity
  8
0
  6
Continuous
 62
     7
370
    15
100
AcDbSpline
210
0.0
220
0.0
230
1.0
 70
    24
 71
     3
 72
    10
 73
     6
 74
     0
 42
0.000000001
 43
0.00000001
 40
0.0
 40
0.0
 40
0.0
 40
0.0
 40
0.4999999999999999
 40
0.4999999999999999
 40
0.9999999999999999
 40
0.9999999999999999
 40
0.9999999999999999
 40
0.9999999999999999
 10
153.6583724484795
 20
170.7578380112082
 30
0.0
 10
153.6583724484795
 20
165.6601036344338
 30
0.0
 10
153.6583724484795
 20
160.7707745297415
 30
0.0
 10
153.6583724484795
 20
153.5614894367316
 30
0.0
 10
153.6583724484795
 20
151.5362630106627
 30
0.0
 10
153.6583724484795
 20
151.5362630106629
 30
0.0
  0
LINE
  5
14B
330
1F
100
AcDbEntity
  8
0
  6
Continuous
 62
     7
370
    15
100
AcDbLine
 10
385.4083724485
 20
170.7578380112
 30
0.0
 11
385.4083724485
 21
183.7578380112
 31
0.0
  0
LINE
  5
14C
330
1F
100
AcDbEntity
  8
0
  6
Continuous
 62
     7
370
    15
100
AcDbLine
 10
385.4083724485
 20
157.7578380112
 30
0.0
 11
385.4083724485
 21
170.7578380112
 31
0.0
  0
LINE
  5
14D
330
1F
100
AcDbEntity
  8
0
  6
Continuous
 62
     7
370
    15
100
AcDbLine
 10
384.4083724485
 20
170.7578380112
 30
0.0
 11
384.4083724485
 21
184.7578380112
 31
0.0
  0
LINE
  5
14E
330
1F
100
AcDbEntity
  8
0
  6
Continuous
 62
     7
370
    15
100
AcDbLine
 10
384.4083724485
 20
156.7578380112
 30
0.0
 11
384.4083724485
 21
170.7578380112
 31
0.0
  0
LINE
  5
14F
330
1F
100
AcDbEntity
  8
0
  6
Continuous
 62
     7
370
    15
100
AcDbLine
 10
378.4083724485
 20
156.7578380112
 30
0.0
 11
378.4083724485
 21
184.7578380112
 31
0.0
  0
LINE
  5
150
330
1F
100
AcDbEntity
  8
0
  6
Continuous
 62
     7
370
    15
100
AcDbLine
 10
377.4083724485
 20
157.7578380112
 30
0.0
 11
377.4083724485
 21
183.7578380112
 31
0.0
  0
LINE
  5
151
330
1F
100
AcDbEntity
  8
0
  6
Continuous
 62
     7
370
    15
100
AcDbLine
 10
373.9176247197
 20
170.7578380112
 30
0.0
 11
373.9176247197
 21
181.7578380112
 31
0.0
  0
LINE
  5
152
330
1F
100
AcDbEntity
  8
0
  6
Continuous
 62
     7
370
    15
100
AcDbLine
 10
373.9176247197
 20
159.7578380112
 30
0.0
 11
373.9176247197
 21
170.7578380112
 31
0.0
  0
LINE
  5
153
330
1F
100
AcDbEntity
  8
0
  6
Continuous
 62
     7
370
    15
100
AcDbLine
 10
374.4083724485
 20
170.7578380112
 30
0.0
 11
374.4083724485
 21
180.9078380112
 31
0.0
  0
LINE
  5
154
330
1F
100
AcDbEntity
  8
0
  6
Continuous
 62
     7
370
    15
100
AcDbLine
 10
374.4083724485
 20
160.6078380112
 30
0.0
 11
374.4083724485
 21
170.7578380112
 31
0.0
  0
LINE
  5
155
330
1F
100
AcDbEntity
  8
0
  6
Continuous
 62
     7
370
    15
100
AcDbLine
 10
355.4083724485
 20
158.2578380112
 30
0.0
 11
361.2083724485
 21
158.2578380112
 31
0.0
  0
LINE
  5
156
330
1F
100
AcDbEntity
  8
0
  6
Continuous
 62
     7
370
    15
100
AcDbLine
 10
361.2083724485
 20
158.7578380112
 30
0.0
 11
355.4083724485
 21
158.7578380112
 31
0.0
  0
LINE
  5
157
330
1F
100
AcDbEntity
  8
0
  6
Continuous
 62
     7
370
    15
100
AcDbLine
 10
361.2083724485
 20
158.7578380112
 30
0.0
 11
361.2083724485
 21
158.2578380112
 31
0.0
  0
LINE
  5
158
330
1F
100
AcDbEntity
  8
0
  6
Continuous
 62
     7
370
    15
100
AcDbLine
 10
361.2083724485
 20
149.2578380112
 30
0.0
 11
355.4083724485
 21
149.2578380112
 31
0.0
  0
LINE
  5
159
330
1F
100
AcDbEntity
  8
0
  6
Continuous
 62
     7
370
    15
100
AcDbLine
 10
361.2083724485
 20
158.2578380112
 30
0.0
 11
361.2083724485
 21
149.2578380112
 31
0.0
  0
LINE
  5
15A
330
1F
100
AcDbEntity
  8
0
  6
Continuous
 62
     7
370
    15
100
AcDbLine
 10
355.4083724485
 20
148.7578380112
 30
0.0
 11
361.2083724485
 21
148.7578380112
 31
0.0
  0
LINE
  5
15B
330
1F
100
AcDbEntity
  8
0
  6
Continuous
 62
     7
370
    15
100
AcDbLine
 10
361.2083724485
 20
149.2578380112
 30
0.0
 11
361.2083724485
 21
148.7578380112
 31
0.0
  0
LINE
  5
15C
330
1F
100
AcDbEntity
  8
0
  6
Continuous
 62
     7
370
    15
100
AcDbLine
 10
361.2083724485
 20
192.7578380112
 30
0.0
 11
361.2083724485
 21
192.2578380112
 31
0.0
  0
LINE
  5
15D
330
1F
100
AcDbEntity
  8
0
  6
Continuous
 62
     7
370
    15
100
AcDbLine
 10
355.4083724485
 20
192.2578380112
 30
0.0
 11
361.2083724485
 21
192.2578380112
 31
0.0
  0
LINE
  5
15E
330
1F
100
AcDbEntity
  8
0
  6
Continuous
 62
     7
370
    15
100
AcDbLine
 10
361.2083724485
 20
192.7578380112
 30
0.0
 11
355.4083724485
 21
192.7578380112
 31
0.0
  0
LINE
  5
15F
330
1F
100
AcDbEntity
  8
0
  6
Continuous
 62
     7
370
    15
100
AcDbLine
 10
361.2083724485
 20
192.2578380112
 30
0.0
 11
361.2083724485
 21
183.2578380112
 31
0.0
  0
LINE
  5
160
330
1F
100
AcDbEntity
  8
0
  6
Continuous
 62
     7
370
    15
100
AcDbLine
 10
361.2083724485
 20
183.2578380112
 30
0.0
 11
355.4083724485
 21
183.2578380112
 31
0.0
  0
LINE
  5
161
330
1F
100
AcDbEntity
  8
0
  6
Continuous
 62
     7
370
    15
100
AcDbLine
 10
355.4083724485
 20
182.7578380112
 30
0.0
 11
361.2083724485
 21
182.7578380112
 31
0.0
  0
LINE
  5
162
330
1F
100
AcDbEntity
  8
0
  6
Continuous
 62
     7
370
    15
100
AcDbLine
 10
361.2083724485
 20
183.2578380112
 30
0.0
 11
361.2083724485
 21
182.7578380112
 31
0.0
  0
LINE
  5
163
330
1F
100
AcDbEntity
  8
0
  6
Continuous
 62
     8
370
    15
100
AcDbLine
 10
273.3426870235
 20
184.1549161826
 30
0.0
 11
273.3426870235
 21
219.5078380112
 31
0.0
  0
LINE
  5
164
330
1F
100
AcDbEntity
  8
0
  6
Continuous
 62
     8
370
    15
100
AcDbLine
 10
273.3426870235
 20
122.0078380112
 30
0.0
 11
273.3426870235
 21
157.3607598398
 31
0.0
  0
LINE
  5
165
330
1F
100
AcDbEntity
  8
0
  6
Continuous
 62
     8
370
    15
100
AcDbLine
 10
259.7740578734
 20
122.0078380112
 30
0.0
 11
259.7740578734
 21
157.3607598398
 31
0.0
  0
LINE
  5
166
330
1F
100
AcDbEntity
  8
0
  6
Continuous
 62
     8
370
    15
100
AcDbLine
 10
259.7740578734
 20
219.5078380112
 30
0.0
 11
259.7740578734
 21
184.1549161826
 31
0.0
  0
LINE
  5
167
330
1F
100
AcDbEntity
  8
0
  6
Continuous
 62
     8
370
    15
100
AcDbLine
 10
274.391215161
 20
218.6249952987
 30
0.0
 11
274.391215161
 21
183.6078380112
 31
0.0
  0
LINE
  5
168
330
1F
100
AcDbEntity
  8
0
  6
Continuous
 62
     8
370
    15
100
AcDbLine
 10
274.391215161
 20
157.9078380112
 30
0.0
 11
274.391215161
 21
122.8906807237
 31
0.0
  0
LINE
  5
169
330
1F
100
AcDbEntity
  8
0
  6
Continuous
 62
     8
370
    15
100
AcDbLine
 10
273.625529736
 20
184.0601172515
 30
0.0
 11
273.625529736
 21
219.3906807237
 31
0.0
  0
LINE
  5
16A
330
1F
100
AcDbEntity
  8
0
  6
Continuous
 62
     8
370
    15
100
AcDbLine
 10
273.625529736
 20
157.455558771
 30
0.0
 11
273.625529736
 21
122.1249952987
 31
0.0
  0
LINE
  5
16B
330
1F
100
AcDbEntity
  8
0
  6
Continuous
 62
     8
370
    15
100
AcDbLine
 10
258.725529736
 20
122.8906807237
 30
0.0
 11
258.725529736
 21
157.3249952987
 31
0.0
  0
LINE
  5
16C
330
1F
100
AcDbEntity
  8
0
  6
Continuous
 62
     8
370
    15
100
AcDbLine
 10
258.725529736
 20
184.1906807237
 30
0.0
 11
258.725529736
 21
218.6249952987
 31
0.0
  0
LINE
  5
16D
330
1F
100
AcDbEntity
  8
0
  6
Continuous
 62
     8
370
    15
100
AcDbLine
 10
259.491215161
 20
184.0601172515
 30
0.0
 11
259.491215161
 21
219.3906807237
 31
0.0
  0
LINE
  5
16E
330
1F
100
AcDbEntity
  8
0
  6
Continuous
 62
     8
370
    15
100
AcDbLine
 10
259.491215161
 20
122.1249952987
 30
0.0
 11
259.491215161
 21
157.455558771
 31
0.0
  0
LINE
  5
16F
330
1F
100
AcDbEntity
  8
0
  6
Continuous
 62
     8
370
    15
100
AcDbLine
 10
258.1083724485
 20
170.7578380112
 30
0.0
 11
258.1083724485
 21
205.2578380112
 31
0.0
  0
LINE
  5
170
330
1F
100
AcDbEntity
  8
0
  6
Continuous
 62
     8
370
    15
100
AcDbLine
 10
258.1083724485
 20
136.2578380112
 30
0.0
 11
258.1083724485
 21
170.7578380112
 31
0.0
  0
LINE
  5
171
330
1F
100
AcDbEntity
  8
0
  6
Continuous
 62
     8
370
    15
100
AcDbLine
 10
154.5140642212
 20
190.9689457982
 30
0.0
 11
154.5140642212
 21
150.5467302242
 31
0.0
  0
LINE
  5
172
330
1F
100
AcDbEntity
  8
0
  6
Continuous
 62
     8
370
    15
100
AcDbLine
 10
277.5083724485
 20
194.7578380112
 30
0.0
 11
277.5083724485
 21
146.7578380112
 31
0.0
  0
LINE
  5
173
330
1F
100
AcDbEntity
  8
0
  6
Continuous
 62
     8
370
    15
100
AcDbLine
 10
376.9083724485
 20
170.7578380112
 30
0.0
 11
376.9083724485
 21
175.7578380112
 31
0.0
  0
LINE
  5
174
330
1F
100
AcDbEntity
  8
0
  6
Continuous
 62
     8
370
    15
100
AcDbLine
 10
376.9083724485
 20
165.7578380112
 30
0.0
 11
376.9083724485
 21
170.7578380112
 31
0.0
  0
DIMENSION
  5
175
330
1F
100
AcDbEntity
  8
DIM
100
AcDbDimension
  2
_D
 10
398.0474491973
 20
159.7578380112
 30
0.0
 11
398.0474491973
 21
170.7578380112
 31
0.0
 70
   160
  1
%%c<>
 71
     2
 42
-1.0
  3
SLDDIMSTYLE0
100
AcDbAlignedDimension
 13
373.9176247197
 23
181.7578380112
 33
0.0
 14
373.9176247197
 24
159.7578380112
 34
0.0
 50
90.0
100
AcDbRotatedDimension
  0
DIMENSION
  5
183
330
1F
100
AcDbEntity
  8
DIM
100
AcDbDimension
  2
_D_1
 10
404.9665913208
 20
146.7578380112
 30
0.0
 11
404.9665913208
 21
170.7578380112
 31
0.0
 70
   160
  1
%%c<>
 71
     2
 42
-1.0
  3
SLDDIMSTYLE1
100
AcDbAlignedDimension
 13
354.4083724485
 23
194.7578380112
 33
0.0
 14
354.4083724485
 24
146.7578380112
 34
0.0
 50
90.0
100
AcDbRotatedDimension
  0
DIMENSION
  5
18F
330
1F
100
AcDbEntity
  8
DIM
100
AcDbDimension
  2
_D_2
 10
355.4083724485
 20
106.0800775691
 30
0.0
 11
364.9083724485
 21
106.0800775691
 31
0.0
 70
   160
  1
<>
 71
     2
 42
-1.0
  3
SLDDIMSTYLE0
100
AcDbAlignedDimension
 13
374.4083724485
 23
160.6078380112
 33
0.0
 14
355.4083724485
 24
147.7578380112
 34
0.0
100
AcDbRotatedDimension
  0
DIMENSION
  5
19B
330
1F
100
AcDbEntity
  8
DIM
100
AcDbDimension
  2
_D_3
 10
255.4083724485
 20
106.0800775691
 30
0.0
 11
305.4083724485
 21
106.0800775691
 31
0.0
 70
   160
  1
<>
 71
     2
 42
-1.0
  3
SLDDIMSTYLE1
100
AcDbAlignedDimension
 13
355.4083724485
 23
147.7578380112
 33
0.0
 14
255.4083724485
 24
135.8328380112
 34
0.0
100
AcDbRotatedDimension
  0
DIMENSION
  5
1A5
330
1F
100
AcDbEntity
  8
DIM
100
AcDbDimension
  2
_D_4
 10
138.6570077259
 20
122.0078380112
 30
0.0
 11
138.6570077259
 21
170.7578380112
 31
0.0
 70
   160
  1
%%c<>
 71
     2
 42
-1.0
  3
SLDDIMSTYLE2
100
AcDbAlignedDimension
 13
259.7740578734
 23
219.5078380112
 33
0.0
 14
259.7740578734
 24
122.0078380112
 34
0.0
 50
90.0
100
AcDbRotatedDimension
  0
DIMENSION
  5
1B1
330
1F
100
AcDbEntity
  8
DIM
100
AcDbDimension
  2
_D_5
 10
385.4083724485
 20
98.0077380112
 30
0.0
 11
269.5333724485
 21
98.0077380112
 31
0.0
 70
   160
  1
<>
 71
     2
 42
-1.0
  3
SLDDIMSTYLE1
100
AcDbAlignedDimension
 13
153.6583724485
 23
170.7578380112
 33
0.0
 14
385.4083724485
 24
157.7578380112
 34
0.0
100
AcDbRotatedDimension
  0
LINE
  5
1BB
330
1F
100
AcDbEntity
  8
DIM
  6
CENTERX2
 48
1.3333333333
370
     0
100
AcDbLine
 10
153.8905661538
 20
170.7578380112
 30
0.0
 11
384.2091649504
 21
170.7578380112
 31
0.0
  0
ENDSEC
  0
SECTION
  2
OBJECTS
  0
DICTIONARY
  5
C
330
0
100
AcDbDictionary
281
     1
  3
ACAD_GROUP
350
D
  3
ACAD_LAYOUT
350
1A
  3
ACAD_MLINESTYLE
350
17
  3
ACAD_PLOTSETTINGS
350
19
  3
ACAD_PLOTSTYLENAME
350
E
  3
ACAD_SCALELIST
350
47
  0
DICTIONARY
  5
D
102
{ACAD_REACTORS
330
C
102
}
330
C
100
AcDbDictionary
281
     1
  0
DICTIONARY
  5
1A
102
{ACAD_REACTORS
330
C
102
}
330
C
100
AcDbDictionary
281
     1
  3
Layout1
350
1E
  3
Layout2
350
26
  3
Model
350
22
  0
DICTIONARY
  5
17
102
{ACAD_REACTORS
330
C
102
}
330
C
100
AcDbDictionary
281
     1
  3
Standard
350
18
  0
DICTIONARY
  5
19
102
{ACAD_REACTORS
330
C
102
}
330
C
100
AcDbDictionary
281
     1
  0
ACDBDICTIONARYWDFLT
  5
E
102
{ACAD_REACTORS
330
C
102
}
330
C
100
AcDbDictionary
281
     1
  3
Normal
350
F
100
AcDbDictionaryWithDefault
340
F
  0
DICTIONARY
  5
47
102
{ACAD_REACTORS
330
C
102
}
330
C
100
AcDbDictionary
281
     1
  3
A0
350
48
  3
A1
350
49
  3
A2
350
4A
  3
A3
350
4B
  3
A4
350
4C
  3
A5
350
4D
  3
A6
350
4E
  3
A7
350
4F
  3
A8
350
50
  3
A9
350
51
  3
B0
350
52
  3
B1
350
53
  3
B2
350
54
  3
B3
350
55
  3
B4
350
56
  3
B5
350
57
  3
B6
350
58
  3
B7
350
59
  3
B8
350
5A
  3
B9
350
5B
  3
C0
350
5C
  3
C1
350
5D
  3
C2
350
5E
  3
C3
350
5F
  3
C4
350
60
  3
C5
350
61
  3
C6
350
62
  3
C7
350
63
  3
C8
350
64
  3
C9
350
65
  3
D0
350
66
  3
D1
350
67
  3
D2
350
68
  0
LAYOUT
  5
1E
102
{ACAD_REACTORS
330
1A
102
}
330
1A
100
AcDbPlotSettings
  1

  2
none_device
  4

  6

 40
0.0
 41
0.0
 42
0.0
 43
0.0
 44
0.0
 45
0.0
 46
0.0
 47
0.0
 48
0.0
 49
0.0
140
0.0
141
0.0
142
1.0
143
1.0
 70
   688
 72
     1
 73
     0
 74
     5
  7

 75
    16
147
1.0
148
0.0
149
0.0
100
AcDbLayout
  1
Layout1
 70
     1
 71
     1
 10
0.0
 20
0.0
 11
420.0
 21
297.0
 12
0.0
 22
0.0
 32
0.0
 14
1.0000000000E+20
 24
1.0000000000E+20
 34
1.0000000000E+20
 15
-1.0000000000E+20
 25
-1.0000000000E+20
 35
-1.0000000000E+20
146
0.0
 13
0.0
 23
0.0
 33
0.0
 16
1.0
 26
0.0
 36
0.0
 17
0.0
 27
1.0
 37
0.0
 76
     0
330
1B
  0
LAYOUT
  5
26
102
{ACAD_REACTORS
330
1A
102
}
330
1A
100
AcDbPlotSettings
  1

  2
none_device
  4

  6

 40
0.0
 41
0.0
 42
0.0
 43
0.0
 44
0.0
 45
0.0
 46
0.0
 47
0.0
 48
0.0
 49
0.0
140
0.0
141
0.0
142
1.0
143
1.0
 70
   688
 72
     1
 73
     0
 74
     5
  7

 75
    16
147
1.0
148
0.0
149
0.0
100
AcDbLayout
  1
Layout2
 70
     1
 71
     2
 10
0.0
 20
0.0
 11
0.0
 21
0.0
 12
0.0
 22
0.0
 32
0.0
 14
0.0
 24
0.0
 34
0.0
 15
0.0
 25
0.0
 35
0.0
146
0.0
 13
0.0
 23
0.0
 33
0.0
 16
1.0
 26
0.0
 36
0.0
 17
0.0
 27
1.0
 37
0.0
 76
     0
330
23
  0
LAYOUT
  5
22
102
{ACAD_REACTORS
330
1A
102
}
330
1A
100
AcDbPlotSettings
  1

  2
none_device
  4
Letter_(8.50_x_11.00_Inches)
  6

 40
6.35
 41
6.35
 42
6.35000508
 43
6.35000508
 44
215.9
 45
279.4
 46
0.0
 47
0.0
 48
0.0
 49
0.0
140
0.0
141
0.0
142
1.0
143
1.0
 70
  1712
 72
     1
 73
     0
 74
     0
  7

 75
     0
147
1.0
148
0.0
149
0.0
100
AcDbLayout
  1
Model
 70
     1
 71
     0
 10
0.0
 20
0.0
 11
445.5
 21
315.0
 12
0.0
 22
0.0
 32
0.0
 14
0.0
 24
0.0
 34
0.0
 15
445.5
 25
315.0
 35
0.0
146
0.0
 13
0.0
 23
0.0
 33
0.0
 16
1.0
 26
0.0
 36
0.0
 17
0.0
 27
1.0
 37
0.0
 76
     0
330
1F
331
29
  0
MLINESTYLE
  5
18
102
{ACAD_REACTORS
330
17
102
}
330
17
100
AcDbMlineStyle
  2
Standard
 70
     0
  3

 62
   256
 51
90.0
 52
90.0
 71
     2
 49
0.5
 62
   256
  6
BYLAYER
 49
-0.5
 62
   256
  6
BYLAYER
  0
ACDBPLACEHOLDER
  5
F
102
{ACAD_REACTORS
330
E
102
}
330
E
  0
SCALE
  5
48
102
{ACAD_REACTORS
330
47
102
}
330
47
100
AcDbScale
 70
     0
300
1:1
140
1.0
141
1.0
290
     1
  0
SCALE
  5
49
102
{ACAD_REACTORS
330
47
102
}
330
47
100
AcDbScale
 70
     0
300
1:2
140
1.0
141
2.0
290
     0
  0
SCALE
  5
4A
102
{ACAD_REACTORS
330
47
102
}
330
47
100
AcDbScale
 70
     0
300
1:4
140
1.0
141
4.0
290
     0
  0
SCALE
  5
4B
102
{ACAD_REACTORS
330
47
102
}
330
47
100
AcDbScale
 70
     0
300
1:5
140
1.0
141
5.0
290
     0
  0
SCALE
  5
4C
102
{ACAD_REACTORS
330
47
102
}
330
47
100
AcDbScale
 70
     0
300
1:8
140
1.0
141
8.0
290
     0
  0
SCALE
  5
4D
102
{ACAD_REACTORS
330
47
102
}
330
47
100
AcDbScale
 70
     0
300
1:10
140
1.0
141
10.0
290
     0
  0
SCALE
  5
4E
102
{ACAD_REACTORS
330
47
102
}
330
47
100
AcDbScale
 70
     0
300
1:16
140
1.0
141
16.0
290
     0
  0
SCALE
  5
4F
102
{ACAD_REACTORS
330
47
102
}
330
47
100
AcDbScale
 70
     0
300
1:20
140
1.0
141
20.0
290
     0
  0
SCALE
  5
50
102
{ACAD_REACTORS
330
47
102
}
330
47
100
AcDbScale
 70
     0
300
1:30
140
1.0
141
30.0
290
     0
  0
SCALE
  5
51
102
{ACAD_REACTORS
330
47
102
}
330
47
100
AcDbScale
 70
     0
300
1:40
140
1.0
141
40.0
290
     0
  0
SCALE
  5
52
102
{ACAD_REACTORS
330
47
102
}
330
47
100
AcDbScale
 70
     0
300
1:50
140
1.0
141
50.0
290
     0
  0
SCALE
  5
53
102
{ACAD_REACTORS
330
47
102
}
330
47
100
AcDbScale
 70
     0
300
1:100
140
1.0
141
100.0
290
     0
  0
SCALE
  5
54
102
{ACAD_REACTORS
330
47
102
}
330
47
100
AcDbScale
 70
     0
300
2:1
140
2.0
141
1.0
290
     0
  0
SCALE
  5
55
102
{ACAD_REACTORS
330
47
102
}
330
47
100
AcDbScale
 70
     0
300
4:1
140
4.0
141
1.0
290
     0
  0
SCALE
  5
56
102
{ACAD_REACTORS
330
47
102
}
330
47
100
AcDbScale
 70
     0
300
8:1
140
8.0
141
1.0
290
     0
  0
SCALE
  5
57
102
{ACAD_REACTORS
330
47
102
}
330
47
100
AcDbScale
 70
     0
300
10:1
140
10.0
141
1.0
290
     0
  0
SCALE
  5
58
102
{ACAD_REACTORS
330
47
102
}
330
47
100
AcDbScale
 70
     0
300
100:1
140
100.0
141
1.0
290
     0
  0
SCALE
  5
59
102
{ACAD_REACTORS
330
47
102
}
330
47
100
AcDbScale
 70
     0
300
1/128" = 1'-0"
140
0.0078125
141
12.0
290
     0
  0
SCALE
  5
5A
102
{ACAD_REACTORS
330
47
102
}
330
47
100
AcDbScale
 70
     0
300
1/64" = 1'-0"
140
0.015625
141
12.0
290
     0
  0
SCALE
  5
5B
102
{ACAD_REACTORS
330
47
102
}
330
47
100
AcDbScale
 70
     0
300
1/32" = 1'-0"
140
0.03125
141
12.0
290
     0
  0
SCALE
  5
5C
102
{ACAD_REACTORS
330
47
102
}
330
47
100
AcDbScale
 70
     0
300
1/16" = 1'-0"
140
0.0625
141
12.0
290
     0
  0
SCALE
  5
5D
102
{ACAD_REACTORS
330
47
102
}
330
47
100
AcDbScale
 70
     0
300
3/32" = 1'-0"
140
0.09375
141
12.0
290
     0
  0
SCALE
  5
5E
102
{ACAD_REACTORS
330
47
102
}
330
47
100
AcDbScale
 70
     0
300
1/8" = 1'-0"
140
0.125
141
12.0
290
     0
  0
SCALE
  5
5F
102
{ACAD_REACTORS
330
47
102
}
330
47
100
AcDbScale
 70
     0
300
3/16" = 1'-0"
140
0.1875
141
12.0
290
     0
  0
SCALE
  5
60
102
{ACAD_REACTORS
330
47
102
}
330
47
100
AcDbScale
 70
     0
300
1/4" = 1'-0"
140
0.25
141
12.0
290
     0
  0
SCALE
  5
61
102
{ACAD_REACTORS
330
47
102
}
330
47
100
AcDbScale
 70
     0
300
3/8" = 1'-0"
140
0.375
141
12.0
290
     0
  0
SCALE
  5
62
102
{ACAD_REACTORS
330
47
102
}
330
47
100
AcDbScale
 70
     0
300
1/2" = 1'-0"
140
0.5
141
12.0
290
     0
  0
SCALE
  5
63
102
{ACAD_REACTORS
330
47
102
}
330
47
100
AcDbScale
 70
     0
300
3/4" = 1'-0"
140
0.75
141
12.0
290
     0
  0
SCALE
  5
64
102
{ACAD_REACTORS
330
47
102
}
330
47
100
AcDbScale
 70
     0
300
1" = 1'-0"
140
1.0
141
12.0
290
     0
  0
SCALE
  5
65
102
{ACAD_REACTORS
330
47
102
}
330
47
100
AcDbScale
 70
     0
300
1-1/2" = 1'-0"
140
1.5
141
12.0
290
     0
  0
SCALE
  5
66
102
{ACAD_REACTORS
330
47
102
}
330
47
100
AcDbScale
 70
     0
300
3" = 1'-0"
140
3.0
141
12.0
290
     0
  0
SCALE
  5
67
102
{ACAD_REACTORS
330
47
102
}
330
47
100
AcDbScale
 70
     0
300
6" = 1'-0"
140
6.0
141
12.0
290
     0
  0
SCALE
  5
68
102
{ACAD_REACTORS
330
47
102
}
330
47
100
AcDbScale
 70
     0
300
1'-0" = 1'-0"
140
12.0
141
12.0
290
     0
  0
ENDSEC
  0
EOF
