  0
SECTION
  2
HEADER
  9
$ACADVER
  1
AC1015
  9
$ACADMAINTVER
 70
     6
  9
$DWGCODEPAGE
  3
ANSI_1252
  9
$INSBASE
 10
0.0
 20
0.0
 30
0.0
  9
$EXTMIN
 10
0.0
 20
0.0
 30
0.0
  9
$EXTMAX
 10
534.6
 20
378.0
 30
0.0
  9
$LIMMIN
 10
0.0
 20
0.0
  9
$LIMMAX
 10
534.6
 20
378.0
  9
$ORTHOMODE
 70
     0
  9
$REGENMODE
 70
     1
  9
$FILLMODE
 70
     1
  9
$QTEXTMODE
 70
     0
  9
$MIRRTEXT
 70
     1
  9
$LTSCALE
 40
1.8
  9
$ATTMODE
 70
     1
  9
$TEXTSIZE
 40
6.985
  9
$TRACEWID
 40
1.0
  9
$TEXTSTYLE
  7
Standard
  9
$CLAYER
  8
0
  9
$CELTYPE
  6
ByLayer
  9
$CECOLOR
 62
   256
  9
$CELTSCALE
 40
1.0
  9
$DISPSILH
 70
     0
  9
$DIMSCALE
 40
1.0
  9
$DIMASZ
 40
5.9436
  9
$DIMEXO
 40
1.8
  9
$DIMDLI
 40
3.75
  9
$DIMRND
 40
0.0
  9
$DIMDLE
 40
0.0
  9
$DIMEXE
 40
1.8
  9
$DIMTP
 40
0.0
  9
$DIMTM
 40
0.0
  9
$DIMTXT
 40
6.985
  9
$DIMCEN
 40
2.5
  9
$DIMTSZ
 40
0.0
  9
$DIMTOL
 70
     0
  9
$DIMLIM
 70
     0
  9
$DIMTIH
 70
     1
  9
$DIMTOH
 70
     1
  9
$DIMSE1
 70
     0
  9
$DIMSE2
 70
     0
  9
$DIMTAD
 70
     1
  9
$DIMZIN
 70
     0
  9
$DIMBLK
  1

  9
$DIMASO
 70
     1
  9
$DIMSHO
 70
     1
  9
$DIMPOST
  1

  9
$DIMAPOST
  1

  9
$DIMALT
 70
     0
  9
$DIMALTD
 70
     3
  9
$DIMALTF
 40
0.0393700787
  9
$DIMLFAC
 40
1.0
  9
$DIMTOFL
 70
     1
  9
$DIMTVP
 40
0.0
  9
$DIMTIX
 70
     0
  9
$DIMSOXD
 70
     0
  9
$DIMSAH
 70
     0
  9
$DIMBLK1
  1

  9
$DIMBLK2
  1

  9
$DIMSTYLE
  2
ISO-25
  9
$DIMCLRD
 70
     0
  9
$DIMCLRE
 70
     0
  9
$DIMCLRT
 70
     0
  9
$DIMTFAC
 40
1.0
  9
$DIMGAP
 40
2.7432
  9
$DIMJUST
 70
     0
  9
$DIMSD1
 70
     0
  9
$DIMSD2
 70
     0
  9
$DIMTOLJ
 70
     0
  9
$DIMTZIN
 70
     0
  9
$DIMALTZ
 70
     0
  9
$DIMALTTZ
 70
     0
  9
$DIMUPT
 70
     0
  9
$DIMDEC
 70
     2
  9
$DIMTDEC
 70
     2
  9
$DIMALTU
 70
     2
  9
$DIMALTTD
 70
     3
  9
$DIMTXSTY
  7
Standard
  9
$DIMAUNIT
 70
     0
  9
$DIMADEC
 70
     2
  9
$DIMALTRND
 40
0.0
  9
$DIMAZIN
 70
     0
  9
$DIMDSEP
 70
    44
  9
$DIMATFIT
 70
     3
  9
$DIMFRAC
 70
     0
  9
$DIMLDRBLK
  1

  9
$DIMLUNIT
 70
     2
  9
$DIMLWD
 70
    -2
  9
$DIMLWE
 70
    -2
  9
$DIMTMOVE
 70
     0
  9
$LUNITS
 70
     2
  9
$LUPREC
 70
     2
  9
$SKETCHINC
 40
1.0
  9
$FILLETRAD
 40
10.0
  9
$AUNITS
 70
     1
  9
$AUPREC
 70
     2
  9
$MENU
  1
.
  9
$ELEVATION
 40
0.0
  9
$PELEVATION
 40
0.0
  9
$THICKNESS
 40
0.0
  9
$LIMCHECK
 70
     0
  9
$CHAMFERA
 40
0.0
  9
$CHAMFERB
 40
0.0
  9
$CHAMFERC
 40
0.0
  9
$CHAMFERD
 40
0.0
  9
$SKPOLY
 70
     0
  9
$TDCREATE
 40
2458600.656756123
  9
$TDUCREATE
 40
2458600.427589456
  9
$TDUPDATE
 40
2458600.656757164
  9
$TDUUPDATE
 40
2458600.427590498
  9
$TDINDWG
 40
0.0000000116
  9
$TDUSRTIMER
 40
0.0000000116
  9
$USRTIMER
 70
     1
  9
$ANGBASE
 50
0.0
  9
$ANGDIR
 70
     0
  9
$PDMODE
 70
     0
  9
$PDSIZE
 40
-1.0
  9
$PLINEWID
 40
0.0
  9
$SPLFRAME
 70
     0
  9
$SPLINETYPE
 70
     6
  9
$SPLINESEGS
 70
     8
  9
$HANDSEED
  5
19C
  9
$SURFTAB1
 70
     6
  9
$SURFTAB2
 70
     6
  9
$SURFTYPE
 70
     6
  9
$SURFU
 70
     6
  9
$SURFV
 70
     6
  9
$UCSBASE
  2

  9
$UCSNAME
  2

  9
$UCSORG
 10
0.0
 20
0.0
 30
0.0
  9
$UCSXDIR
 10
1.0
 20
0.0
 30
0.0
  9
$UCSYDIR
 10
0.0
 20
1.0
 30
0.0
  9
$UCSORTHOREF
  2

  9
$UCSORTHOVIEW
 70
     0
  9
$UCSORGTOP
 10
0.0
 20
0.0
 30
0.0
  9
$UCSORGBOTTOM
 10
0.0
 20
0.0
 30
0.0
  9
$UCSORGLEFT
 10
0.0
 20
0.0
 30
0.0
  9
$UCSORGRIGHT
 10
0.0
 20
0.0
 30
0.0
  9
$UCSORGFRONT
 10
0.0
 20
0.0
 30
0.0
  9
$UCSORGBACK
 10
0.0
 20
0.0
 30
0.0
  9
$PUCSBASE
  2

  9
$PUCSNAME
  2

  9
$PUCSORG
 10
0.0
 20
0.0
 30
0.0
  9
$PUCSXDIR
 10
1.0
 20
0.0
 30
0.0
  9
$PUCSYDIR
 10
0.0
 20
1.0
 30
0.0
  9
$PUCSORTHOREF
  2

  9
$PUCSORTHOVIEW
 70
     0
  9
$PUCSORGTOP
 10
0.0
 20
0.0
 30
0.0
  9
$PUCSORGBOTTOM
 10
0.0
 20
0.0
 30
0.0
  9
$PUCSORGLEFT
 10
0.0
 20
0.0
 30
0.0
  9
$PUCSORGRIGHT
 10
0.0
 20
0.0
 30
0.0
  9
$PUCSORGFRONT
 10
0.0
 20
0.0
 30
0.0
  9
$PUCSORGBACK
 10
0.0
 20
0.0
 30
0.0
  9
$USERI1
 70
     0
  9
$USERI2
 70
     0
  9
$USERI3
 70
     0
  9
$USERI4
 70
     0
  9
$USERI5
 70
     0
  9
$USERR1
 40
0.0
  9
$USERR2
 40
0.0
  9
$USERR3
 40
0.0
  9
$USERR4
 40
0.0
  9
$USERR5
 40
0.0
  9
$WORLDVIEW
 70
     1
  9
$SHADEDGE
 70
     3
  9
$SHADEDIF
 70
    70
  9
$TILEMODE
 70
     1
  9
$MAXACTVP
 70
    64
  9
$PINSBASE
 10
0.0
 20
0.0
 30
0.0
  9
$PLIMCHECK
 70
     0
  9
$PEXTMIN
 10
1.0000000000E+20
 20
1.0000000000E+20
 30
1.0000000000E+20
  9
$PEXTMAX
 10
-1.0000000000E+20
 20
-1.0000000000E+20
 30
-1.0000000000E+20
  9
$PLIMMIN
 10
0.0
 20
0.0
  9
$PLIMMAX
 10
420.0
 20
297.0
  9
$UNITMODE
 70
     0
  9
$VISRETAIN
 70
     1
  9
$PLINEGEN
 70
     0
  9
$PSLTSCALE
 70
     1
  9
$TREEDEPTH
 70
  3020
  9
$CMLSTYLE
  2
Standard
  9
$CMLJUST
 70
     0
  9
$CMLSCALE
 40
20.0
  9
$PROXYGRAPHICS
 70
     1
  9
$MEASUREMENT
 70
     1
  9
$CELWEIGHT
370
    -1
  9
$ENDCAPS
280
     0
  9
$JOINSTYLE
280
     0
  9
$LWDISPLAY
290
     1
  9
$INSUNITS
 70
     4
  9
$HYPERLINKBASE
  1

  9
$STYLESHEET
  1

  9
$XEDIT
290
     1
  9
$CEPSNTYPE
380
     0
  9
$PSTYLEMODE
290
     1
  9
$FINGERPRINTGUID
  2
{952663DF-03FB-4DCC-AF67-446734871483}
  9
$VERSIONGUID
  2
{FAEB1C32-E019-11D5-929B-00C0DF256EC4}
  9
$EXTNAMES
290
     1
  9
$PSVPSCALE
 40
0.0
  9
$OLESTARTUP
290
     0
  0
ENDSEC
  0
SECTION
  2
CLASSES
  0
CLASS
  1
ACDBDICTIONARYWDFLT
  2
AcDbDictionaryWithDefault
  3
ObjectDBX Classes
 90
        0
280
     0
281
     0
  0
CLASS
  1
VISUALSTYLE
  2
AcDbVisualStyle
  3
ObjectDBX Classes
 90
     4095
280
     0
281
     0
  0
CLASS
  1
MATERIAL
  2
AcDbMaterial
  3
ObjectDBX Classes
 90
     1153
280
     0
281
     0
  0
CLASS
  1
SCALE
  2
AcDbScale
  3
ObjectDBX Classes
 90
     1153
280
     0
281
     0
  0
CLASS
  1
SUN
  2
AcDbSun
  3
SCENEOE
 90
     1153
280
     0
281
     0
  0
CLASS
  1
ACDBPLACEHOLDER
  2
AcDbPlaceHolder
  3
ObjectDBX Classes
 90
        0
280
     0
281
     0
  0
CLASS
  1
LAYOUT
  2
AcDbLayout
  3
ObjectDBX Classes
 90
        0
280
     0
281
     0
  0
ENDSEC
  0
SECTION
  2
TABLES
  0
TABLE
  2
VPORT
  5
8
330
0
100
AcDbSymbolTable
 70
     1
  0
VPORT
  5
29
330
8
100
AcDbSymbolTableRecord
100
AcDbViewportTableRecord
  2
*Active
 70
     0
 10
0.0
 20
0.0
 11
1.0
 21
1.0
 12
267.3
 22
189.0
 13
0.0
 23
0.0
 14
10.0
 24
10.0
 15
10.0
 25
10.0
 16
0.0
 26
0.0
 36
1.0
 17
0.0
 27
0.0
 37
0.0
 40
378.0
 41
1.4142857143
 42
50.0
 43
0.0
 44
0.0
 50
0.0
 51
0.0
 71
     0
 72
  2000
 73
     1
 74
     3
 75
     0
 76
     0
 77
     0
 78
     0
281
     0
 65
     1
110
0.0
120
0.0
130
0.0
111
1.0
121
0.0
131
0.0
112
0.0
122
1.0
132
0.0
 79
     0
146
0.0
  0
ENDTAB
  0
TABLE
  2
LTYPE
  5
5
330
0
100
AcDbSymbolTable
 70
     6
  0
LTYPE
  5
14
330
5
100
AcDbSymbolTableRecord
100
AcDbLinetypeTableRecord
  2
ByBlock
 70
     0
  3

 72
    65
 73
     0
 40
0.0
  0
LTYPE
  5
15
330
5
100
AcDbSymbolTableRecord
100
AcDbLinetypeTableRecord
  2
ByLayer
 70
     0
  3

 72
    65
 73
     0
 40
0.0
  0
LTYPE
  5
16
330
5
100
AcDbSymbolTableRecord
100
AcDbLinetypeTableRecord
  2
Continuous
 70
     0
  3
Solid line
 72
    65
 73
     0
 40
0.0
  0
LTYPE
  5
6A
330
5
100
AcDbSymbolTableRecord
100
AcDbLinetypeTableRecord
  2
HIDDEN
 70
     0
  3
Hidden __ __ __ __ __ __ __ __ __ __ __ __ __ __
 72
    65
 73
     2
 40
1.905
 49
1.27
 74
     0
 49
-0.635
 74
     0
  0
LTYPE
  5
6B
330
5
100
AcDbSymbolTableRecord
100
AcDbLinetypeTableRecord
  2
PHANTOM
 70
     0
  3
Phantom ______  __  __  ______  __  __  ______
 72
    65
 73
     6
 40
12.7
 49
6.35
 74
     0
 49
-1.27
 74
     0
 49
1.27
 74
     0
 49
-1.27
 74
     0
 49
1.27
 74
     0
 49
-1.27
 74
     0
  0
LTYPE
  5
6C
330
5
100
AcDbSymbolTableRecord
100
AcDbLinetypeTableRecord
  2
CENTER
 70
     0
  3
Center ____ _ ____ _ ____ _ ____ _ ____ _ ____
 72
    65
 73
     4
 40
10.16
 49
6.35
 74
     0
 49
-1.27
 74
     0
 49
1.27
 74
     0
 49
-1.27
 74
     0
  0
LTYPE
  5
6D
330
5
100
AcDbSymbolTableRecord
100
AcDbLinetypeTableRecord
  2
CENTERX2
 70
     0
  3
Center (2x) ________  __  ________  __  _____
 72
    65
 73
     4
 40
20.32
 49
12.7
 74
     0
 49
-2.54
 74
     0
 49
2.54
 74
     0
 49
-2.54
 74
     0
  0
LTYPE
  5
6E
330
5
100
AcDbSymbolTableRecord
100
AcDbLinetypeTableRecord
  2
DOT2
 70
     0
  3
Dot (.5x) ........................................
 72
    65
 73
     2
 40
0.635
 49
0.0
 74
     0
 49
-0.635
 74
     0
  0
ENDTAB
  0
TABLE
  2
LAYER
  5
2
330
0
100
AcDbSymbolTable
 70
     8
  0
LAYER
  5
10
330
2
100
AcDbSymbolTableRecord
100
AcDbLayerTableRecord
  2
0
 70
     0
 62
     7
  6
Continuous
370
    -3
390
F
  0
LAYER
  5
6F
330
2
100
AcDbSymbolTableRecord
100
AcDbLayerTableRecord
  2
FORMAT
 70
     0
 62
     7
  6
Continuous
370
    -3
390
F
  0
LAYER
  5
70
330
2
100
AcDbSymbolTableRecord
100
AcDbLayerTableRecord
  2
SLD-0
 70
     0
 62
     2
  6
Continuous
370
    -3
390
F
  0
LAYER
  5
71
330
2
100
AcDbSymbolTableRecord
100
AcDbLayerTableRecord
  2
DIM
 70
     0
 62
   179
  6
Continuous
370
    -3
390
F
  0
LAYER
  5
72
330
2
100
AcDbSymbolTableRecord
100
AcDbLayerTableRecord
  2
SLD-DEFPOINTS
 70
     0
 62
   179
  6
Continuous
370
    -3
390
F
  0
LAYER
  5
73
330
2
100
AcDbSymbolTableRecord
100
AcDbLayerTableRecord
  2
HAT
 70
     0
 62
   135
  6
Continuous
370
    -3
390
F
  0
LAYER
  5
74
330
2
100
AcDbSymbolTableRecord
100
AcDbLayerTableRecord
  2
JOB
 70
     0
 62
   201
  6
Continuous
370
    -3
390
F
  0
LAYER
  5
75
330
2
100
AcDbSymbolTableRecord
100
AcDbLayerTableRecord
  2
INSPECTION_REPORT
 70
     0
 62
   255
  6
Continuous
370
    -3
390
F
  0
ENDTAB
  0
TABLE
  2
STYLE
  5
3
330
0
100
AcDbSymbolTable
 70
     4
  0
STYLE
  5
11
330
3
100
AcDbSymbolTableRecord
100
AcDbTextStyleTableRecord
  2
Standard
 70
     0
 40
0.0
 41
1.0
 50
0.0
 71
     0
 42
6.985
  3
txt
  4

  0
STYLE
  5
96
330
3
100
AcDbSymbolTableRecord
100
AcDbTextStyleTableRecord
  2
SLDTEXTSTYLE0
 70
     0
 40
0.0
 41
0.7
 50
0.0
 71
     0
 42
6.985
  3
TXT
  4

  0
STYLE
  5
98
330
3
100
AcDbSymbolTableRecord
100
AcDbTextStyleTableRecord
  2
SLDTEXTSTYLE1
 70
     0
 40
0.0
 41
0.75
 50
0.0
 71
     0
 42
6.985
  3
TXT
  4

  0
STYLE
  5
AB
330
3
100
AcDbSymbolTableRecord
100
AcDbTextStyleTableRecord
  2
SLDTEXTSTYLE2
 70
     0
 40
0.0
 41
0.6875
 50
0.0
 71
     0
 42
6.985
  3
TXT
  4

  0
ENDTAB
  0
TABLE
  2
VIEW
  5
6
330
0
100
AcDbSymbolTable
 70
     0
  0
ENDTAB
  0
TABLE
  2
UCS
  5
7
330
0
100
AcDbSymbolTable
 70
     0
  0
ENDTAB
  0
TABLE
  2
APPID
  5
9
330
0
100
AcDbSymbolTable
 70
     1
  0
APPID
  5
12
330
9
100
AcDbSymbolTableRecord
100
AcDbRegAppTableRecord
  2
ACAD
 70
     0
  0
ENDTAB
  0
TABLE
  2
DIMSTYLE
  5
A
330
0
100
AcDbSymbolTable
 70
     3
100
AcDbDimStyleTable
  0
DIMSTYLE
105
27
330
A
100
AcDbSymbolTableRecord
100
AcDbDimStyleTableRecord
  2
ISO-25
 70
     0
 41
2.5
 42
0.625
 43
3.75
 44
1.25
 73
     0
 74
     0
 77
     1
 78
     8
140
2.5
141
2.5
143
0.0393700787
147
0.625
171
     3
172
     1
178
     0
271
     2
272
     2
274
     3
278
    44
283
     0
284
     8
340
11
  0
DIMSTYLE
105
165
102
{ACAD_REACTORS
330
164
330
16F
330
185
330
190
102
}
330
A
100
AcDbSymbolTableRecord
100
AcDbDimStyleTableRecord
  2
SLDDIMSTYLE0
 70
     0
 41
5.9436
 44
0.0
 45
0.000000001
 73
     0
 74
     0
 77
     1
 78
    12
 79
     3
140
5.23875
144
1.0
147
1.3096875
173
     1
178
     0
271
     2
272
     2
276
     2
284
    12
340
96
  0
DIMSTYLE
105
17A
102
{ACAD_REACTORS
330
179
102
}
330
A
100
AcDbSymbolTableRecord
100
AcDbDimStyleTableRecord
  2
SLDDIMSTYLE1
 70
     0
 41
5.9436
 44
0.0
 45
0.000000001
 73
     0
 74
     0
 77
     1
 78
     4
 79
     1
140
5.23875
144
1.0
147
1.3096875
173
     1
178
     0
271
     2
272
     2
276
     2
284
    12
340
96
  0
ENDTAB
  0
TABLE
  2
BLOCK_RECORD
  5
1
330
0
100
AcDbSymbolTable
 70
     7
  0
BLOCK_RECORD
  5
1F
330
1
100
AcDbSymbolTableRecord
100
AcDbBlockTableRecord
  2
*Model_Space
340
22
  0
BLOCK_RECORD
  5
1B
330
1
100
AcDbSymbolTableRecord
100
AcDbBlockTableRecord
  2
*Paper_Space
340
1E
  0
BLOCK_RECORD
  5
23
330
1
100
AcDbSymbolTableRecord
100
AcDbBlockTableRecord
  2
*Paper_Space0
340
26
  0
BLOCK_RECORD
  5
E7
330
1
100
AcDbSymbolTableRecord
100
AcDbBlockTableRecord
  2
SW_CENTERMARKSYMBOL_0
340
0
102
{BLKREFS
331
F2
102
}
  0
BLOCK_RECORD
  5
166
330
1
100
AcDbSymbolTableRecord
100
AcDbBlockTableRecord
  2
_D
340
0
  0
BLOCK_RECORD
  5
170
330
1
100
AcDbSymbolTableRecord
100
AcDbBlockTableRecord
  2
_D_1
340
0
  0
BLOCK_RECORD
  5
17B
330
1
100
AcDbSymbolTableRecord
100
AcDbBlockTableRecord
  2
_D_2
340
0
  0
BLOCK_RECORD
  5
186
330
1
100
AcDbSymbolTableRecord
100
AcDbBlockTableRecord
  2
_D_3
340
0
  0
BLOCK_RECORD
  5
191
330
1
100
AcDbSymbolTableRecord
100
AcDbBlockTableRecord
  2
_D_4
340
0
  0
ENDTAB
  0
ENDSEC
  0
SECTION
  2
BLOCKS
  0
BLOCK
  5
20
330
1F
100
AcDbEntity
  8
0
100
AcDbBlockBegin
  2
*Model_Space
 70
     0
 10
0.0
 20
0.0
 30
0.0
  3
*Model_Space
  1
*Model_Space
  0
ENDBLK
  5
21
330
1F
100
AcDbEntity
  8
0
100
AcDbBlockEnd
  0
BLOCK
  5
1C
330
1B
100
AcDbEntity
 67
     1
  8
0
100
AcDbBlockBegin
  2
*Paper_Space
 70
     0
 10
0.0
 20
0.0
 30
0.0
  3
*Paper_Space
  1
*Paper_Space
  0
ENDBLK
  5
1D
330
1B
100
AcDbEntity
 67
     1
  8
0
100
AcDbBlockEnd
  0
BLOCK
  5
24
330
23
100
AcDbEntity
  8
0
100
AcDbBlockBegin
  2
*Paper_Space0
 70
     0
 10
0.0
 20
0.0
 30
0.0
  3
*Paper_Space0
  1
*Paper_Space0
  0
ENDBLK
  5
25
330
23
100
AcDbEntity
  8
0
100
AcDbBlockEnd
  0
BLOCK
  5
E8
330
E7
100
AcDbEntity
  8
0
100
AcDbBlockBegin
  2
SW_CENTERMARKSYMBOL_0
 70
     0
 10
0.0
 20
0.0
 30
0.0
  3
SW_CENTERMARKSYMBOL_0
  1
SW_CENTERMARKSYMBOL_0
  0
LINE
  5
EA
330
E7
100
AcDbEntity
  8
DIM
 62
     0
100
AcDbLine
 10
0.0
 20
0.0
 30
0.0
 11
0.0
 21
2.5
 31
0.0
  0
LINE
  5
EB
330
E7
100
AcDbEntity
  8
DIM
 62
     0
100
AcDbLine
 10
0.0
 20
0.0
 30
0.0
 11
-2.5
 21
0.0
 31
0.0
  0
LINE
  5
EC
330
E7
100
AcDbEntity
  8
DIM
 62
     0
100
AcDbLine
 10
0.0
 20
0.0
 30
0.0
 11
0.0
 21
-2.5
 31
0.0
  0
LINE
  5
ED
330
E7
100
AcDbEntity
  8
DIM
 62
     0
100
AcDbLine
 10
0.0
 20
0.0
 30
0.0
 11
2.5
 21
0.0
 31
0.0
  0
LINE
  5
EE
330
E7
100
AcDbEntity
  8
DIM
 62
     0
100
AcDbLine
 10
0.0
 20
5.0
 30
0.0
 11
0.0
 21
50.3671572875
 31
0.0
  0
LINE
  5
EF
330
E7
100
AcDbEntity
  8
DIM
 62
     0
100
AcDbLine
 10
-5.0
 20
0.0
 30
0.0
 11
-50.3671572875
 21
0.0
 31
0.0
  0
LINE
  5
F0
330
E7
100
AcDbEntity
  8
DIM
 62
     0
100
AcDbLine
 10
0.0
 20
-5.0
 30
0.0
 11
0.0
 21
-50.3671572875
 31
0.0
  0
LINE
  5
F1
330
E7
100
AcDbEntity
  8
DIM
 62
     0
100
AcDbLine
 10
5.0
 20
0.0
 30
0.0
 11
50.3671572875
 21
0.0
 31
0.0
  0
ENDBLK
  5
E9
330
E7
100
AcDbEntity
  8
0
100
AcDbBlockEnd
  0
BLOCK
  5
167
330
166
100
AcDbEntity
  8
0
100
AcDbBlockBegin
  2
_D
 70
     0
 10
0.0
 20
0.0
 30
0.0
  3
_D
  1
_D
  0
SOLID
  5
169
330
166
100
AcDbEntity
  8
DIM
100
AcDbTrace
 10
459.6561259424
 20
118.8511022007
 30
0.0
 11
453.7125259424
 21
119.7655022007
 31
0.0
 12
453.7125259424
 22
117.9367022007
 32
0.0
 13
453.7125259424
 23
117.9367022007
 33
0.0
  0
SOLID
  5
16A
330
166
100
AcDbEntity
  8
DIM
100
AcDbTrace
 10
197.9061259424
 20
118.8511022007
 30
0.0
 11
203.8497259424
 21
117.9367022007
 31
0.0
 12
203.8497259424
 22
119.7655022007
 32
0.0
 13
203.8497259424
 23
119.7655022007
 33
0.0
  0
LINE
  5
16B
330
166
100
AcDbEntity
  8
DIM
100
AcDbLine
 10
459.6561259424
 20
167.4035041807
 30
0.0
 11
459.6561259424
 21
117.0511022007
 31
0.0
  0
LINE
  5
16C
330
166
100
AcDbEntity
  8
DIM
100
AcDbLine
 10
197.9061259424
 20
190.9035041807
 30
0.0
 11
197.9061259424
 21
117.0511022007
 31
0.0
  0
LINE
  5
16D
330
166
100
AcDbEntity
  8
DIM
100
AcDbLine
 10
459.6561259424
 20
118.8511022007
 30
0.0
 11
197.9061259424
 21
118.8511022007
 31
0.0
  0
MTEXT
  5
16E
330
166
100
AcDbEntity
  8
DIM
100
AcDbMText
 10
326.8502517094
 20
125.6042062415
 30
0.0
 40
5.23875
 41
0.0
 71
     1
 72
     1
  1
261.75
  7
SLDTEXTSTYLE0
 73
     1
 44
1.0
  0
ENDBLK
  5
168
330
166
100
AcDbEntity
  8
0
100
AcDbBlockEnd
  0
BLOCK
  5
171
330
170
100
AcDbEntity
  8
0
100
AcDbBlockBegin
  2
_D_1
 70
     0
 10
0.0
 20
0.0
 30
0.0
  3
_D_1
  1
_D_1
  0
SOLID
  5
173
330
170
100
AcDbEntity
  8
DIM
100
AcDbTrace
 10
299.6561259424
 20
131.3894285643
 30
0.0
 11
305.5997259424
 21
130.4750285643
 31
0.0
 12
305.5997259424
 22
132.3038285643
 32
0.0
 13
305.5997259424
 23
132.3038285643
 33
0.0
  0
SOLID
  5
174
330
170
100
AcDbEntity
  8
DIM
100
AcDbTrace
 10
459.6561259424
 20
131.3894285643
 30
0.0
 11
453.7125259424
 21
132.3038285643
 31
0.0
 12
453.7125259424
 22
130.4750285643
 32
0.0
 13
453.7125259424
 23
130.4750285643
 33
0.0
  0
LINE
  5
175
330
170
100
AcDbEntity
  8
DIM
100
AcDbLine
 10
299.6561259424
 20
155.9785041807
 30
0.0
 11
299.6561259424
 21
129.5894285643
 31
0.0
  0
LINE
  5
176
330
170
100
AcDbEntity
  8
DIM
100
AcDbLine
 10
459.6561259424
 20
167.4035041807
 30
0.0
 11
459.6561259424
 21
129.5894285643
 31
0.0
  0
LINE
  5
177
330
170
100
AcDbEntity
  8
DIM
100
AcDbLine
 10
299.6561259424
 20
131.3894285643
 30
0.0
 11
459.6561259424
 21
131.3894285643
 31
0.0
  0
MTEXT
  5
178
330
170
100
AcDbEntity
  8
DIM
100
AcDbMText
 10
392.7107844809
 20
138.1425326051
 30
0.0
 40
5.23875
 41
0.0
 71
     1
 72
     1
  1
160
  7
SLDTEXTSTYLE0
 73
     1
 44
1.0
  0
ENDBLK
  5
172
330
170
100
AcDbEntity
  8
0
100
AcDbBlockEnd
  0
BLOCK
  5
17C
330
17B
100
AcDbEntity
  8
0
100
AcDbBlockBegin
  2
_D_2
 70
     0
 10
0.0
 20
0.0
 30
0.0
  3
_D_2
  1
_D_2
  0
SOLID
  5
17E
330
17B
100
AcDbEntity
  8
DIM
100
AcDbTrace
 10
185.8176417046
 20
241.4535041807
 30
0.0
 11
184.9032417046
 21
235.5099041807
 31
0.0
 12
186.7320417046
 22
235.5099041807
 32
0.0
 13
186.7320417046
 23
235.5099041807
 33
0.0
  0
SOLID
  5
17F
330
17B
100
AcDbEntity
  8
DIM
100
AcDbTrace
 10
185.8176417046
 20
143.9535041807
 30
0.0
 11
186.7320417046
 21
149.8971041807
 31
0.0
 12
184.9032417046
 22
149.8971041807
 32
0.0
 13
184.9032417046
 23
149.8971041807
 33
0.0
  0
LINE
  5
180
330
17B
100
AcDbEntity
  8
DIM
100
AcDbLine
 10
302.2218113673
 20
241.4535041807
 30
0.0
 11
184.0176417046
 21
241.4535041807
 31
0.0
  0
LINE
  5
181
330
17B
100
AcDbEntity
  8
DIM
100
AcDbLine
 10
302.2218113673
 20
143.9535041807
 30
0.0
 11
184.0176417046
 21
143.9535041807
 31
0.0
  0
LINE
  5
182
330
17B
100
AcDbEntity
  8
DIM
100
AcDbLine
 10
185.8176417046
 20
241.4535041807
 30
0.0
 11
185.8176417046
 21
143.9535041807
 31
0.0
  0
MTEXT
  5
183
330
17B
100
AcDbEntity
  8
DIM
100
AcDbMText
 10
179.0645376638
 20
179.3417214884
 30
0.0
 40
5.23875
 41
0.0
 71
     1
 72
     1
  1
%%c
  7
SLDTEXTSTYLE0
 11
-7.044195017643634E-15
 21
1.0
 31
0.0
 73
     1
 44
1.0
  0
MTEXT
  5
184
330
17B
100
AcDbEntity
  8
DIM
100
AcDbMText
 10
179.0645376638
 20
187.4428661077
 30
0.0
 40
5.23875
 41
0.0
 71
     1
 72
     1
  1
97.50
  7
SLDTEXTSTYLE0
 11
-7.044195017643634E-15
 21
1.0
 31
0.0
 73
     1
 44
1.0
  0
ENDBLK
  5
17D
330
17B
100
AcDbEntity
  8
0
100
AcDbBlockEnd
  0
BLOCK
  5
187
330
186
100
AcDbEntity
  8
0
100
AcDbBlockBegin
  2
_D_3
 70
     0
 10
0.0
 20
0.0
 30
0.0
  3
_D_3
  1
_D_3
  0
SOLID
  5
189
330
186
100
AcDbEntity
  8
DIM
100
AcDbTrace
 10
470.7960290888
 20
222.7035041807
 30
0.0
 11
469.8816290888
 21
216.7599041807
 31
0.0
 12
471.7104290888
 22
216.7599041807
 32
0.0
 13
471.7104290888
 23
216.7599041807
 33
0.0
  0
SOLID
  5
18A
330
186
100
AcDbEntity
  8
DIM
100
AcDbTrace
 10
470.7960290888
 20
162.7035041807
 30
0.0
 11
471.7104290888
 21
168.6471041807
 31
0.0
 12
469.8816290888
 22
168.6471041807
 32
0.0
 13
469.8816290888
 23
168.6471041807
 33
0.0
  0
LINE
  5
18B
330
186
100
AcDbEntity
  8
DIM
100
AcDbLine
 10
407.9339578185
 20
222.7035041807
 30
0.0
 11
472.5960290888
 21
222.7035041807
 31
0.0
  0
LINE
  5
18C
330
186
100
AcDbEntity
  8
DIM
100
AcDbLine
 10
407.9339578185
 20
162.7035041807
 30
0.0
 11
472.5960290888
 21
162.7035041807
 31
0.0
  0
LINE
  5
18D
330
186
100
AcDbEntity
  8
DIM
100
AcDbLine
 10
470.7960290888
 20
222.7035041807
 30
0.0
 11
470.7960290888
 21
162.7035041807
 31
0.0
  0
MTEXT
  5
18E
330
186
100
AcDbEntity
  8
DIM
100
AcDbMText
 10
464.042925048
 20
184.286950612
 30
0.0
 40
5.23875
 41
0.0
 71
     1
 72
     1
  1
%%c
  7
SLDTEXTSTYLE0
 11
-7.044195017643634E-15
 21
1.0
 31
0.0
 73
     1
 44
1.0
  0
MTEXT
  5
18F
330
186
100
AcDbEntity
  8
DIM
100
AcDbMText
 10
464.042925048
 20
192.3880952313
 30
0.0
 40
5.23875
 41
0.0
 71
     1
 72
     1
  1
60
  7
SLDTEXTSTYLE0
 11
-7.044195017643634E-15
 21
1.0
 31
0.0
 73
     1
 44
1.0
  0
ENDBLK
  5
188
330
186
100
AcDbEntity
  8
0
100
AcDbBlockEnd
  0
BLOCK
  5
192
330
191
100
AcDbEntity
  8
0
100
AcDbBlockBegin
  2
_D_4
 70
     0
 10
0.0
 20
0.0
 30
0.0
  3
_D_4
  1
_D_4
  0
SOLID
  5
194
330
191
100
AcDbEntity
  8
DIM
100
AcDbTrace
 10
480.9663466074
 20
224.2035041807
 30
0.0
 11
480.0519466074
 21
218.2599041807
 31
0.0
 12
481.8807466074
 22
218.2599041807
 32
0.0
 13
481.8807466074
 23
218.2599041807
 33
0.0
  0
SOLID
  5
195
330
191
100
AcDbEntity
  8
DIM
100
AcDbTrace
 10
480.9663466074
 20
161.2035041807
 30
0.0
 11
481.8807466074
 21
167.1471041807
 31
0.0
 12
480.0519466074
 22
167.1471041807
 32
0.0
 13
480.0519466074
 23
167.1471041807
 33
0.0
  0
LINE
  5
196
330
191
100
AcDbEntity
  8
DIM
100
AcDbLine
 10
456.8373237888
 20
224.2035041807
 30
0.0
 11
482.7663466074
 21
224.2035041807
 31
0.0
  0
LINE
  5
197
330
191
100
AcDbEntity
  8
DIM
100
AcDbLine
 10
456.8373237888
 20
161.2035041807
 30
0.0
 11
482.7663466074
 21
161.2035041807
 31
0.0
  0
LINE
  5
198
330
191
100
AcDbEntity
  8
DIM
100
AcDbLine
 10
480.9663466074
 20
224.2035041807
 30
0.0
 11
480.9663466074
 21
161.2035041807
 31
0.0
  0
MTEXT
  5
199
330
191
100
AcDbEntity
  8
DIM
100
AcDbMText
 10
474.2132425666
 20
184.286950612
 30
0.0
 40
5.23875
 41
0.0
 71
     1
 72
     1
  1
%%c
  7
SLDTEXTSTYLE0
 11
-7.044195017643634E-15
 21
1.0
 31
0.0
 73
     1
 44
1.0
  0
MTEXT
  5
19A
330
191
100
AcDbEntity
  8
DIM
100
AcDbMText
 10
474.2132425665
 20
192.3880952313
 30
0.0
 40
5.23875
 41
0.0
 71
     1
 72
     1
  1
63
  7
SLDTEXTSTYLE0
 11
-7.044195017643634E-15
 21
1.0
 31
0.0
 73
     1
 44
1.0
  0
ENDBLK
  5
193
330
191
100
AcDbEntity
  8
0
100
AcDbBlockEnd
  0
ENDSEC
  0
SECTION
  2
ENTITIES
  0
LINE
  5
76
330
1F
100
AcDbEntity
  8
DIM
100
AcDbLine
 10
188.4679644402
 20
17.6237846223
 30
0.0
 11
188.4679644402
 21
8.6237846223
 31
0.0
  0
LINE
  5
77
330
1F
100
AcDbEntity
  8
DIM
100
AcDbLine
 10
458.0452830515
 20
17.6237846223
 30
0.0
 11
458.0452830515
 21
8.6237846223
 31
0.0
  0
LINE
  5
78
330
1F
100
AcDbEntity
  8
DIM
100
AcDbLine
 10
427.4130778768
 20
17.6237846223
 30
0.0
 11
427.4130778768
 21
8.6237846223
 31
0.0
  0
LINE
  5
79
330
1F
100
AcDbEntity
  8
DIM
100
AcDbLine
 10
502.0279644402
 20
8.6237846223
 30
0.0
 11
502.0279644402
 21
17.6237846223
 31
0.0
  0
LINE
  5
7A
330
1F
100
AcDbEntity
  8
DIM
100
AcDbLine
 10
202.5079644402
 20
17.6237846223
 30
0.0
 11
202.5079644402
 21
8.6237846223
 31
0.0
  0
LINE
  5
7B
330
1F
100
AcDbEntity
  8
DIM
100
AcDbLine
 10
237.051678821
 20
17.6237846223
 30
0.0
 11
237.051678821
 21
8.6237846223
 31
0.0
  0
LINE
  5
7C
330
1F
100
AcDbEntity
  8
DIM
100
AcDbLine
 10
525.4279644402
 20
8.6237846223
 30
0.0
 11
525.4279644402
 21
138.6737846223
 31
0.0
  0
LINE
  5
7D
330
1F
100
AcDbEntity
  8
DIM
100
AcDbLine
 10
514.4742084504
 20
108.0737846223
 30
0.0
 11
525.4279644402
 21
108.0737846223
 31
0.0
  0
LINE
  5
7E
330
1F
100
AcDbEntity
  8
DIM
100
AcDbLine
 10
268.3860315346
 20
16.2737846223
 30
0.0
 11
268.3860315346
 21
8.6237846223
 31
0.0
  0
LINE
  5
7F
330
1F
100
AcDbEntity
  8
DIM
100
AcDbLine
 10
354.1751084888
 20
17.6237846223
 30
0.0
 11
354.1751084888
 21
8.6237846223
 31
0.0
  0
LINE
  5
80
330
1F
100
AcDbEntity
  8
DIM
100
AcDbLine
 10
268.3860315346
 20
17.6237846223
 30
0.0
 11
268.3860315346
 21
16.2737846223
 31
0.0
  0
LINE
  5
81
330
1F
100
AcDbEntity
  8
DIM
100
AcDbLine
 10
516.4279644402
 20
31.5736550223
 30
0.0
 11
525.4279644402
 21
31.5736550223
 31
0.0
  0
LINE
  5
82
330
1F
100
AcDbEntity
  8
DIM
100
AcDbLine
 10
516.4279644402
 20
359.6237846223
 30
0.0
 11
17.8279644402
 21
359.6237846223
 31
0.0
  0
LINE
  5
83
330
1F
100
AcDbEntity
  8
DIM
100
AcDbLine
 10
525.4279644402
 20
368.6237846223
 30
0.0
 11
8.8279644402
 21
368.6237846223
 31
0.0
  0
LINE
  5
84
330
1F
100
AcDbEntity
  8
DIM
100
AcDbLine
 10
17.8279644402
 20
359.6237846223
 30
0.0
 11
17.8279644402
 21
17.6237846223
 31
0.0
  0
LINE
  5
85
330
1F
100
AcDbEntity
  8
DIM
100
AcDbLine
 10
8.8279644402
 20
368.6237846223
 30
0.0
 11
8.8279644402
 21
8.6237846223
 31
0.0
  0
LINE
  5
86
330
1F
100
AcDbEntity
  8
DIM
100
AcDbLine
 10
17.8279644402
 20
98.6237846223
 30
0.0
 11
8.8279644402
 21
98.6237846223
 31
0.0
  0
LINE
  5
87
330
1F
100
AcDbEntity
  8
DIM
100
AcDbLine
 10
8.8279644402
 20
188.6237846223
 30
0.0
 11
17.8279644402
 21
188.6237846223
 31
0.0
  0
LINE
  5
88
330
1F
100
AcDbEntity
  8
DIM
100
AcDbLine
 10
8.8279644402
 20
8.6237846223
 30
0.0
 11
525.4279644402
 21
8.6237846223
 31
0.0
  0
LINE
  5
89
330
1F
100
AcDbEntity
  8
DIM
100
AcDbLine
 10
17.8279644402
 20
17.6237846223
 30
0.0
 11
525.4279644402
 21
17.6237846223
 31
0.0
  0
LINE
  5
8A
330
1F
100
AcDbEntity
  8
DIM
100
AcDbLine
 10
87.1279644402
 20
8.6237846223
 30
0.0
 11
87.1279644402
 21
17.6237846223
 31
0.0
  0
LINE
  5
8B
330
1F
100
AcDbEntity
  8
DIM
100
AcDbLine
 10
177.1279644402
 20
17.6237846223
 30
0.0
 11
177.1279644402
 21
8.6237846223
 31
0.0
  0
LINE
  5
8C
330
1F
100
AcDbEntity
  8
DIM
100
AcDbLine
 10
17.8279644402
 20
278.6237846223
 30
0.0
 11
8.8279644402
 21
278.6237846223
 31
0.0
  0
LINE
  5
8D
330
1F
100
AcDbEntity
  8
DIM
100
AcDbLine
 10
87.1279644402
 20
359.6237846223
 30
0.0
 11
87.1279644402
 21
368.6237846223
 31
0.0
  0
LINE
  5
8E
330
1F
100
AcDbEntity
  8
DIM
100
AcDbLine
 10
177.1279644402
 20
368.6237846223
 30
0.0
 11
177.1279644402
 21
359.6237846223
 31
0.0
  0
LINE
  5
8F
330
1F
100
AcDbEntity
  8
DIM
100
AcDbLine
 10
267.1279644402
 20
368.6237846223
 30
0.0
 11
267.1279644402
 21
359.6237846223
 31
0.0
  0
LINE
  5
90
330
1F
100
AcDbEntity
  8
DIM
100
AcDbLine
 10
516.4279644402
 20
17.6237846223
 30
0.0
 11
516.4279644402
 21
359.6237846223
 31
0.0
  0
LINE
  5
91
330
1F
100
AcDbEntity
  8
DIM
100
AcDbLine
 10
525.4279644402
 20
138.6737846223
 30
0.0
 11
525.4279644402
 21
368.6237846223
 31
0.0
  0
LINE
  5
92
330
1F
100
AcDbEntity
  8
DIM
100
AcDbLine
 10
525.4279644402
 20
188.6237846223
 30
0.0
 11
516.4279644402
 21
188.6237846223
 31
0.0
  0
LINE
  5
93
330
1F
100
AcDbEntity
  8
DIM
100
AcDbLine
 10
357.1279644402
 20
368.6237846223
 30
0.0
 11
357.1279644402
 21
359.6237846223
 31
0.0
  0
LINE
  5
94
330
1F
100
AcDbEntity
  8
DIM
100
AcDbLine
 10
447.1279644402
 20
359.6237846223
 30
0.0
 11
447.1279644402
 21
368.6237846223
 31
0.0
  0
LINE
  5
95
330
1F
100
AcDbEntity
  8
DIM
100
AcDbLine
 10
516.4279644402
 20
278.6237846223
 30
0.0
 11
525.4279644402
 21
278.6237846223
 31
0.0
  0
MTEXT
  5
97
330
1F
100
AcDbEntity
  8
DIM
100
AcDbMText
 10
23.8693578155
 20
344.0089497786
 30
0.0
 40
7.62
 41
0.0
 71
     1
 72
     1
  1
SK 50 ER 40 160 AD+B/6.3G15000 SL
  7
SLDTEXTSTYLE0
 73
     1
 44
1.0
  0
MTEXT
  5
99
330
1F
100
AcDbEntity
  8
DIM
 62
     7
100
AcDbMText
 10
355.9190015639
 20
14.0435127473
 30
0.0
 40
2.69748
 41
0.0
 71
     1
 72
     1
  1
WEIGHT:
  7
SLDTEXTSTYLE1
 73
     1
 44
1.0
  0
MTEXT
  5
9A
330
1F
100
AcDbEntity
  8
DIM
 62
     7
100
AcDbMText
 10
519.4747381586
 20
147.4931043148
 30
0.0
 40
3.33375
 41
0.0
 71
     1
 72
     1
  1
C
  7
SLDTEXTSTYLE1
 73
     1
 44
1.0
  0
MTEXT
  5
9B
330
1F
100
AcDbEntity
  8
DIM
 62
     7
100
AcDbMText
 10
509.478445115
 20
26.7371675705
 30
0.0
 40
5.23875
 41
0.0
 71
     1
 72
     1
  1
A4
  7
SLDTEXTSTYLE1
 73
     1
 44
1.0
  0
MTEXT
  5
9C
330
1F
100
AcDbEntity
  8
DIM
 62
     7
100
AcDbMText
 10
490.6279716402
 20
366.2262141487
 30
0.0
 40
3.33375
 41
0.0
 71
     1
 72
     1
  1
6
  7
SLDTEXTSTYLE1
 73
     1
 44
1.0
  0
MTEXT
  5
9D
330
1F
100
AcDbEntity
  8
DIM
 62
     7
100
AcDbMText
 10
400.6279716402
 20
366.2262141487
 30
0.0
 40
3.33375
 41
0.0
 71
     1
 72
     1
  1
5
  7
SLDTEXTSTYLE1
 73
     1
 44
1.0
  0
MTEXT
  5
9E
330
1F
100
AcDbEntity
  8
DIM
 62
     7
100
AcDbMText
 10
519.4279788402
 20
325.7262141487
 30
0.0
 40
3.33375
 41
0.0
 71
     1
 72
     1
  1
A
  7
SLDTEXTSTYLE1
 73
     1
 44
1.0
  0
MTEXT
  5
9F
330
1F
100
AcDbEntity
  8
DIM
 62
     7
100
AcDbMText
 10
519.4279788402
 20
235.7262141487
 30
0.0
 40
3.33375
 41
0.0
 71
     1
 72
     1
  1
B
  7
SLDTEXTSTYLE1
 73
     1
 44
1.0
  0
MTEXT
  5
A0
330
1F
100
AcDbEntity
  8
DIM
 62
     7
100
AcDbMText
 10
310.6279716402
 20
366.2262141487
 30
0.0
 40
3.33375
 41
0.0
 71
     1
 72
     1
  1
4
  7
SLDTEXTSTYLE1
 73
     1
 44
1.0
  0
MTEXT
  5
A1
330
1F
100
AcDbEntity
  8
DIM
 62
     7
100
AcDbMText
 10
41.3779716402
 20
366.2262141487
 30
0.0
 40
3.33375
 41
0.0
 71
     1
 72
     1
  1
1
  7
SLDTEXTSTYLE1
 73
     1
 44
1.0
  0
MTEXT
  5
A2
330
1F
100
AcDbEntity
  8
DIM
 62
     7
100
AcDbMText
 10
130.6279716402
 20
366.2262141487
 30
0.0
 40
3.33375
 41
0.0
 71
     1
 72
     1
  1
2
  7
SLDTEXTSTYLE1
 73
     1
 44
1.0
  0
MTEXT
  5
A3
330
1F
100
AcDbEntity
  8
DIM
 62
     7
100
AcDbMText
 10
220.6279716402
 20
366.2262141487
 30
0.0
 40
3.33375
 41
0.0
 71
     1
 72
     1
  1
3
  7
SLDTEXTSTYLE1
 73
     1
 44
1.0
  0
MTEXT
  5
A4
330
1F
100
AcDbEntity
  8
DIM
 62
     7
100
AcDbMText
 10
11.8279644402
 20
325.7262141487
 30
0.0
 40
3.33375
 41
0.0
 71
     1
 72
     1
  1
A
  7
SLDTEXTSTYLE1
 73
     1
 44
1.0
  0
MTEXT
  5
A5
330
1F
100
AcDbEntity
  8
DIM
 62
     7
100
AcDbMText
 10
130.6279716402
 20
15.2262141487
 30
0.0
 40
3.33375
 41
0.0
 71
     1
 72
     1
  1
2
  7
SLDTEXTSTYLE1
 73
     1
 44
1.0
  0
MTEXT
  5
A6
330
1F
100
AcDbEntity
  8
DIM
 62
     7
100
AcDbMText
 10
41.3779716402
 20
15.2262141487
 30
0.0
 40
3.33375
 41
0.0
 71
     1
 72
     1
  1
1
  7
SLDTEXTSTYLE1
 73
     1
 44
1.0
  0
MTEXT
  5
A7
330
1F
100
AcDbEntity
  8
DIM
 62
     7
100
AcDbMText
 10
11.8279644402
 20
55.7262141487
 30
0.0
 40
3.33375
 41
0.0
 71
     1
 72
     1
  1
D
  7
SLDTEXTSTYLE1
 73
     1
 44
1.0
  0
MTEXT
  5
A8
330
1F
100
AcDbEntity
  8
DIM
 62
     7
100
AcDbMText
 10
11.8279644402
 20
145.7262141487
 30
0.0
 40
3.33375
 41
0.0
 71
     1
 72
     1
  1
C
  7
SLDTEXTSTYLE1
 73
     1
 44
1.0
  0
MTEXT
  5
A9
330
1F
100
AcDbEntity
  8
DIM
 62
     7
100
AcDbMText
 10
11.8279644402
 20
235.7262141487
 30
0.0
 40
3.33375
 41
0.0
 71
     1
 72
     1
  1
B
  7
SLDTEXTSTYLE1
 73
     1
 44
1.0
  0
MTEXT
  5
AA
330
1F
100
AcDbEntity
  8
DIM
 62
     7
100
AcDbMText
 10
519.4747381586
 20
147.4931043148
 30
0.0
 40
3.33375
 41
0.0
 71
     1
 72
     1
  1
C
  7
SLDTEXTSTYLE1
 73
     1
 44
1.0
  0
MTEXT
  5
AC
330
1F
100
AcDbEntity
  8
DIM
 62
     7
100
AcDbMText
 10
461.7456584625
 20
13.8439417165
 30
0.0
 40
2.7
 41
0.0
 71
     1
 72
     1
  1
SHEET 1 OF 1
  7
SLDTEXTSTYLE2
 73
     1
 44
1.0
  0
MTEXT
  5
AD
330
1F
100
AcDbEntity
  8
DIM
 62
     7
100
AcDbMText
 10
270.6692046902
 20
14.1360614706
 30
0.0
 40
2.7
 41
0.0
 71
     1
 72
     1
  1
MATERIAL:
  7
SLDTEXTSTYLE1
 73
     1
 44
1.0
  0
MTEXT
  5
AE
330
1F
100
AcDbEntity
  8
DIM
 62
     7
100
AcDbMText
 10
490.6279716402
 20
366.2262141487
 30
0.0
 40
3.33375
 41
0.0
 71
     1
 72
     1
  1
6
  7
SLDTEXTSTYLE1
 73
     1
 44
1.0
  0
MTEXT
  5
AF
330
1F
100
AcDbEntity
  8
DIM
 62
     7
100
AcDbMText
 10
400.6279716402
 20
366.2262141487
 30
0.0
 40
3.33375
 41
0.0
 71
     1
 72
     1
  1
5
  7
SLDTEXTSTYLE1
 73
     1
 44
1.0
  0
MTEXT
  5
B0
330
1F
100
AcDbEntity
  8
DIM
 62
     7
100
AcDbMText
 10
519.4279788402
 20
325.7262141487
 30
0.0
 40
3.33375
 41
0.0
 71
     1
 72
     1
  1
A
  7
SLDTEXTSTYLE1
 73
     1
 44
1.0
  0
MTEXT
  5
B1
330
1F
100
AcDbEntity
  8
DIM
 62
     7
100
AcDbMText
 10
519.4279788402
 20
235.7262141487
 30
0.0
 40
3.33375
 41
0.0
 71
     1
 72
     1
  1
B
  7
SLDTEXTSTYLE1
 73
     1
 44
1.0
  0
MTEXT
  5
B2
330
1F
100
AcDbEntity
  8
DIM
 62
     7
100
AcDbMText
 10
310.6279716402
 20
366.2262141487
 30
0.0
 40
3.33375
 41
0.0
 71
     1
 72
     1
  1
4
  7
SLDTEXTSTYLE1
 73
     1
 44
1.0
  0
MTEXT
  5
B3
330
1F
100
AcDbEntity
  8
DIM
 62
     7
100
AcDbMText
 10
41.3779716402
 20
366.2262141487
 30
0.0
 40
3.33375
 41
0.0
 71
     1
 72
     1
  1
1
  7
SLDTEXTSTYLE1
 73
     1
 44
1.0
  0
MTEXT
  5
B4
330
1F
100
AcDbEntity
  8
DIM
 62
     7
100
AcDbMText
 10
130.6279716402
 20
366.2262141487
 30
0.0
 40
3.33375
 41
0.0
 71
     1
 72
     1
  1
2
  7
SLDTEXTSTYLE1
 73
     1
 44
1.0
  0
MTEXT
  5
B5
330
1F
100
AcDbEntity
  8
DIM
 62
     7
100
AcDbMText
 10
220.6279716402
 20
366.2262141487
 30
0.0
 40
3.33375
 41
0.0
 71
     1
 72
     1
  1
3
  7
SLDTEXTSTYLE1
 73
     1
 44
1.0
  0
MTEXT
  5
B6
330
1F
100
AcDbEntity
  8
DIM
 62
     7
100
AcDbMText
 10
11.8279644402
 20
325.7262141487
 30
0.0
 40
3.33375
 41
0.0
 71
     1
 72
     1
  1
A
  7
SLDTEXTSTYLE1
 73
     1
 44
1.0
  0
MTEXT
  5
B7
330
1F
100
AcDbEntity
  8
DIM
 62
     7
100
AcDbMText
 10
130.6279716402
 20
15.2262141487
 30
0.0
 40
3.33375
 41
0.0
 71
     1
 72
     1
  1
2
  7
SLDTEXTSTYLE1
 73
     1
 44
1.0
  0
MTEXT
  5
B8
330
1F
100
AcDbEntity
  8
DIM
 62
     7
100
AcDbMText
 10
41.3779716402
 20
15.2262141487
 30
0.0
 40
3.33375
 41
0.0
 71
     1
 72
     1
  1
1
  7
SLDTEXTSTYLE1
 73
     1
 44
1.0
  0
MTEXT
  5
B9
330
1F
100
AcDbEntity
  8
DIM
 62
     7
100
AcDbMText
 10
11.8279644402
 20
55.7262141487
 30
0.0
 40
3.33375
 41
0.0
 71
     1
 72
     1
  1
D
  7
SLDTEXTSTYLE1
 73
     1
 44
1.0
  0
MTEXT
  5
BA
330
1F
100
AcDbEntity
  8
DIM
 62
     7
100
AcDbMText
 10
11.8279644402
 20
145.7262141487
 30
0.0
 40
3.33375
 41
0.0
 71
     1
 72
     1
  1
C
  7
SLDTEXTSTYLE1
 73
     1
 44
1.0
  0
MTEXT
  5
BB
330
1F
100
AcDbEntity
  8
DIM
 62
     7
100
AcDbMText
 10
11.8279644402
 20
235.7262141487
 30
0.0
 40
3.33375
 41
0.0
 71
     1
 72
     1
  1
B
  7
SLDTEXTSTYLE1
 73
     1
 44
1.0
  0
SPLINE
  5
BC
330
1F
100
AcDbEntity
  8
0
  6
Continuous
 62
     7
370
    15
100
AcDbSpline
210
0.0
220
0.0
230
1.0
 70
     8
 71
     3
 72
    14
 73
    10
 74
     0
 42
0.000000001
 43
0.00000001
 40
0.0
 40
0.0
 40
0.0
 40
0.0
 40
0.25
 40
0.25
 40
0.5
 40
0.5
 40
0.75
 40
0.75
 40
1.0
 40
1.0
 40
1.0
 40
1.0
 10
109.4628016173809
 20
192.7035041807422
 30
0.0
 10
109.4628016173809
 20
187.6057698039678
 30
0.0
 10
107.437575191312
 20
182.7164406992758
 30
0.0
 10
100.228290098302
 20
175.5071556062658
 30
0.0
 10
95.33896099360997
 20
173.4819291801969
 30
0.0
 10
85.1434922400611
 20
173.4819291801969
 30
0.0
 10
80.25416313536907
 20
175.5071556062658
 30
0.0
 10
73.04487804235909
 20
182.7164406992758
 30
0.0
 10
71.01965161629016
 20
187.6057698039678
 30
0.0
 10
71.01965161629015
 20
192.7035041807422
 30
0.0
  0
SPLINE
  5
BD
330
1F
100
AcDbEntity
  8
0
  6
Continuous
 62
     7
370
    15
100
AcDbSpline
210
0.0
220
0.0
230
1.0
 70
     8
 71
     3
 72
    14
 73
    10
 74
     0
 42
0.000000001
 43
0.00000001
 40
0.0
 40
0.0
 40
0.0
 40
0.0
 40
0.25
 40
0.25
 40
0.5
 40
0.5
 40
0.75
 40
0.75
 40
1.0
 40
1.0
 40
1.0
 40
1.0
 10
71.01965161629015
 20
192.7035041807422
 30
0.0
 10
71.01965161629015
 20
197.8012385575167
 30
0.0
 10
73.04487804235907
 20
202.6905676622087
 30
0.0
 10
80.25416313536905
 20
209.8998527552187
 30
0.0
 10
85.1434922400611
 20
211.9250791812877
 30
0.0
 10
95.33896099360997
 20
211.9250791812877
 30
0.0
 10
100.228290098302
 20
209.8998527552187
 30
0.0
 10
107.437575191312
 20
202.6905676622087
 30
0.0
 10
109.4628016173809
 20
197.8012385575167
 30
0.0
 10
109.4628016173809
 20
192.7035041807422
 30
0.0
  0
CIRCLE
  5
BE
330
1F
100
AcDbEntity
  8
0
  6
Continuous
 62
     7
370
    15
100
AcDbCircle
 10
90.2412266168
 20
192.7035041807
 30
0.0
 40
20.21110778703758
  0
CIRCLE
  5
BF
330
1F
100
AcDbEntity
  8
0
  6
Continuous
 62
     7
370
    15
100
AcDbCircle
 10
90.2412266168
 20
192.7035041807
 30
0.0
 40
34.925
  0
SPLINE
  5
C0
330
1F
100
AcDbEntity
  8
0
  6
Continuous
 62
     7
370
    15
100
AcDbSpline
210
0.0
220
0.0
230
1.0
 70
     8
 71
     3
 72
    52
 73
    48
 74
     0
 42
0.000000001
 43
0.00000001
 40
0.0
 40
0.0
 40
0.0
 40
0.0
 40
0.0053074994726554
 40
0.0106084744807156
 40
0.0159043870752884
 40
0.0211967035030982
 40
0.0264868930010475
 40
0.031776426578386
 40
0.0370667757915106
 40
0.0423594115164833
 40
0.0476558027243854
 40
0.0529574152645906
 40
0.0582657106609693
 40
0.0891348494758177
 40
0.1200087595578935
 40
0.1521645941108524
 40
0.1843252192282218
 40
0.2171652710885947
 40
0.2500102154523581
 40
0.2828502674523063
 40
0.3156952119562962
 40
0.3478510468948057
 40
0.380011672397905
 40
0.4108808109142898
 40
0.4417547207534483
 40
0.470875333637603
 40
0.5000007798720159
 40
0.5291213927975412
 40
0.5582468390472084
 40
0.5891159778617261
 40
0.6199898879441322
 40
0.652145722497098
 40
0.6843063476144644
 40
0.7171463994755694
 40
0.7499913438386044
 40
0.7828313958395676
 40
0.8156763403425417
 40
0.8478321752819549
 40
0.8799928007841501
 40
0.9108619393016738
 40
0.941735849139696
 40
0.9514609652020397
 40
0.9611682412334405
 40
0.9708667191333772
 40
0.9805654654081966
 40
0.9902735458123287
 40
1.0
 40
1.0
 40
1.0
 40
1.0
 10
55.24122661683553
 20
192.7035041807422
 30
0.0
 10
55.24215464774598
 20
192.8979663387952
 30
0.0
 10
55.24400956874629
 20
193.2866516042009
 30
0.0
 10
55.25903860309792
 20
193.8692145742224
 30
0.0
 10
55.2830372321323
 20
194.4509004615918
 30
0.0
 10
55.31688153621541
 20
195.0317091564089
 30
0.0
 10
55.36033707794901
 20
195.6116405048281
 30
0.0
 10
55.41346663901506
 20
196.1906944252528
 30
0.0
 10
55.47625330873726
 20
196.7688705893894
 30
0.0
 10
55.54870190125383
 20
197.3461695867578
 30
0.0
 10
55.63080993874684
 20
197.9225885869053
 30
0.0
 10
55.7225823407405
 20
198.4981375484834
 30
0.0
 10
55.9867218423739
 20
199.9947501519972
 30
0.0
 10
56.55048959527931
 20
202.3904570131652
 30
0.0
 10
57.66310677561804
 20
205.6513281192177
 30
0.0
 10
59.11027299115863
 20
208.8312170015114
 30
0.0
 10
60.90944862056534
 20
211.9097159332671
 30
0.0
 10
63.0258691961257
 20
214.811175841304
 30
0.0
 10
65.44875438964081
 20
217.4957228172979
 30
0.0
 10
68.13341486825928
 20
219.9187479922444
 30
0.0
 10
71.03471500781957
 20
222.0350872283215
 30
0.0
 10
74.11336810584656
 20
223.8343794204405
 30
0.0
 10
77.29303153985488
 20
225.2814875536478
 30
0.0
 10
80.55426783786122
 20
226.3942173706528
 30
0.0
 10
83.80001213659523
 20
227.1581048560489
 30
0.0
 10
87.03887825475114
 20
227.6063828560594
 30
0.0
 10
90.241049644681
 20
227.7520607208996
 30
0.0
 10
93.44339711532727
 20
227.606399343451
 30
0.0
 10
96.68209537504119
 20
227.15816915099
 30
0.0
 10
99.92801598461423
 20
226.3942670918672
 30
0.0
 10
103.1890963851737
 20
225.2816167625085
 30
0.0
 10
106.3689269536288
 20
223.8344597874531
 30
0.0
 10
109.4474417938388
 20
222.035281620224
 30
0.0
 10
112.3488973499654
 20
219.9188618033765
 30
0.0
 10
115.0334455079749
 20
217.4959761622661
 30
0.0
 10
117.4564703375576
 20
214.8113167097806
 30
0.0
 10
119.5728097717226
 20
211.9100129384278
 30
0.0
 10
121.3721015243607
 20
208.8313730758457
 30
0.0
 10
122.8192111937203
 20
205.6516611304219
 30
0.0
 10
123.9319355173836
 20
202.3905989207466
 30
0.0
 10
124.5327814494264
 20
199.8371848353924
 30
0.0
 10
124.8407215289456
 20
198.0197651297908
 30
0.0
 10
124.9868606398681
 20
196.9623183915622
 30
0.0
 10
125.1006666671292
 20
195.9018811381874
 30
0.0
 10
125.1813619879358
 20
194.8384271640353
 30
0.0
 10
125.2318835233514
 20
193.7719667953009
 30
0.0
 10
125.2381102900391
 20
193.0598827915752
 30
0.0
 10
125.2412266168355
 20
192.7035041807422
 30
0.0
  0
SPLINE
  5
C1
330
1F
100
AcDbEntity
  8
0
  6
Continuous
 62
     7
370
    15
100
AcDbSpline
210
0.0
220
0.0
230
1.0
 70
     8
 71
     3
 72
    52
 73
    48
 74
     0
 42
0.000000001
 43
0.00000001
 40
0.0
 40
0.0
 40
0.0
 40
0.0
 40
0.0053074994726554
 40
0.0106084744807156
 40
0.0159043870752884
 40
0.0211967035030983
 40
0.0264868930010475
 40
0.0317764265783861
 40
0.0370667757915106
 40
0.0423594115164834
 40
0.0476558027243854
 40
0.0529574152645907
 40
0.0582657106609694
 40
0.0891348494759667
 40
0.1200087595578951
 40
0.1521645941111445
 40
0.1843252192282232
 40
0.2171652710889209
 40
0.25001021545236
 40
0.2828502674525652
 40
0.315695211956297
 40
0.3478510468951538
 40
0.3800116723979077
 40
0.41088081091547
 40
0.4417547207534571
 40
0.4708753336379863
 40
0.5000007798720127
 40
0.5291213927971703
 40
0.5582468390472111
 40
0.5891159778626601
 40
0.6199898879441411
 40
0.6521457224976949
 40
0.6843063476144631
 40
0.7171463994753853
 40
0.7499913438386053
 40
0.7828313958393156
 40
0.8156763403425399
 40
0.8478321752809374
 40
0.8799928007841432
 40
0.9108619393011222
 40
0.9417358491396983
 40
0.9514609652021586
 40
0.9611682412336295
 40
0.9708667191335897
 40
0.9805654654083855
 40
0.9902735458124469
 40
1.0
 40
1.0
 40
1.0
 40
1.0
 10
125.2412266168355
 20
192.7035041807422
 30
0.0
 10
125.2402985859251
 20
192.5090420226893
 30
0.0
 10
125.2384436649248
 20
192.1203567572836
 30
0.0
 10
125.2234146305731
 20
191.5377937872621
 30
0.0
 10
125.1994160015388
 20
190.9561078998927
 30
0.0
 10
125.1655716974557
 20
190.3752992050756
 30
0.0
 10
125.122116155722
 20
189.7953678566564
 30
0.0
 10
125.068986594656
 20
189.2163139362318
 30
0.0
 10
125.0061999249338
 20
188.6381377720951
 30
0.0
 10
124.9337513324172
 20
188.0608387747267
 30
0.0
 10
124.8516432949242
 20
187.4844197745792
 30
0.0
 10
124.7598708929306
 20
186.9088708130011
 30
0.0
 10
124.4957313912961
 20
185.412258209482
 30
0.0
 10
123.931963638393
 20
183.0165513483132
 30
0.0
 10
122.8193464580466
 20
179.7556802422521
 30
0.0
 10
121.3721802425076
 20
176.5757913599635
 30
0.0
 10
119.5730046130933
 20
173.4972924281986
 30
0.0
 10
117.4565840375383
 20
170.5958325201708
 30
0.0
 10
115.0336988440153
 20
167.9112855441714
 30
0.0
 10
112.3490383654032
 20
165.4882603692354
 30
0.0
 10
109.4477382258328
 20
163.3719211331514
 30
0.0
 10
106.369085127815
 20
161.5726289410342
 30
0.0
 10
103.1894216937636
 20
160.1255208078181
 30
0.0
 10
99.92818539577124
 20
159.0127909908101
 30
0.0
 10
96.68244109702005
 20
158.2489035054227
 30
0.0
 10
93.4435749789038
 20
157.800625505447
 30
0.0
 10
90.24140358899
 20
157.6549476405831
 30
0.0
 10
87.0390561183561
 20
157.8006090180216
 30
0.0
 10
83.8003578586104
 20
158.2488392105015
 30
0.0
 10
80.55443724902103
 20
159.012741269616
 30
0.0
 10
77.2933568484451
 20
160.1253915989961
 30
0.0
 10
74.11352628003094
 20
161.5725485740569
 30
0.0
 10
71.03501143981846
 20
163.3717267412665
 30
0.0
 10
68.13355588370965
 20
165.4881465581023
 30
0.0
 10
65.44900772570693
 20
167.9110321992066
 30
0.0
 10
63.02598289612359
 20
170.5956916517
 30
0.0
 10
60.909643461972
 20
173.4969954230168
 30
0.0
 10
59.11035170933532
 20
176.5756352856098
 30
0.0
 10
57.66324203997335
 20
179.7553472310098
 30
0.0
 10
56.55051771627664
 20
183.0164094407137
 30
0.0
 10
55.94967178424613
 20
185.5698235260762
 30
0.0
 10
55.64173170472591
 20
187.3872432317051
 30
0.0
 10
55.49559259380329
 20
188.4446899699414
 30
0.0
 10
55.38178656654213
 20
189.5051272233188
 30
0.0
 10
55.30109124573549
 20
190.5685811974683
 30
0.0
 10
55.25056971031969
 20
191.6350415661949
 30
0.0
 10
55.24434294363198
 20
192.3471255699137
 30
0.0
 10
55.24122661683553
 20
192.7035041807422
 30
0.0
  0
ARC
  5
C2
330
1F
100
AcDbEntity
  8
0
  6
Continuous
 62
     7
370
    15
100
AcDbCircle
 10
90.2412266168
 20
192.7035041807
 30
0.0
 40
47.58431457505075
100
AcDbArc
 50
253.4556342686
 51
286.5443657314
  0
SPLINE
  5
C3
330
1F
100
AcDbEntity
  8
0
  6
Continuous
 62
     7
370
    15
100
AcDbSpline
210
0.0
220
0.0
230
1.0
 70
     8
 71
     3
 72
    10
 73
     6
 74
     0
 42
0.000000001
 43
0.00000001
 40
0.0
 40
0.0
 40
0.0
 40
0.0
 40
0.5
 40
0.5
 40
1.0
 40
1.0
 40
1.0
 40
1.0
 10
103.7912266168355
 20
147.0892027657541
 30
0.0
 10
103.7912266168355
 20
147.025251076911
 30
0.0
 10
103.7773807408107
 20
146.9636867384598
 30
0.0
 10
103.7352149646234
 20
146.8530613876109
 30
0.0
 10
103.7067242643603
 20
146.8033746959414
 30
0.0
 10
103.6740693293102
 20
146.7598051192756
 30
0.0
  0
ARC
  5
C4
330
1F
100
AcDbEntity
  8
0
  6
Continuous
 62
     7
370
    15
100
AcDbCircle
 10
90.2412266168
 20
192.7035041807
 30
0.0
 40
47.86715728752537
100
AcDbArc
 50
253.7023380383
 51
286.2976619617
  0
SPLINE
  5
C5
330
1F
100
AcDbEntity
  8
0
  6
Continuous
 62
     7
370
    15
100
AcDbSpline
210
0.0
220
0.0
230
1.0
 70
     8
 71
     3
 72
    10
 73
     6
 74
     0
 42
0.000000001
 43
0.00000001
 40
0.0
 40
0.0
 40
0.0
 40
0.0
 40
0.5
 40
0.5
 40
1.0
 40
1.0
 40
1.0
 40
1.0
 10
76.80838390436092
 20
146.7598051192756
 30
0.0
 10
76.77575084334362
 20
146.8033455106943
 30
0.0
 10
76.7477699570774
 20
146.8519001148121
 30
0.0
 10
76.7051131067024
 20
146.963349650574
 30
0.0
 10
76.69122661683555
 20
147.0253079031631
 30
0.0
 10
76.69122661683555
 20
147.0892027657541
 30
0.0
  0
ARC
  5
C6
330
1F
100
AcDbEntity
  8
0
  6
Continuous
 62
     7
370
    15
100
AcDbCircle
 10
90.2412266168
 20
192.7035041807
 30
0.0
 40
47.58431457505078
100
AcDbArc
 50
73.4556342686
 51
106.5443657314
  0
SPLINE
  5
C7
330
1F
100
AcDbEntity
  8
0
  6
Continuous
 62
     7
370
    15
100
AcDbSpline
210
0.0
220
0.0
230
1.0
 70
     8
 71
     3
 72
    10
 73
     6
 74
     0
 42
0.000000001
 43
0.00000001
 40
0.0
 40
0.0
 40
0.0
 40
0.0
 40
0.5
 40
0.5
 40
1.0
 40
1.0
 40
1.0
 40
1.0
 10
76.69122661683554
 20
238.3178055957304
 30
0.0
 10
76.69122661683554
 20
238.3817572845735
 30
0.0
 10
76.70507249286037
 20
238.4433216230246
 30
0.0
 10
76.74723826904771
 20
238.5539469738737
 30
0.0
 10
76.7757289693108
 20
238.6036336655431
 30
0.0
 10
76.8083839043609
 20
238.6472032422089
 30
0.0
  0
ARC
  5
C8
330
1F
100
AcDbEntity
  8
0
  6
Continuous
 62
     7
370
    15
100
AcDbCircle
 10
90.2412266168
 20
192.7035041807
 30
0.0
 40
47.86715728752537
100
AcDbArc
 50
73.7023380383
 51
106.2976619617
  0
SPLINE
  5
C9
330
1F
100
AcDbEntity
  8
0
  6
Continuous
 62
     7
370
    15
100
AcDbSpline
210
0.0
220
0.0
230
1.0
 70
     8
 71
     3
 72
    10
 73
     6
 74
     0
 42
0.000000001
 43
0.00000001
 40
0.0
 40
0.0
 40
0.0
 40
0.0
 40
0.5
 40
0.5
 40
1.0
 40
1.0
 40
1.0
 40
1.0
 10
103.6740693293102
 20
238.6472032422089
 30
0.0
 10
103.7067023903275
 20
238.6036628507901
 30
0.0
 10
103.7346832765937
 20
238.5551082466725
 30
0.0
 10
103.7773401269687
 20
238.4436587109106
 30
0.0
 10
103.7912266168355
 20
238.3817004583214
 30
0.0
 10
103.7912266168355
 20
238.3178055957304
 30
0.0
  0
ARC
  5
CA
330
1F
100
AcDbEntity
  8
0
  6
Continuous
 62
     7
370
    15
100
AcDbCircle
 10
90.2412266168
 20
192.7035041807
 30
0.0
 40
47.86715728752537
100
AcDbArc
 50
218.8096103904
 51
231.1903896096
  0
SPLINE
  5
CB
330
1F
100
AcDbEntity
  8
0
  6
Continuous
 62
     7
370
    15
100
AcDbSpline
210
0.0
220
0.0
230
1.0
 70
    24
 71
     3
 72
     8
 73
     4
 74
     0
 42
0.000000001
 43
0.00000001
 40
0.0
 40
0.0
 40
0.0
 40
0.0
 40
1.0
 40
1.0
 40
1.0
 40
1.0
 10
53.3052415402549
 20
162.7035041807423
 30
0.0
 10
53.17453739064802
 20
162.7035041807423
 30
0.0
 10
53.04500042363184
 20
162.7035041807422
 30
0.0
 10
52.94156513326851
 20
162.7035041807422
 30
0.0
  0
ARC
  5
CC
330
1F
100
AcDbEntity
  8
0
  6
Continuous
 62
     7
370
    15
100
AcDbCircle
 10
90.2412266168
 20
192.7035041807
 30
0.0
 40
47.58431457505075
100
AcDbArc
 50
219.0840578538
 51
230.9159421462
  0
SPLINE
  5
CD
330
1F
100
AcDbEntity
  8
0
  6
Continuous
 62
     7
370
    15
100
AcDbSpline
210
0.0
220
0.0
230
1.0
 70
    24
 71
     3
 72
     8
 73
     4
 74
     0
 42
0.000000001
 43
0.00000001
 40
0.0
 40
0.0
 40
0.0
 40
0.0
 40
1.0
 40
1.0
 40
1.0
 40
1.0
 10
60.24122661683554
 20
155.7675191041616
 30
0.0
 10
60.24122661683554
 20
155.6368149545547
 30
0.0
 10
60.24122661683553
 20
155.5072779875386
 30
0.0
 10
60.24122661683553
 20
155.4038426971752
 30
0.0
  0
SPLINE
  5
CE
330
1F
100
AcDbEntity
  8
0
  6
Continuous
 62
     7
370
    15
100
AcDbSpline
210
0.0
220
0.0
230
1.0
 70
     8
 71
     3
 72
    40
 73
    36
 74
     0
 42
0.000000001
 43
0.00000001
 40
0.0
 40
0.0
 40
0.0
 40
0.0
 40
0.0076138096091589
 40
0.0152227036967704
 40
0.0228283796624005
 40
0.0304325370606624
 40
0.0380368764643598
 40
0.0456430983242198
 40
0.0532529018290356
 40
0.060867983770033
 40
0.0919930035864015
 40
0.1231236538966442
 40
0.1547321881297862
 40
0.1863461940165441
 40
0.2182020912745047
 40
0.250063503003077
 40
0.3137495787501981
 40
0.3769416086590413
 40
0.4391681485651284
 40
0.5000004350472893
 40
0.5608327215294504
 40
0.6230592614355374
 40
0.6862512913443808
 40
0.7499373670915017
 40
0.7817932643678124
 40
0.8136546761204095
 40
0.8452632104141178
 40
0.8768772163635383
 40
0.9080022357785013
 40
0.9391328857746202
 40
0.9513123423169165
 40
0.9634818178562747
 40
0.9756482751527068
 40
0.9878186821464897
 40
0.9999999999999999
 40
0.9999999999999999
 40
0.9999999999999999
 40
0.9999999999999999
 10
76.69122661683554
 20
238.3178055957304
 30
0.0
 10
76.46421385911023
 20
238.2493061848973
 30
0.0
 10
76.01033490446943
 20
238.1123515868652
 30
0.0
 10
75.3336676832935
 20
237.8941214977266
 30
0.0
 10
74.6603969827232
 20
237.66662587633
 30
0.0
 10
73.99079745193184
 20
237.4289409121616
 30
0.0
 10
73.3247953115826
 20
237.1813137661202
 30
0.0
 10
72.66241177656715
 20
236.9236793360698
 30
0.0
 10
72.00363634155995
 20
236.6560511557237
 30
0.0
 10
70.67453260637858
 20
236.0928585057576
 30
0.0
 10
68.70323183497791
 20
235.1678398335794
 30
0.0
 10
66.13638675552157
 20
233.7654271211254
 30
0.0
 10
63.64743692903403
 20
232.199887513031
 30
0.0
 10
61.24240751688825
 20
230.4693760576678
 30
0.0
 10
58.94329715920222
 20
228.5877216205026
 30
0.0
 10
56.03470328522857
 20
225.8858918534302
 30
0.0
 10
52.73412443885428
 20
222.1865281159716
 30
0.0
 10
49.38207512127524
 20
217.3262512108382
 30
0.0
 10
46.69376433229981
 20
212.1699635099822
 30
0.0
 10
44.67313566502669
 20
206.7967996944715
 30
0.0
 10
43.30748926373091
 20
201.2210630212047
 30
0.0
 10
42.61538253317963
 20
195.4473894740698
 30
0.0
 10
42.63823646590291
 20
189.5433228193961
 30
0.0
 10
43.27398747794939
 20
184.6266950940527
 30
0.0
 10
44.14936250416874
 20
180.7545493021009
 30
0.0
 10
44.98466828948373
 20
177.9036218506412
 30
0.0
 10
45.99283428018385
 20
175.1173240324704
 30
0.0
 10
47.16327467469734
 20
172.4201386025323
 30
0.0
 10
48.4902599874779
 20
169.8132958710013
 30
0.0
 10
49.66728001503827
 20
167.8143239452909
 30
0.0
 10
50.60635370070379
 20
166.3638597113946
 30
0.0
 10
51.2469955040619
 20
165.4241274533703
 30
0.0
 10
51.91017724535656
 20
164.5005653768737
 30
0.0
 10
52.59399243324255
 20
163.5916088927923
 30
0.0
 10
53.06808769800587
 20
162.9996274977427
 30
0.0
 10
53.30524154025488
 20
162.7035041807423
 30
0.0
  0
SPLINE
  5
CF
330
1F
100
AcDbEntity
  8
0
  6
Continuous
 62
     7
370
    15
100
AcDbSpline
210
0.0
220
0.0
230
1.0
 70
     8
 71
     3
 72
    36
 73
    32
 74
     0
 42
0.000000001
 43
0.00000001
 40
0.0
 40
0.0
 40
0.0
 40
0.0
 40
0.010867092798112
 40
0.021724865130392
 40
0.0325754130168938
 40
0.0434208366663277
 40
0.0542632392651492
 40
0.065104725758013
 40
0.0759474016231196
 40
0.086793371646007
 40
0.0976447386953594
 40
0.108503602504385
 40
0.1193720584612793
 40
0.1813968118534446
 40
0.2434299656516118
 40
0.3071319153763559
 40
0.3708424926864515
 40
0.4354174331816658
 40
0.500001119503481
 40
0.5645760601028219
 40
0.6291597465272444
 40
0.6928616965449617
 40
0.7565722741492541
 40
0.8185970279746905
 40
0.880630182218889
 40
0.9005456108401859
 40
0.9204355762660236
 40
0.9403130274594478
 40
0.9601909378397625
 40
0.9800822799278064
 40
0.9999999999999999
 40
0.9999999999999999
 40
0.9999999999999999
 40
0.9999999999999999
 10
137.8255411918863
 20
192.7035041807422
 30
0.0
 10
137.8246578645895
 20
192.924441980998
 30
0.0
 10
137.8228919676064
 20
193.3661280880307
 30
0.0
 10
137.8085915895676
 20
194.0282882159494
 30
0.0
 10
137.7857587658011
 20
194.6897524506342
 30
0.0
 10
137.7535590749387
 20
195.3505207318154
 30
0.0
 10
137.7122158975218
 20
196.0105929710746
 30
0.0
 10
137.66166940128
 20
196.6699691346263
 30
0.0
 10
137.6019356771505
 20
197.3286489976786
 30
0.0
 10
137.5330102099009
 20
197.9866330461773
 30
0.0
 10
137.4548950311992
 20
198.6439191154831
 30
0.0
 10
137.3675866125235
 20
199.3005149454342
 30
0.0
 10
137.1197539890951
 20
200.9851296345479
 30
0.0
 10
136.5941079689288
 20
203.6808582996103
 30
0.0
 10
135.5657173233622
 20
207.3610059680855
 30
0.0
 10
134.233767410863
 20
210.9795785898234
 30
0.0
 10
132.5878415230499
 20
214.5235818509263
 30
0.0
 10
130.6488204634518
 20
217.936952240713
 30
0.0
 10
128.4228454829316
 20
221.1918306651289
 30
0.0
 10
125.936490206249
 20
224.2526520121404
 30
0.0
 10
123.2167224123663
 20
227.0832691018691
 30
0.0
 10
120.288014074323
 20
229.6703709176135
 30
0.0
 10
117.1986880751903
 20
231.9775009836811
 30
0.0
 10
113.9635870270152
 20
234.0114052983658
 30
0.0
 10
111.3659751573011
 20
235.3681094069374
 30
0.0
 10
109.4830877273037
 20
236.2295434023782
 30
0.0
 10
108.3670327529435
 20
236.7060901959466
 30
0.0
 10
107.2399386179503
 20
237.1538367253351
 30
0.0
 10
106.101573694265
 20
237.5720758660816
 30
0.0
 10
104.9527422129058
 20
237.9634890704197
 30
0.0
 10
104.1785694743828
 20
238.1996479266863
 30
0.0
 10
103.7912266168355
 20
238.3178055957304
 30
0.0
  0
SPLINE
  5
D0
330
1F
100
AcDbEntity
  8
0
  6
Continuous
 62
     7
370
    15
100
AcDbSpline
210
0.0
220
0.0
230
1.0
 70
     8
 71
     3
 72
    36
 73
    32
 74
     0
 42
0.000000001
 43
0.00000001
 40
0.0
 40
0.0
 40
0.0
 40
0.0
 40
0.0108670927976138
 40
0.0217248651294953
 40
0.0325754130156982
 40
0.0434208366649332
 40
0.0542632392636552
 40
0.065104725756519
 40
0.0759474016217247
 40
0.0867933716448104
 40
0.0976447386944597
 40
0.1085036025038803
 40
0.1193720584612676
 40
0.1813968118522707
 40
0.2434299656516123
 40
0.3071319153785467
 40
0.3708424926864622
 40
0.4354174331848614
 40
0.5000011195034882
 40
0.5645760601040033
 40
0.6291597465272422
 40
0.6928616965456248
 40
0.7565722741492584
 40
0.8185970279756692
 40
0.8806301822188896
 40
0.9005456108402741
 40
0.9204355762661642
 40
0.9403130274596062
 40
0.9601909378399034
 40
0.9800822799278944
 40
1.0
 40
1.0
 40
1.0
 40
1.0
 10
103.7912266168356
 20
147.0892027657541
 30
0.0
 10
104.0027659532616
 20
147.152963262842
 30
0.0
 10
104.4256631934922
 20
147.2804295710461
 30
0.0
 10
105.0563374357155
 20
147.4826931020675
 30
0.0
 10
105.6839149153948
 20
147.6929376705669
 30
0.0
 10
106.3081579668455
 20
147.9119631353105
 30
0.0
 10
106.9291301146392
 20
148.1395553386394
 30
0.0
 10
107.5468142886892
 20
148.3757716261189
 30
0.0
 10
108.1612148555285
 20
148.6205965089728
 30
0.0
 10
108.7723309952373
 20
148.874034453878
 30
0.0
 10
109.3801612113266
 20
149.1360828968803
 30
0.0
 10
109.9847119184276
 20
149.4067474243981
 30
0.0
 10
111.5290105135877
 20
150.1240266649874
 30
0.0
 10
113.9634529831932
 20
151.3955401868965
 30
0.0
 10
117.1983986397629
 20
153.4293053604239
 30
0.0
 10
120.2878776468653
 20
155.7365283347068
 30
0.0
 10
123.2164674234321
 20
158.3234943306141
 30
0.0
 10
125.9363714841961
 20
161.1542225032449
 30
0.0
 10
128.4226328833918
 20
164.2148927609968
 30
0.0
 10
130.6487259656272
 20
167.4699042001349
 30
0.0
 10
132.5876793442542
 20
170.8831123328035
 30
0.0
 10
134.2337016676464
 20
174.4272679226536
 30
0.0
 10
135.5656060885645
 20
178.0456674147443
 30
0.0
 10
136.5940858658406
 20
181.7260036630818
 30
0.0
 10
137.1549317988603
 20
184.6024051133872
 30
0.0
 10
137.4445353239618
 20
186.6526400757077
 30
0.0
 10
137.5835476064057
 20
187.8581902146867
 30
0.0
 10
137.6918084832489
 20
189.0661213908151
 30
0.0
 10
137.7685741474441
 20
190.2764542835052
 30
0.0
 10
137.8166440488074
 20
191.4891815214558
 30
0.0
 10
137.8225741677363
 20
192.2985511948129
 30
0.0
 10
137.8255411918863
 20
192.7035041807422
 30
0.0
  0
SPLINE
  5
D1
330
1F
100
AcDbEntity
  8
0
  6
Continuous
 62
     7
370
    15
100
AcDbSpline
210
0.0
220
0.0
230
1.0
 70
     8
 71
     3
 72
    27
 73
    23
 74
     0
 42
0.000000001
 43
0.00000001
 40
0.0
 40
0.0
 40
0.0
 40
0.0
 40
0.0385569892849983
 40
0.077065832919795
 40
0.1155353026404071
 40
0.1539741971381828
 40
0.1923913361124393
 40
0.2307955542512547
 40
0.2691956951607651
 40
0.307600605263732
 40
0.3460191276883881
 40
0.3844600961686549
 40
0.4229323289767208
 40
0.461444622908729
 40
0.5000057473438762
 40
0.5715713334494176
 40
0.6429967682529731
 40
0.7143384572511784
 40
0.785653004654555
 40
0.8569970792758755
 40
0.9284272796521091
 40
1.0
 40
1.0
 40
1.0
 40
1.0
 10
60.24122661683553
 20
155.7675191041616
 30
0.0
 10
60.42863180100825
 20
155.616649768331
 30
0.0
 10
60.80320815874735
 20
155.3150994854004
 30
0.0
 10
61.37331885216711
 20
154.8738138058928
 30
0.0
 10
61.94896068754014
 20
154.4410266846059
 30
0.0
 10
62.53075452308217
 20
154.0175026684426
 30
0.0
 10
63.11853413376203
 20
153.6030372901823
 30
0.0
 10
63.71234390284318
 20
153.1976853723628
 30
0.0
 10
64.31217182928089
 20
152.8014323249733
 30
0.0
 10
64.91802101647968
 20
152.4142821353759
 30
0.0
 10
65.52989047405077
 20
152.0362338156235
 30
0.0
 10
66.14778046575897
 20
151.6672876719411
 30
0.0
 10
66.77169031316356
 20
151.3074437721851
 30
0.0
 10
67.40162183945982
 20
150.9567018041393
 30
0.0
 10
68.21867298844255
 20
150.5177710462085
 30
0.0
 10
69.22802858120171
 20
150.0031298210828
 30
0.0
 10
70.43619198221711
 20
149.4292386028281
 30
0.0
 10
71.65861666109676
 20
148.8902613195386
 30
0.0
 10
72.89522608912003
 20
148.3859697485208
 30
0.0
 10
74.14627753078858
 20
147.9172334395166
 30
0.0
 10
75.41080307298829
 20
147.4808035469618
 30
0.0
 10
76.26413528543937
 20
147.2198230591917
 30
0.0
 10
76.69122661683555
 20
147.0892027657541
 30
0.0
  0
ARC
  5
D2
330
1F
100
AcDbEntity
  8
0
  6
Continuous
 62
     7
370
    15
100
AcDbCircle
 10
90.2412266168
 20
192.7035041807
 30
0.0
 40
47.86715728752537
100
AcDbArc
 50
106.2976619617
 51
218.8096103904
  0
ARC
  5
D3
330
1F
100
AcDbEntity
  8
0
  6
Continuous
 62
     7
370
    15
100
AcDbCircle
 10
90.2412266168
 20
192.7035041807
 30
0.0
 40
47.86715728752537
100
AcDbArc
 50
286.2976619617
 51
73.7023380383
  0
ARC
  5
D4
330
1F
100
AcDbEntity
  8
0
  6
Continuous
 62
     7
370
    15
100
AcDbCircle
 10
90.2412266168
 20
192.7035041807
 30
0.0
 40
47.86715728752537
100
AcDbArc
 50
231.1903896096
 51
253.7023380383
  0
ARC
  5
D5
330
1F
100
AcDbEntity
  8
0
  6
Continuous
 62
     7
370
    15
100
AcDbCircle
 10
90.2412266168
 20
192.7035041807
 30
0.0
 40
48.63284271247463
100
AcDbArc
 50
231.9122882504
 51
254.1258902834
  0
ARC
  5
D6
330
1F
100
AcDbEntity
  8
0
  6
Continuous
 62
     7
370
    15
100
AcDbCircle
 10
90.2412266168
 20
192.7035041807
 30
0.0
 40
48.63284271247463
100
AcDbArc
 50
218.0877117496
 51
231.9122882504
  0
ARC
  5
D7
330
1F
100
AcDbEntity
  8
0
  6
Continuous
 62
     7
370
    15
100
AcDbCircle
 10
90.2412266168
 20
192.7035041807
 30
0.0
 40
48.63284271247466
100
AcDbArc
 50
105.9657859825
 51
218.0877117496
  0
ARC
  5
D8
330
1F
100
AcDbEntity
  8
0
  6
Continuous
 62
     7
370
    15
100
AcDbCircle
 10
90.2412266168
 20
192.7035041807
 30
0.0
 40
48.63284271247466
100
AcDbArc
 50
74.1258902834
 51
105.9657859825
  0
ARC
  5
D9
330
1F
100
AcDbEntity
  8
0
  6
Continuous
 62
     7
370
    15
100
AcDbCircle
 10
90.2412266168
 20
192.7035041807
 30
0.0
 40
48.63284271247462
100
AcDbArc
 50
285.9657859825
 51
74.1258902834
  0
ARC
  5
DA
330
1F
100
AcDbEntity
  8
0
  6
Continuous
 62
     7
370
    15
100
AcDbCircle
 10
90.2412266168
 20
192.7035041807
 30
0.0
 40
48.63284271247463
100
AcDbArc
 50
254.1258902834
 51
285.9657859825
  0
SPLINE
  5
DB
330
1F
100
AcDbEntity
  8
0
  6
Continuous
 62
     7
370
    15
100
AcDbSpline
210
0.0
220
0.0
230
1.0
 70
    24
 71
     3
 72
    10
 73
     6
 74
     0
 42
0.000000001
 43
0.00000001
 40
0.0
 40
0.0
 40
0.0
 40
0.0
 40
0.5
 40
0.5
 40
1.0
 40
1.0
 40
1.0
 40
1.0
 10
103.6183364289437
 20
145.9466188763179
 30
0.0
 10
103.6585297612069
 20
145.9236773560808
 30
0.0
 10
103.6937817260436
 20
145.9035562658612
 30
0.0
 10
103.7450612247472
 20
145.8742869918047
 30
0.0
 10
103.7603851830729
 20
145.8655403942909
 30
0.0
 10
103.7603851830729
 20
145.8655403942909
 30
0.0
  0
ARC
  5
DC
330
1F
100
AcDbEntity
  8
0
  6
Continuous
 62
     7
370
    15
100
AcDbCircle
 10
90.2412266168
 20
192.7035041807
 30
0.0
 40
48.75000000000001
100
AcDbArc
 50
254.0491974398
 51
286.1000846724
  0
SPLINE
  5
DD
330
1F
100
AcDbEntity
  8
0
  6
Continuous
 62
     7
370
    15
100
AcDbSpline
210
0.0
220
0.0
230
1.0
 70
    24
 71
     3
 72
     8
 73
     4
 74
     0
 42
0.000000001
 43
0.00000001
 40
0.0
 40
0.0
 40
0.0
 40
0.0
 40
1.0
 40
1.0
 40
1.0
 40
1.0
 10
76.84414844542287
 20
145.8304757265335
 30
0.0
 10
76.84414844542287
 20
145.8304757265335
 30
0.0
 10
76.88124503848913
 20
145.8675723195998
 30
0.0
 10
76.93894737658611
 20
145.9252746576967
 30
0.0
  0
SPLINE
  5
DE
330
1F
100
AcDbEntity
  8
0
  6
Continuous
 62
     7
370
    15
100
AcDbSpline
210
0.0
220
0.0
230
1.0
 70
    24
 71
     3
 72
    10
 73
     6
 74
     0
 42
0.000000001
 43
0.00000001
 40
0.0
 40
0.0
 40
0.0
 40
0.0
 40
0.5
 40
0.5
 40
1.0
 40
1.0
 40
1.0
 40
1.0
 10
76.86411680472744
 20
239.4603894851667
 30
0.0
 10
76.82392347246422
 20
239.4833310054038
 30
0.0
 10
76.78867150762758
 20
239.5034520956233
 30
0.0
 10
76.7373920089239
 20
239.5327213696799
 30
0.0
 10
76.72206805059822
 20
239.5414679671936
 30
0.0
 10
76.72206805059822
 20
239.5414679671936
 30
0.0
  0
ARC
  5
DF
330
1F
100
AcDbEntity
  8
0
  6
Continuous
 62
     7
370
    15
100
AcDbCircle
 10
90.2412266168
 20
192.7035041807
 30
0.0
 40
48.75
100
AcDbArc
 50
74.0491974398
 51
106.1000846724
  0
SPLINE
  5
E0
330
1F
100
AcDbEntity
  8
0
  6
Continuous
 62
     7
370
    15
100
AcDbSpline
210
0.0
220
0.0
230
1.0
 70
    24
 71
     3
 72
     8
 73
     4
 74
     0
 42
0.000000001
 43
0.00000001
 40
0.0
 40
0.0
 40
0.0
 40
0.0
 40
1.0
 40
1.0
 40
1.0
 40
1.0
 10
103.6383047882483
 20
239.576532634951
 30
0.0
 10
103.6383047882483
 20
239.576532634951
 30
0.0
 10
103.6012081951821
 20
239.5394360418847
 30
0.0
 10
103.5435058570851
 20
239.4817337037877
 30
0.0
  0
ARC
  5
E1
330
1F
100
AcDbEntity
  8
0
  6
Continuous
 62
     7
370
    15
100
AcDbCircle
 10
90.2412266168
 20
192.7035041807
 30
0.0
 40
48.75000000000001
100
AcDbArc
 50
217.9798724449
 51
232.0201275551
  0
SPLINE
  5
E2
330
1F
100
AcDbEntity
  8
0
  6
Continuous
 62
     7
370
    15
100
AcDbSpline
210
0.0
220
0.0
230
1.0
 70
    24
 71
     3
 72
     8
 73
     4
 74
     0
 42
0.000000001
 43
0.00000001
 40
0.0
 40
0.0
 40
0.0
 40
0.0
 40
1.0
 40
1.0
 40
1.0
 40
1.0
 10
51.81516124448702
 20
162.7035041807423
 30
0.0
 10
51.81516124448702
 20
162.7035041807423
 30
0.0
 10
51.87667679291846
 20
162.7035041807423
 30
0.0
 10
51.96390447569959
 20
162.7035041807423
 30
0.0
  0
SPLINE
  5
E3
330
1F
100
AcDbEntity
  8
0
  6
Continuous
 62
     7
370
    15
100
AcDbSpline
210
0.0
220
0.0
230
1.0
 70
    24
 71
     3
 72
     8
 73
     4
 74
     0
 42
0.000000001
 43
0.00000001
 40
0.0
 40
0.0
 40
0.0
 40
0.0
 40
1.0
 40
1.0
 40
1.0
 40
1.0
 10
60.24122661683556
 20
154.4261820396063
 30
0.0
 10
60.24122661683556
 20
154.338907623392
 30
0.0
 10
60.24122661683555
 20
154.2774388083934
 30
0.0
 10
60.24122661683555
 20
154.2774388083937
 30
0.0
  0
ARC
  5
E4
330
1F
100
AcDbEntity
  8
0
  6
Continuous
 62
     7
370
    15
100
AcDbCircle
 10
90.2412266168
 20
192.7035041807
 30
0.0
 40
48.75000000000001
100
AcDbArc
 50
232.0201275551
 51
254.0491974398
  0
ARC
  5
E5
330
1F
100
AcDbEntity
  8
0
  6
Continuous
 62
     7
370
    15
100
AcDbCircle
 10
90.2412266168
 20
192.7035041807
 30
0.0
 40
48.74999999999999
100
AcDbArc
 50
106.1000846724
 51
217.9798724449
  0
ARC
  5
E6
330
1F
100
AcDbEntity
  8
0
  6
Continuous
 62
     7
370
    15
100
AcDbCircle
 10
90.2412266168
 20
192.7035041807
 30
0.0
 40
48.75
100
AcDbArc
 50
286.1000846724
 51
74.0491974398
  0
INSERT
  5
F2
330
1F
100
AcDbEntity
  8
DIM
100
AcDbBlockReference
  2
SW_CENTERMARKSYMBOL_0
 10
90.2412266168
 20
192.7035041807
 30
0.0
  0
LINE
  5
F3
330
1F
100
AcDbEntity
  8
0
  6
Continuous
 62
     7
370
    15
100
AcDbLine
 10
314.003721105
 20
143.9535059689
 30
0.0
 11
317.590440849
 21
143.9535059689
 31
0.0
  0
LINE
  5
F4
330
1F
100
AcDbEntity
  8
0
  6
Continuous
 62
     7
370
    15
100
AcDbLine
 10
317.590440849
 20
241.4535023926
 30
0.0
 11
314.003721105
 21
241.4535023926
 31
0.0
  0
LINE
  5
F5
330
1F
100
AcDbEntity
  8
0
  6
Continuous
 62
     7
370
    15
100
AcDbLine
 10
314.003721105
 20
241.4535023926
 30
0.0
 11
312.6561262106
 21
239.1193994044
 31
0.0
  0
LINE
  5
F6
330
1F
100
AcDbEntity
  8
0
  6
Continuous
 62
     7
370
    15
100
AcDbLine
 10
312.6561262106
 20
146.2876089571
 30
0.0
 11
314.003721105
 21
143.9535059689
 31
0.0
  0
LINE
  5
F7
330
1F
100
AcDbEntity
  8
0
  6
Continuous
 62
     7
370
    15
100
AcDbLine
 10
307.5085303207
 20
143.9535059689
 30
0.0
 11
308.8561261465
 21
146.2876089571
 31
0.0
  0
LINE
  5
F8
330
1F
100
AcDbEntity
  8
0
  6
Continuous
 62
     7
370
    15
100
AcDbLine
 10
308.8561261465
 20
239.1193994044
 30
0.0
 11
307.5085303207
 21
241.4535023926
 31
0.0
  0
LINE
  5
F9
330
1F
100
AcDbEntity
  8
0
  6
Continuous
 62
     7
370
    15
100
AcDbLine
 10
304.0218113383
 20
143.9535059689
 30
0.0
 11
307.5085303207
 21
143.9535059689
 31
0.0
  0
LINE
  5
FA
330
1F
100
AcDbEntity
  8
0
  6
Continuous
 62
     7
370
    15
100
AcDbLine
 10
307.5085303207
 20
241.4535023926
 30
0.0
 11
304.0218113383
 21
241.4535023926
 31
0.0
  0
LINE
  5
FB
330
1F
100
AcDbEntity
  8
0
  6
Continuous
 62
     7
370
    15
100
AcDbLine
 10
317.8732835149
 20
144.0706626235
 30
0.0
 11
318.6389685069
 21
144.8363476156
 31
0.0
  0
LINE
  5
FC
330
1F
100
AcDbEntity
  8
0
  6
Continuous
 62
     7
370
    15
100
AcDbLine
 10
318.6389685069
 20
240.5706607459
 30
0.0
 11
317.8732835149
 21
241.336345738
 31
0.0
  0
LINE
  5
FD
330
1F
100
AcDbEntity
  8
0
  6
Continuous
 62
     7
370
    15
100
AcDbLine
 10
303.7389686723
 20
241.336345738
 30
0.0
 11
302.9732832146
 21
240.5706607459
 31
0.0
  0
LINE
  5
FE
330
1F
100
AcDbEntity
  8
0
  6
Continuous
 62
     7
370
    15
100
AcDbLine
 10
302.9732832146
 20
144.8363476156
 30
0.0
 11
303.7389686723
 21
144.0706626235
 31
0.0
  0
LINE
  5
FF
330
1F
100
AcDbEntity
  8
0
  6
Continuous
 62
     7
370
    15
100
AcDbLine
 10
308.8561261465
 20
147.2035051046
 30
0.0
 11
312.6561262106
 21
147.2035051046
 31
0.0
  0
LINE
  5
100
330
1F
100
AcDbEntity
  8
0
  6
Continuous
 62
     7
370
    15
100
AcDbLine
 10
312.6561262106
 20
238.2035032569
 30
0.0
 11
308.8561261465
 21
238.2035032569
 31
0.0
  0
ARC
  5
101
330
1F
100
AcDbEntity
  8
0
  6
Continuous
 62
     7
370
    15
100
AcDbCircle
 10
302.3561259424
 20
157.7035041807
 30
0.0
 40
0.5
100
AcDbArc
 50
0.0
 51
90.0
  0
ARC
  5
102
330
1F
100
AcDbEntity
  8
0
  6
Continuous
 62
     7
370
    15
100
AcDbCircle
 10
302.3561259424
 20
227.7035041807
 30
0.0
 40
0.5000000000000284
100
AcDbArc
 50
270.0
 51
0.0
  0
LINE
  5
103
330
1F
100
AcDbEntity
  8
0
  6
Continuous
 62
     7
370
    15
100
AcDbLine
 10
299.6561259424
 20
227.6285030602
 30
0.0
 11
198.761816362
 21
212.9146122096
 31
0.0
  0
LINE
  5
104
330
1F
100
AcDbEntity
  8
0
  6
Continuous
 62
     7
370
    15
100
AcDbLine
 10
198.761816362
 20
172.4923961519
 30
0.0
 11
299.6561259424
 21
157.7785053013
 31
0.0
  0
LINE
  5
105
330
1F
100
AcDbEntity
  8
0
  6
Continuous
 62
     7
370
    15
100
AcDbLine
 10
299.6561259424
 20
157.7785053013
 30
0.0
 11
300.5675413805
 21
158.203505045
 31
0.0
  0
LINE
  5
106
330
1F
100
AcDbEntity
  8
0
  6
Continuous
 62
     7
370
    15
100
AcDbLine
 10
300.5675413805
 20
227.2035033165
 30
0.0
 11
299.6561259424
 21
227.6285030602
 31
0.0
  0
LINE
  5
107
330
1F
100
AcDbEntity
  8
0
  6
Continuous
 62
     7
370
    15
100
AcDbLine
 10
300.5675413805
 20
158.203505045
 30
0.0
 11
302.3561260124
 21
158.203505045
 31
0.0
  0
LINE
  5
108
330
1F
100
AcDbEntity
  8
0
  6
Continuous
 62
     7
370
    15
100
AcDbLine
 10
302.3561260124
 20
227.2035033165
 30
0.0
 11
300.5675413805
 21
227.2035033165
 31
0.0
  0
ARC
  5
109
330
1F
100
AcDbEntity
  8
0
  6
Continuous
 62
     7
370
    15
100
AcDbCircle
 10
320.7561259424
 20
224.7035041807
 30
0.0
 40
2.000000000000028
100
AcDbArc
 50
180.0
 51
270.0
  0
ARC
  5
10A
330
1F
100
AcDbEntity
  8
0
  6
Continuous
 62
     7
370
    15
100
AcDbCircle
 10
320.7561259424
 20
160.7035041807
 30
0.0
 40
2.000000000000028
100
AcDbArc
 50
90.0
 51
180.0
  0
LINE
  5
10B
330
1F
100
AcDbEntity
  8
0
  6
Continuous
 62
     7
370
    15
100
AcDbLine
 10
455.0373286401
 20
161.2035036741
 30
0.0
 11
459.6561223661
 21
169.2035049854
 31
0.0
  0
LINE
  5
10C
330
1F
100
AcDbEntity
  8
0
  6
Continuous
 62
     7
370
    15
100
AcDbLine
 10
459.6561223661
 20
216.2035033761
 30
0.0
 11
455.0373286401
 21
224.2035046874
 31
0.0
  0
LINE
  5
10D
330
1F
100
AcDbEntity
  8
0
  6
Continuous
 62
     7
370
    15
100
AcDbLine
 10
436.6561204587
 20
161.2035036741
 30
0.0
 11
455.0373286401
 21
161.2035036741
 31
0.0
  0
LINE
  5
10E
330
1F
100
AcDbEntity
  8
0
  6
Continuous
 62
     7
370
    15
100
AcDbLine
 10
455.0373286401
 20
224.2035046874
 30
0.0
 11
436.6561204587
 21
224.2035046874
 31
0.0
  0
LINE
  5
10F
330
1F
100
AcDbEntity
  8
0
  6
Continuous
 62
     7
370
    15
100
AcDbLine
 10
436.6561204587
 20
224.2035046874
 30
0.0
 11
434.6561313068
 21
222.2035043596
 31
0.0
  0
LINE
  5
110
330
1F
100
AcDbEntity
  8
0
  6
Continuous
 62
     7
370
    15
100
AcDbLine
 10
434.6561313068
 20
163.2035040019
 30
0.0
 11
436.6561204587
 21
161.2035036741
 31
0.0
  0
LINE
  5
111
330
1F
100
AcDbEntity
  8
0
  6
Continuous
 62
     7
370
    15
100
AcDbLine
 10
406.1339602267
 20
162.7035048513
 30
0.0
 11
415.2272224819
 21
167.9535043149
 31
0.0
  0
LINE
  5
112
330
1F
100
AcDbEntity
  8
0
  6
Continuous
 62
     7
370
    15
100
AcDbLine
 10
415.2272224819
 20
217.4535040466
 30
0.0
 11
406.1339602267
 21
222.7035035102
 31
0.0
  0
LINE
  5
113
330
1F
100
AcDbEntity
  8
0
  6
Continuous
 62
     7
370
    15
100
AcDbLine
 10
320.7561254894
 20
162.7035048513
 30
0.0
 11
406.1339602267
 21
162.7035048513
 31
0.0
  0
LINE
  5
114
330
1F
100
AcDbEntity
  8
0
  6
Continuous
 62
     7
370
    15
100
AcDbLine
 10
406.1339602267
 20
222.7035035102
 30
0.0
 11
320.7561254894
 21
222.7035035102
 31
0.0
  0
LINE
  5
115
330
1F
100
AcDbEntity
  8
0
  6
Continuous
 62
     7
370
    15
100
AcDbLine
 10
419.6561232602
 20
167.7535046546
 30
0.0
 11
434.6561313068
 21
167.7535046546
 31
0.0
  0
LINE
  5
116
330
1F
100
AcDbEntity
  8
0
  6
Continuous
 62
     7
370
    15
100
AcDbLine
 10
434.6561313068
 20
217.6535037069
 30
0.0
 11
419.6561232602
 21
217.6535037069
 31
0.0
  0
LINE
  5
117
330
1F
100
AcDbEntity
  8
0
  6
Continuous
 62
     7
370
    15
100
AcDbLine
 10
419.6561232602
 20
217.6535037069
 30
0.0
 11
419.2272231375
 21
217.4535040466
 31
0.0
  0
LINE
  5
118
330
1F
100
AcDbEntity
  8
0
  6
Continuous
 62
     7
370
    15
100
AcDbLine
 10
419.2272231375
 20
167.9535043149
 30
0.0
 11
419.6561232602
 21
167.7535046546
 31
0.0
  0
LINE
  5
119
330
1F
100
AcDbEntity
  8
0
  6
Continuous
 62
     7
370
    15
100
AcDbLine
 10
415.2272224819
 20
167.9535043149
 30
0.0
 11
419.2272231375
 21
167.9535043149
 31
0.0
  0
LINE
  5
11A
330
1F
100
AcDbEntity
  8
0
  6
Continuous
 62
     7
370
    15
100
AcDbLine
 10
419.2272231375
 20
217.4535040466
 30
0.0
 11
415.2272224819
 21
217.4535040466
 31
0.0
  0
ARC
  5
11B
330
1F
100
AcDbEntity
  8
0
  6
Continuous
 62
     7
370
    15
100
AcDbCircle
 10
198.9061259424
 20
173.4819291802
 30
0.0
 40
1.0
100
AcDbArc
 50
180.0
 51
261.7027777778
  0
ARC
  5
11C
330
1F
100
AcDbEntity
  8
0
  6
Continuous
 62
     7
370
    15
100
AcDbCircle
 10
198.9061259424
 20
211.9250791813
 30
0.0
 40
1.0
100
AcDbArc
 50
98.2972222222
 51
180.0
  0
ARC
  5
11D
330
1F
100
AcDbEntity
  8
0
  6
Continuous
 62
     7
370
    15
100
AcDbCircle
 10
303.2561259424
 20
240.2878187558
 30
0.0
 40
0.3999999999999992
100
AcDbArc
 50
135.0
 51
180.0
  0
ARC
  5
11E
330
1F
100
AcDbEntity
  8
0
  6
Continuous
 62
     7
370
    15
100
AcDbCircle
 10
318.3561259424
 20
145.1191896057
 30
0.0
 40
0.4000000000000341
100
AcDbArc
 50
315.0
 51
0.0
  0
ARC
  5
11F
330
1F
100
AcDbEntity
  8
0
  6
Continuous
 62
     7
370
    15
100
AcDbCircle
 10
303.2561259424
 20
145.1191896057
 30
0.0
 40
0.3999999999999773
100
AcDbArc
 50
180.0
 51
225.0
  0
ARC
  5
120
330
1F
100
AcDbEntity
  8
0
  6
Continuous
 62
     7
370
    15
100
AcDbCircle
 10
318.3561259424
 20
240.2878187558
 30
0.0
 40
0.4000000000000341
100
AcDbArc
 50
0.0
 51
45.0
  0
ARC
  5
121
330
1F
100
AcDbEntity
  8
0
  6
Continuous
 62
     7
370
    15
100
AcDbCircle
 10
304.0218113673
 20
144.3535041807
 30
0.0
 40
0.4000000000000193
100
AcDbArc
 50
225.0
 51
270.0
  0
ARC
  5
122
330
1F
100
AcDbEntity
  8
0
  6
Continuous
 62
     7
370
    15
100
AcDbCircle
 10
317.5904405174
 20
144.3535041807
 30
0.0
 40
0.4000000000000057
100
AcDbArc
 50
270.0
 51
315.0
  0
ARC
  5
123
330
1F
100
AcDbEntity
  8
0
  6
Continuous
 62
     7
370
    15
100
AcDbCircle
 10
317.5904405174
 20
241.0535041807
 30
0.0
 40
0.4000000000000057
100
AcDbArc
 50
45.0
 51
90.0
  0
ARC
  5
124
330
1F
100
AcDbEntity
  8
0
  6
Continuous
 62
     7
370
    15
100
AcDbCircle
 10
304.0218113673
 20
241.0535041807
 30
0.0
 40
0.4000000000000057
100
AcDbArc
 50
90.0
 51
135.0
  0
SPLINE
  5
125
330
1F
100
AcDbEntity
  8
0
  6
Continuous
 62
     7
370
    15
100
AcDbSpline
210
0.0
220
0.0
230
1.0
 70
     8
 71
     3
 72
     8
 73
     4
 74
     0
 42
0.000000001
 43
0.00000001
 40
0.0
 40
0.0
 40
0.0
 40
0.0
 40
1.0
 40
1.0
 40
1.0
 40
1.0
 10
317.8732832298852
 20
239.4817337037877
 30
0.0
 10
317.8019674177033
 20
239.5394610890604
 30
0.0
 10
317.6990662600665
 20
239.576532634951
 30
0.0
 10
317.5904405174106
 20
239.576532634951
 30
0.0
  0
LINE
  5
126
330
1F
100
AcDbEntity
  8
0
  6
Continuous
 62
     7
370
    15
100
AcDbLine
 10
317.8732835149
 20
239.4817323147
 30
0.0
 11
317.8732835149
 21
145.9466182349
 31
0.0
  0
SPLINE
  5
127
330
1F
100
AcDbEntity
  8
0
  6
Continuous
 62
     7
370
    15
100
AcDbSpline
210
0.0
220
0.0
230
1.0
 70
     8
 71
     3
 72
    10
 73
     6
 74
     0
 42
0.000000001
 43
0.00000001
 40
0.0
 40
0.0
 40
0.0
 40
0.0
 40
0.5
 40
0.5
 40
1.0
 40
1.0
 40
1.0
 40
1.0
 10
317.5904405174106
 20
145.8655403942909
 30
0.0
 10
317.6476306271613
 20
145.8655403942909
 30
0.0
 10
317.7030959528516
 20
145.8742562089083
 30
0.0
 10
317.7993274667698
 20
145.9034742861546
 30
0.0
 10
317.8401564918518
 20
145.9236673438868
 30
0.0
 10
317.8732832298852
 20
145.9466188763179
 30
0.0
  0
LINE
  5
128
330
1F
100
AcDbEntity
  8
0
  6
Continuous
 62
     7
370
    15
100
AcDbLine
 10
317.590440849
 20
145.8655410169
 30
0.0
 11
317.590440849
 21
239.5765335022
 31
0.0
  0
LINE
  5
129
330
1F
100
AcDbEntity
  8
0
  6
Continuous
 62
     7
370
    15
100
AcDbLine
 10
304.0218113383
 20
145.8655410169
 30
0.0
 11
304.0218113383
 21
239.5765335022
 31
0.0
  0
SPLINE
  5
12A
330
1F
100
AcDbEntity
  8
0
  6
Continuous
 62
     7
370
    15
100
AcDbSpline
210
0.0
220
0.0
230
1.0
 70
     8
 71
     3
 72
    10
 73
     6
 74
     0
 42
0.000000001
 43
0.00000001
 40
0.0
 40
0.0
 40
0.0
 40
0.0
 40
0.5
 40
0.5
 40
1.0
 40
1.0
 40
1.0
 40
1.0
 10
303.7389686548344
 20
145.9466188763179
 30
0.0
 10
303.7720809419232
 20
145.9236773560808
 30
0.0
 10
303.8127209010369
 20
145.9035562658612
 30
0.0
 10
303.9089883140993
 20
145.8742869918047
 30
0.0
 10
303.9646230085626
 20
145.8655403942909
 30
0.0
 10
304.0218113673091
 20
145.8655403942909
 30
0.0
  0
LINE
  5
12B
330
1F
100
AcDbEntity
  8
0
  6
Continuous
 62
     7
370
    15
100
AcDbLine
 10
303.7389686723
 20
145.9466182349
 30
0.0
 11
303.7389686723
 21
239.4817323147
 31
0.0
  0
SPLINE
  5
12C
330
1F
100
AcDbEntity
  8
0
  6
Continuous
 62
     7
370
    15
100
AcDbSpline
210
0.0
220
0.0
230
1.0
 70
     8
 71
     3
 72
     8
 73
     4
 74
     0
 42
0.000000001
 43
0.00000001
 40
0.0
 40
0.0
 40
0.0
 40
0.0
 40
1.0
 40
1.0
 40
1.0
 40
1.0
 10
304.0218113673091
 20
239.576532634951
 30
0.0
 10
303.9132943758581
 20
239.576532634951
 30
0.0
 10
303.8102535239957
 20
239.5394360418847
 30
0.0
 10
303.7389686548345
 20
239.4817337037877
 30
0.0
  0
LINE
  5
12D
330
1F
100
AcDbEntity
  8
0
  6
Continuous
 62
     7
370
    15
100
AcDbLine
 10
314.003721105
 20
145.8655410169
 30
0.0
 11
314.003721105
 21
143.9535059689
 31
0.0
  0
LINE
  5
12E
330
1F
100
AcDbEntity
  8
0
  6
Continuous
 62
     7
370
    15
100
AcDbLine
 10
314.003721105
 20
241.4535023926
 30
0.0
 11
314.003721105
 21
145.8655410169
 31
0.0
  0
LINE
  5
12F
330
1F
100
AcDbEntity
  8
0
  6
Continuous
 62
     7
370
    15
100
AcDbLine
 10
312.6561262106
 20
239.1193994044
 30
0.0
 11
312.6561262106
 21
146.2876089571
 31
0.0
  0
LINE
  5
130
330
1F
100
AcDbEntity
  8
0
  6
Continuous
 62
     7
370
    15
100
AcDbLine
 10
308.8561261465
 20
192.7035041807
 30
0.0
 11
308.8561261465
 21
239.1193994044
 31
0.0
  0
LINE
  5
131
330
1F
100
AcDbEntity
  8
0
  6
Continuous
 62
     7
370
    15
100
AcDbLine
 10
308.8561261465
 20
146.2876089571
 30
0.0
 11
308.8561261465
 21
192.7035041807
 31
0.0
  0
LINE
  5
132
330
1F
100
AcDbEntity
  8
0
  6
Continuous
 62
     7
370
    15
100
AcDbLine
 10
307.5085303207
 20
239.5765335022
 30
0.0
 11
307.5085303207
 21
143.9535059689
 31
0.0
  0
LINE
  5
133
330
1F
100
AcDbEntity
  8
0
  6
Continuous
 62
     7
370
    15
100
AcDbLine
 10
307.5085303207
 20
241.4535023926
 30
0.0
 11
307.5085303207
 21
239.5765335022
 31
0.0
  0
LINE
  5
134
330
1F
100
AcDbEntity
  8
0
  6
Continuous
 62
     7
370
    15
100
AcDbLine
 10
318.6389685069
 20
238.6472039579
 30
0.0
 11
318.6389685069
 21
146.7598044036
 31
0.0
  0
LINE
  5
135
330
1F
100
AcDbEntity
  8
0
  6
Continuous
 62
     7
370
    15
100
AcDbLine
 10
302.9732832146
 20
146.7598044036
 30
0.0
 11
302.9732832146
 21
238.6472039579
 31
0.0
  0
SPLINE
  5
136
330
1F
100
AcDbEntity
  8
0
  6
Continuous
 62
     7
370
    15
100
AcDbSpline
210
0.0
220
0.0
230
1.0
 70
     8
 71
     3
 72
    10
 73
     6
 74
     0
 42
0.000000001
 43
0.00000001
 40
0.0
 40
0.0
 40
0.0
 40
0.0
 40
0.5
 40
0.5
 40
1.0
 40
1.0
 40
1.0
 40
1.0
 10
302.8561259423598
 20
147.0892027657541
 30
0.0
 10
302.8561259423598
 20
147.025251076911
 30
0.0
 10
302.8699718183847
 20
146.9636867384598
 30
0.0
 10
302.912137594572
 20
146.8530613876109
 30
0.0
 10
302.9406282948352
 20
146.8033746959414
 30
0.0
 10
302.9732832298852
 20
146.7598051192756
 30
0.0
  0
SPLINE
  5
137
330
1F
100
AcDbEntity
  8
0
  6
Continuous
 62
     7
370
    15
100
AcDbSpline
210
0.0
220
0.0
230
1.0
 70
    24
 71
     3
 72
    36
 73
    32
 74
     0
 42
0.000000001
 43
0.00000001
 40
0.0
 40
0.0
 40
0.0
 40
0.0
 40
0.0108670927976138
 40
0.0217248651294953
 40
0.0325754130156982
 40
0.0434208366649332
 40
0.0542632392636552
 40
0.065104725756519
 40
0.0759474016217247
 40
0.0867933716448104
 40
0.0976447386944597
 40
0.1085036025038803
 40
0.1193720584612676
 40
0.1813968118522707
 40
0.2434299656516123
 40
0.3071319153785467
 40
0.3708424926864622
 40
0.4354174331848614
 40
0.5000011195034882
 40
0.5645760601040033
 40
0.6291597465272422
 40
0.6928616965456248
 40
0.7565722741492584
 40
0.8185970279756692
 40
0.8806301822188896
 40
0.9005456108402741
 40
0.9204355762661642
 40
0.9403130274596062
 40
0.9601909378399034
 40
0.9800822799278944
 40
1.0
 40
1.0
 40
1.0
 40
1.0
 10
302.8561259423598
 20
147.0892027657541
 30
0.0
 10
302.8561259423598
 20
147.152963262842
 30
0.0
 10
302.8561259423598
 20
147.2804295710461
 30
0.0
 10
302.8561259423598
 20
147.4826931020675
 30
0.0
 10
302.8561259423598
 20
147.6929376705669
 30
0.0
 10
302.8561259423598
 20
147.9119631353105
 30
0.0
 10
302.8561259423598
 20
148.1395553386394
 30
0.0
 10
302.8561259423598
 20
148.3757716261189
 30
0.0
 10
302.8561259423598
 20
148.6205965089728
 30
0.0
 10
302.8561259423598
 20
148.874034453878
 30
0.0
 10
302.8561259423598
 20
149.1360828968803
 30
0.0
 10
302.8561259423598
 20
149.4067474243981
 30
0.0
 10
302.8561259423598
 20
150.1240266649874
 30
0.0
 10
302.8561259423598
 20
151.3955401868965
 30
0.0
 10
302.8561259423598
 20
153.4293053604239
 30
0.0
 10
302.8561259423598
 20
155.7365283347068
 30
0.0
 10
302.8561259423598
 20
158.3234943306141
 30
0.0
 10
302.8561259423598
 20
161.1542225032449
 30
0.0
 10
302.8561259423598
 20
164.2148927609968
 30
0.0
 10
302.8561259423598
 20
167.4699042001349
 30
0.0
 10
302.8561259423598
 20
170.8831123328035
 30
0.0
 10
302.8561259423598
 20
174.4272679226536
 30
0.0
 10
302.8561259423598
 20
178.0456674147443
 30
0.0
 10
302.8561259423598
 20
181.7260036630818
 30
0.0
 10
302.8561259423598
 20
184.6024051133872
 30
0.0
 10
302.8561259423598
 20
186.6526400757077
 30
0.0
 10
302.8561259423598
 20
187.8581902146867
 30
0.0
 10
302.8561259423598
 20
189.0661213908151
 30
0.0
 10
302.8561259423598
 20
190.2764542835052
 30
0.0
 10
302.8561259423598
 20
191.4891815214558
 30
0.0
 10
302.8561259423598
 20
192.2985511948129
 30
0.0
 10
302.8561259423598
 20
192.7035041807422
 30
0.0
  0
SPLINE
  5
138
330
1F
100
AcDbEntity
  8
0
  6
Continuous
 62
     7
370
    15
100
AcDbSpline
210
0.0
220
0.0
230
1.0
 70
    24
 71
     3
 72
    36
 73
    32
 74
     0
 42
0.000000001
 43
0.00000001
 40
0.0
 40
0.0
 40
0.0
 40
0.0
 40
0.010867092798112
 40
0.021724865130392
 40
0.0325754130168938
 40
0.0434208366663277
 40
0.0542632392651492
 40
0.065104725758013
 40
0.0759474016231196
 40
0.086793371646007
 40
0.0976447386953594
 40
0.108503602504385
 40
0.1193720584612793
 40
0.1813968118534446
 40
0.2434299656516118
 40
0.3071319153763559
 40
0.3708424926864515
 40
0.4354174331816658
 40
0.500001119503481
 40
0.5645760601028219
 40
0.6291597465272444
 40
0.6928616965449617
 40
0.7565722741492541
 40
0.8185970279746905
 40
0.880630182218889
 40
0.9005456108401859
 40
0.9204355762660236
 40
0.9403130274594478
 40
0.9601909378397625
 40
0.9800822799278064
 40
0.9999999999999999
 40
0.9999999999999999
 40
0.9999999999999999
 40
0.9999999999999999
 10
302.8561259423598
 20
192.7035041807422
 30
0.0
 10
302.8561259423598
 20
192.924441980998
 30
0.0
 10
302.8561259423598
 20
193.3661280880307
 30
0.0
 10
302.8561259423598
 20
194.0282882159494
 30
0.0
 10
302.8561259423598
 20
194.6897524506342
 30
0.0
 10
302.8561259423598
 20
195.3505207318154
 30
0.0
 10
302.8561259423598
 20
196.0105929710746
 30
0.0
 10
302.8561259423598
 20
196.6699691346263
 30
0.0
 10
302.8561259423598
 20
197.3286489976786
 30
0.0
 10
302.8561259423598
 20
197.9866330461773
 30
0.0
 10
302.8561259423598
 20
198.6439191154831
 30
0.0
 10
302.8561259423598
 20
199.3005149454342
 30
0.0
 10
302.8561259423598
 20
200.9851296345479
 30
0.0
 10
302.8561259423598
 20
203.6808582996103
 30
0.0
 10
302.8561259423598
 20
207.3610059680855
 30
0.0
 10
302.8561259423598
 20
210.9795785898234
 30
0.0
 10
302.8561259423598
 20
214.5235818509263
 30
0.0
 10
302.8561259423598
 20
217.936952240713
 30
0.0
 10
302.8561259423598
 20
221.1918306651289
 30
0.0
 10
302.8561259423598
 20
224.2526520121404
 30
0.0
 10
302.8561259423598
 20
227.0832691018691
 30
0.0
 10
302.8561259423598
 20
229.6703709176135
 30
0.0
 10
302.8561259423598
 20
231.9775009836811
 30
0.0
 10
302.8561259423598
 20
234.0114052983658
 30
0.0
 10
302.8561259423598
 20
235.3681094069374
 30
0.0
 10
302.8561259423598
 20
236.2295434023782
 30
0.0
 10
302.8561259423598
 20
236.7060901959466
 30
0.0
 10
302.8561259423598
 20
237.1538367253351
 30
0.0
 10
302.8561259423598
 20
237.5720758660816
 30
0.0
 10
302.8561259423598
 20
237.9634890704197
 30
0.0
 10
302.8561259423598
 20
238.1996479266863
 30
0.0
 10
302.8561259423598
 20
238.3178055957304
 30
0.0
  0
SPLINE
  5
139
330
1F
100
AcDbEntity
  8
0
  6
Continuous
 62
     7
370
    15
100
AcDbSpline
210
0.0
220
0.0
230
1.0
 70
     8
 71
     3
 72
    10
 73
     6
 74
     0
 42
0.000000001
 43
0.00000001
 40
0.0
 40
0.0
 40
0.0
 40
0.0
 40
0.5
 40
0.5
 40
1.0
 40
1.0
 40
1.0
 40
1.0
 10
302.9732832298852
 20
238.6472032422089
 30
0.0
 10
302.9406501688679
 20
238.6036628507901
 30
0.0
 10
302.9126692826017
 20
238.5551082466725
 30
0.0
 10
302.8700124322267
 20
238.4436587109106
 30
0.0
 10
302.8561259423598
 20
238.3817004583214
 30
0.0
 10
302.8561259423598
 20
238.3178055957304
 30
0.0
  0
SPLINE
  5
13A
330
1F
100
AcDbEntity
  8
0
  6
Continuous
 62
     7
370
    15
100
AcDbSpline
210
0.0
220
0.0
230
1.0
 70
     8
 71
     3
 72
    10
 73
     6
 74
     0
 42
0.000000001
 43
0.00000001
 40
0.0
 40
0.0
 40
0.0
 40
0.0
 40
0.5
 40
0.5
 40
1.0
 40
1.0
 40
1.0
 40
1.0
 10
318.7561259423599
 20
238.3178055957304
 30
0.0
 10
318.7561259423599
 20
238.3817572845735
 30
0.0
 10
318.742280066335
 20
238.4433216230246
 30
0.0
 10
318.7001142901476
 20
238.5539469738737
 30
0.0
 10
318.6716235898845
 20
238.6036336655431
 30
0.0
 10
318.6389686548344
 20
238.6472032422089
 30
0.0
  0
SPLINE
  5
13B
330
1F
100
AcDbEntity
  8
0
  6
Continuous
 62
     7
370
    15
100
AcDbSpline
210
0.0
220
0.0
230
1.0
 70
    24
 71
     3
 72
    36
 73
    32
 74
     0
 42
0.000000001
 43
0.00000001
 40
0.0
 40
0.0
 40
0.0
 40
0.0
 40
0.0108670927965337
 40
0.0217248651275513
 40
0.0325754130131067
 40
0.04342083666191
 40
0.0542632392604165
 40
0.0651047257532805
 40
0.0759474016187015
 40
0.0867933716422169
 40
0.0976447386925098
 40
0.1085036025027872
 40
0.1193720584612432
 40
0.1813968118477016
 40
0.2434299656516007
 40
0.3071319153751988
 40
0.3708424926864468
 40
0.4354174331836081
 40
0.5000011195034932
 40
0.564576060103226
 40
0.6291597465272312
 40
0.6928616965420838
 40
0.7565722741492458
 40
0.8185970279741822
 40
0.8806301822188932
 40
0.9005456108405436
 40
0.920435576266594
 40
0.9403130274600895
 40
0.9601909378403332
 40
0.9800822799281632
 40
1.0
 40
1.0
 40
1.0
 40
1.0
 10
318.7561259423599
 20
238.3178055957304
 30
0.0
 10
318.7561259423599
 20
238.2540450986488
 30
0.0
 10
318.7561259423599
 20
238.1265787904558
 30
0.0
 10
318.7561259423599
 20
237.9243152594494
 30
0.0
 10
318.7561259423599
 20
237.7140706909611
 30
0.0
 10
318.7561259423599
 20
237.4950452262249
 30
0.0
 10
318.7561259423599
 20
237.2674530228997
 30
0.0
 10
318.7561259423599
 20
237.0312367354202
 30
0.0
 10
318.7561259423599
 20
236.7864118525624
 30
0.0
 10
318.7561259423599
 20
236.5329739076496
 30
0.0
 10
318.7561259423599
 20
236.2709254646361
 30
0.0
 10
318.7561259423599
 20
236.0002609371028
 30
0.0
 10
318.7561259423599
 20
235.2829816965618
 30
0.0
 10
318.7561259423599
 20
234.0114681746424
 30
0.0
 10
318.7561259423599
 20
231.9777030011511
 30
0.0
 10
318.7561259423599
 20
229.6704800268175
 30
0.0
 10
318.7561259423599
 20
227.0835140309329
 30
0.0
 10
318.7561259423599
 20
224.252785858274
 30
0.0
 10
318.7561259423599
 20
221.1921156005201
 30
0.0
 10
318.7561259423599
 20
217.9371041613531
 30
0.0
 10
318.7561259423599
 20
214.5238960287603
 30
0.0
 10
318.7561259423599
 20
210.979740438896
 30
0.0
 10
318.7561259423599
 20
207.3613409468365
 30
0.0
 10
318.7561259423599
 20
203.6810046984369
 30
0.0
 10
318.7561259423599
 20
200.804603248122
 30
0.0
 10
318.7561259423599
 20
198.7543682857625
 30
0.0
 10
318.7561259423599
 20
197.5488181467738
 30
0.0
 10
318.7561259423599
 20
196.340886970642
 30
0.0
 10
318.7561259423599
 20
195.1305540779552
 30
0.0
 10
318.7561259423599
 20
193.9178268400145
 30
0.0
 10
318.7561259423599
 20
193.1084571666661
 30
0.0
 10
318.7561259423599
 20
192.7035041807422
 30
0.0
  0
SPLINE
  5
13C
330
1F
100
AcDbEntity
  8
0
  6
Continuous
 62
     7
370
    15
100
AcDbSpline
210
0.0
220
0.0
230
1.0
 70
    24
 71
     3
 72
    36
 73
    32
 74
     0
 42
0.000000001
 43
0.00000001
 40
0.0
 40
0.0
 40
0.0
 40
0.0
 40
0.0108670927969108
 40
0.02172486512823
 40
0.0325754130140115
 40
0.0434208366629656
 40
0.0542632392615474
 40
0.0651047257544114
 40
0.0759474016197573
 40
0.0867933716431228
 40
0.0976447386931911
 40
0.1085036025031695
 40
0.1193720584612525
 40
0.1813968118489844
 40
0.2434299656516035
 40
0.3071319153753932
 40
0.3708424926864487
 40
0.4354174331829652
 40
0.5000011195034905
 40
0.5645760601049141
 40
0.6291597465272492
 40
0.6928616965461417
 40
0.7565722741492588
 40
0.8185970279777104
 40
0.8806301822189077
 40
0.9005456108415782
 40
0.9204355762682427
 40
0.9403130274619435
 40
0.9601909378419813
 40
0.9800822799291935
 40
1.0
 40
1.0
 40
1.0
 40
1.0
 10
318.7561259423599
 20
192.7035041807422
 30
0.0
 10
318.7561259423599
 20
192.4825663805109
 30
0.0
 10
318.7561259423599
 20
192.0408802735222
 30
0.0
 10
318.7561259423599
 20
191.3787201456621
 30
0.0
 10
318.7561259423599
 20
190.7172559110213
 30
0.0
 10
318.7561259423599
 20
190.0564876298694
 30
0.0
 10
318.7561259423599
 20
189.3964153906248
 30
0.0
 10
318.7561259423599
 20
188.7370392270732
 30
0.0
 10
318.7561259423599
 20
188.0783593640063
 30
0.0
 10
318.7561259423599
 20
187.4203753154783
 30
0.0
 10
318.7561259423599
 20
186.7630892461285
 30
0.0
 10
318.7561259423599
 20
186.1064934161189
 30
0.0
 10
318.7561259423599
 20
184.4218787270468
 30
0.0
 10
318.7561259423599
 20
181.726150061958
 30
0.0
 10
318.7561259423599
 20
178.0460023935048
 30
0.0
 10
318.7561259423599
 20
174.4274297716761
 30
0.0
 10
318.7561259423599
 20
170.8834265105536
 30
0.0
 10
318.7561259423599
 20
167.4700561207418
 30
0.0
 10
318.7561259423599
 20
164.2151776963012
 30
0.0
 10
318.7561259423599
 20
161.1543563493161
 30
0.0
 10
318.7561259423599
 20
158.323739259569
 30
0.0
 10
318.7561259423599
 20
155.7366374438563
 30
0.0
 10
318.7561259423599
 20
153.4295073777566
 30
0.0
 10
318.7561259423599
 20
151.3956030630773
 30
0.0
 10
318.7561259423599
 20
150.0388989544989
 30
0.0
 10
318.7561259423599
 20
149.177464959088
 30
0.0
 10
318.7561259423599
 20
148.700918165504
 30
0.0
 10
318.7561259423599
 20
148.2531716361105
 30
0.0
 10
318.7561259423599
 20
147.8349324953684
 30
0.0
 10
318.7561259423599
 20
147.4435192910443
 30
0.0
 10
318.7561259423599
 20
147.2073604347903
 30
0.0
 10
318.7561259423599
 20
147.0892027657541
 30
0.0
  0
SPLINE
  5
13D
330
1F
100
AcDbEntity
  8
0
  6
Continuous
 62
     7
370
    15
100
AcDbSpline
210
0.0
220
0.0
230
1.0
 70
     8
 71
     3
 72
    10
 73
     6
 74
     0
 42
0.000000001
 43
0.00000001
 40
0.0
 40
0.0
 40
0.0
 40
0.0
 40
0.5
 40
0.5
 40
1.0
 40
1.0
 40
1.0
 40
1.0
 10
318.7561259423599
 20
147.0892027657541
 30
0.0
 10
318.7561259423599
 20
147.025251076911
 30
0.0
 10
318.742280066335
 20
146.9636867384598
 30
0.0
 10
318.7001142901477
 20
146.8530613876109
 30
0.0
 10
318.6716235898845
 20
146.8033746959414
 30
0.0
 10
318.6389686548344
 20
146.7598051192756
 30
0.0
  0
LINE
  5
13E
330
1F
100
AcDbEntity
  8
0
  6
Continuous
 62
     7
370
    15
100
AcDbLine
 10
299.6561259424
 20
157.7785053013
 30
0.0
 11
299.6561259424
 21
227.6285030602
 31
0.0
  0
LINE
  5
13F
330
1F
100
AcDbEntity
  8
0
  6
Continuous
 62
     7
370
    15
100
AcDbLine
 10
300.5675413805
 20
192.7035041807
 30
0.0
 11
300.5675413805
 21
227.2035033165
 31
0.0
  0
LINE
  5
140
330
1F
100
AcDbEntity
  8
0
  6
Continuous
 62
     7
370
    15
100
AcDbLine
 10
300.5675413805
 20
158.203505045
 30
0.0
 11
300.5675413805
 21
192.7035041807
 31
0.0
  0
LINE
  5
141
330
1F
100
AcDbEntity
  8
0
  6
Continuous
 62
     7
370
    15
100
AcDbLine
 10
455.0373286401
 20
192.7035041807
 30
0.0
 11
455.0373286401
 21
224.2035046874
 31
0.0
  0
LINE
  5
142
330
1F
100
AcDbEntity
  8
0
  6
Continuous
 62
     7
370
    15
100
AcDbLine
 10
455.0373286401
 20
161.2035036741
 30
0.0
 11
455.0373286401
 21
192.7035041807
 31
0.0
  0
LINE
  5
143
330
1F
100
AcDbEntity
  8
0
  6
Continuous
 62
     7
370
    15
100
AcDbLine
 10
459.6561223661
 20
192.7035041807
 30
0.0
 11
459.6561223661
 21
216.2035033761
 31
0.0
  0
LINE
  5
144
330
1F
100
AcDbEntity
  8
0
  6
Continuous
 62
     7
370
    15
100
AcDbLine
 10
459.6561223661
 20
169.2035049854
 30
0.0
 11
459.6561223661
 21
192.7035041807
 31
0.0
  0
LINE
  5
145
330
1F
100
AcDbEntity
  8
0
  6
Continuous
 62
     7
370
    15
100
AcDbLine
 10
436.6561204587
 20
161.2035036741
 30
0.0
 11
436.6561204587
 21
224.2035046874
 31
0.0
  0
LINE
  5
146
330
1F
100
AcDbEntity
  8
0
  6
Continuous
 62
     7
370
    15
100
AcDbLine
 10
434.6561313068
 20
222.2035043596
 30
0.0
 11
434.6561313068
 21
163.2035040019
 31
0.0
  0
LINE
  5
147
330
1F
100
AcDbEntity
  8
0
  6
Continuous
 62
     7
370
    15
100
AcDbLine
 10
415.2272224819
 20
192.7035041807
 30
0.0
 11
415.2272224819
 21
217.4535040466
 31
0.0
  0
LINE
  5
148
330
1F
100
AcDbEntity
  8
0
  6
Continuous
 62
     7
370
    15
100
AcDbLine
 10
415.2272224819
 20
167.9535043149
 30
0.0
 11
415.2272224819
 21
192.7035041807
 31
0.0
  0
LINE
  5
149
330
1F
100
AcDbEntity
  8
0
  6
Continuous
 62
     7
370
    15
100
AcDbLine
 10
406.1339602267
 20
192.7035041807
 30
0.0
 11
406.1339602267
 21
222.7035035102
 31
0.0
  0
LINE
  5
14A
330
1F
100
AcDbEntity
  8
0
  6
Continuous
 62
     7
370
    15
100
AcDbLine
 10
406.1339602267
 20
162.7035048513
 30
0.0
 11
406.1339602267
 21
192.7035041807
 31
0.0
  0
LINE
  5
14B
330
1F
100
AcDbEntity
  8
0
  6
Continuous
 62
     7
370
    15
100
AcDbLine
 10
419.6561232602
 20
167.7535046546
 30
0.0
 11
419.6561232602
 21
217.6535037069
 31
0.0
  0
LINE
  5
14C
330
1F
100
AcDbEntity
  8
0
  6
Continuous
 62
     7
370
    15
100
AcDbLine
 10
419.2272231375
 20
192.7035041807
 30
0.0
 11
419.2272231375
 21
217.4535040466
 31
0.0
  0
LINE
  5
14D
330
1F
100
AcDbEntity
  8
0
  6
Continuous
 62
     7
370
    15
100
AcDbLine
 10
419.2272231375
 20
167.9535043149
 30
0.0
 11
419.2272231375
 21
192.7035041807
 31
0.0
  0
SPLINE
  5
14E
330
1F
100
AcDbEntity
  8
0
  6
Continuous
 62
     7
370
    15
100
AcDbSpline
210
0.0
220
0.0
230
1.0
 70
    24
 71
     3
 72
    10
 73
     6
 74
     0
 42
0.000000001
 43
0.00000001
 40
0.0
 40
0.0
 40
0.0
 40
0.0
 40
0.4999999999999997
 40
0.4999999999999997
 40
0.9999999999999999
 40
0.9999999999999999
 40
0.9999999999999999
 40
0.9999999999999999
 10
197.9061259423599
 20
211.9250791812877
 30
0.0
 10
197.9061259423599
 20
211.9250791812875
 30
0.0
 10
197.9061259423599
 20
209.8998527552186
 30
0.0
 10
197.9061259423599
 20
202.6905676622085
 30
0.0
 10
197.9061259423599
 20
197.8012385575167
 30
0.0
 10
197.9061259423599
 20
192.7035041807422
 30
0.0
  0
SPLINE
  5
14F
330
1F
100
AcDbEntity
  8
0
  6
Continuous
 62
     7
370
    15
100
AcDbSpline
210
0.0
220
0.0
230
1.0
 70
    24
 71
     3
 72
    10
 73
     6
 74
     0
 42
0.000000001
 43
0.00000001
 40
0.0
 40
0.0
 40
0.0
 40
0.0
 40
0.4999999999999999
 40
0.4999999999999999
 40
0.9999999999999999
 40
0.9999999999999999
 40
0.9999999999999999
 40
0.9999999999999999
 10
197.9061259423599
 20
192.7035041807422
 30
0.0
 10
197.9061259423599
 20
187.6057698039678
 30
0.0
 10
197.9061259423599
 20
182.7164406992756
 30
0.0
 10
197.9061259423599
 20
175.5071556062657
 30
0.0
 10
197.9061259423599
 20
173.4819291801967
 30
0.0
 10
197.9061259423599
 20
173.4819291801969
 30
0.0
  0
LINE
  5
150
330
1F
100
AcDbEntity
  8
0
  6
Continuous
 62
     7
370
    15
100
AcDbLine
 10
302.8561258615
 20
238.3178063391
 30
0.0
 11
302.8561258615
 21
240.28781808
 31
0.0
  0
LINE
  5
151
330
1F
100
AcDbEntity
  8
0
  6
Continuous
 62
     7
370
    15
100
AcDbLine
 10
318.7561251615
 20
145.1191902815
 30
0.0
 11
318.7561251615
 21
147.0892020224
 31
0.0
  0
LINE
  5
152
330
1F
100
AcDbEntity
  8
0
  6
Continuous
 62
     7
370
    15
100
AcDbLine
 10
302.8561258615
 20
145.1191902815
 30
0.0
 11
302.8561258615
 21
147.0892020224
 31
0.0
  0
LINE
  5
153
330
1F
100
AcDbEntity
  8
0
  6
Continuous
 62
     7
370
    15
100
AcDbLine
 10
318.7561251615
 20
238.3178063391
 30
0.0
 11
318.7561251615
 21
240.28781808
 31
0.0
  0
LINE
  5
154
330
1F
100
AcDbEntity
  8
0
  6
Continuous
 62
     8
370
    15
100
AcDbLine
 10
317.590440849
 20
239.5765335022
 30
0.0
 11
317.590440849
 21
241.4535023926
 31
0.0
  0
LINE
  5
155
330
1F
100
AcDbEntity
  8
0
  6
Continuous
 62
     8
370
    15
100
AcDbLine
 10
317.590440849
 20
143.9535059689
 30
0.0
 11
317.590440849
 21
145.8655410169
 31
0.0
  0
LINE
  5
156
330
1F
100
AcDbEntity
  8
0
  6
Continuous
 62
     8
370
    15
100
AcDbLine
 10
304.0218113383
 20
239.5765335022
 30
0.0
 11
304.0218113383
 21
241.4535023926
 31
0.0
  0
LINE
  5
157
330
1F
100
AcDbEntity
  8
0
  6
Continuous
 62
     8
370
    15
100
AcDbLine
 10
304.0218113383
 20
143.9535059689
 30
0.0
 11
304.0218113383
 21
145.8655410169
 31
0.0
  0
LINE
  5
158
330
1F
100
AcDbEntity
  8
0
  6
Continuous
 62
     8
370
    15
100
AcDbLine
 10
318.6389685069
 20
144.8363476156
 30
0.0
 11
318.6389685069
 21
146.7598044036
 31
0.0
  0
LINE
  5
159
330
1F
100
AcDbEntity
  8
0
  6
Continuous
 62
     8
370
    15
100
AcDbLine
 10
318.6389685069
 20
238.6472039579
 30
0.0
 11
318.6389685069
 21
240.5706607459
 31
0.0
  0
LINE
  5
15A
330
1F
100
AcDbEntity
  8
0
  6
Continuous
 62
     8
370
    15
100
AcDbLine
 10
317.8732835149
 20
239.4817323147
 30
0.0
 11
317.8732835149
 21
241.336345738
 31
0.0
  0
LINE
  5
15B
330
1F
100
AcDbEntity
  8
0
  6
Continuous
 62
     8
370
    15
100
AcDbLine
 10
317.8732835149
 20
144.0706626235
 30
0.0
 11
317.8732835149
 21
145.9466182349
 31
0.0
  0
LINE
  5
15C
330
1F
100
AcDbEntity
  8
0
  6
Continuous
 62
     8
370
    15
100
AcDbLine
 10
302.9732832146
 20
144.8363476156
 30
0.0
 11
302.9732832146
 21
146.7598044036
 31
0.0
  0
LINE
  5
15D
330
1F
100
AcDbEntity
  8
0
  6
Continuous
 62
     8
370
    15
100
AcDbLine
 10
302.9732832146
 20
238.6472039579
 30
0.0
 11
302.9732832146
 21
240.5706607459
 31
0.0
  0
LINE
  5
15E
330
1F
100
AcDbEntity
  8
0
  6
Continuous
 62
     8
370
    15
100
AcDbLine
 10
303.7389686723
 20
239.4817323147
 30
0.0
 11
303.7389686723
 21
241.336345738
 31
0.0
  0
LINE
  5
15F
330
1F
100
AcDbEntity
  8
0
  6
Continuous
 62
     8
370
    15
100
AcDbLine
 10
303.7389686723
 20
144.0706626235
 30
0.0
 11
303.7389686723
 21
145.9466182349
 31
0.0
  0
LINE
  5
160
330
1F
100
AcDbEntity
  8
0
  6
Continuous
 62
     8
370
    15
100
AcDbLine
 10
302.3561260124
 20
192.7035041807
 30
0.0
 11
302.3561260124
 21
227.2035033165
 31
0.0
  0
LINE
  5
161
330
1F
100
AcDbEntity
  8
0
  6
Continuous
 62
     8
370
    15
100
AcDbLine
 10
302.3561260124
 20
158.203505045
 30
0.0
 11
302.3561260124
 21
192.7035041807
 31
0.0
  0
LINE
  5
162
330
1F
100
AcDbEntity
  8
0
  6
Continuous
 62
     8
370
    15
100
AcDbLine
 10
198.761816362
 20
212.9146122096
 30
0.0
 11
198.761816362
 21
172.4923961519
 31
0.0
  0
LINE
  5
163
330
1F
100
AcDbEntity
  8
0
  6
Continuous
 62
     8
370
    15
100
AcDbLine
 10
320.7561254894
 20
222.7035035102
 30
0.0
 11
320.7561254894
 21
162.7035048513
 31
0.0
  0
DIMENSION
  5
164
330
1F
100
AcDbEntity
  8
DIM
100
AcDbDimension
  2
_D
 10
197.9061259424
 20
118.8511022007
 30
0.0
 11
336.6341027853
 21
118.8511022007
 31
0.0
 70
   160
  1
<>
 71
     2
 42
-1.0
  3
SLDDIMSTYLE0
100
AcDbAlignedDimension
 13
459.6561259424
 23
169.2035041807
 33
0.0
 14
197.9061259424
 24
192.7035041807
 34
0.0
 50
0.0
100
AcDbRotatedDimension
  0
DIMENSION
  5
16F
330
1F
100
AcDbEntity
  8
DIM
100
AcDbDimension
  2
_D_1
 10
459.6561259424
 20
131.3894285643
 30
0.0
 11
398.0222950996
 21
131.3894285643
 31
0.0
 70
   160
  1
<>
 71
     2
 42
-1.0
  3
SLDDIMSTYLE0
100
AcDbAlignedDimension
 13
299.6561259424
 23
157.7785041807
 33
0.0
 14
459.6561259424
 24
169.2035041807
 34
0.0
100
AcDbRotatedDimension
  0
DIMENSION
  5
179
330
1F
100
AcDbEntity
  8
DIM
100
AcDbDimension
  2
_D_2
 10
185.8176417046
 20
143.9535041807
 30
0.0
 11
185.8176417046
 21
191.4056413344
 31
0.0
 70
   160
  1
%%c<>
 71
     2
 42
-1.0
  3
SLDDIMSTYLE1
100
AcDbAlignedDimension
 13
304.0218113673
 23
241.4535041807
 33
0.0
 14
304.0218113673
 24
143.9535041807
 34
0.0
 50
90.0
100
AcDbRotatedDimension
  0
DIMENSION
  5
185
330
1F
100
AcDbEntity
  8
DIM
100
AcDbDimension
  2
_D_3
 10
470.7960290888
 20
162.7035041807
 30
0.0
 11
470.7960290888
 21
191.8785300008
 31
0.0
 70
   160
  1
%%c<>
 71
     2
 42
-1.0
  3
SLDDIMSTYLE0
100
AcDbAlignedDimension
 13
406.1339578185
 23
222.7035041807
 33
0.0
 14
406.1339578185
 24
162.7035041807
 34
0.0
 50
90.0
100
AcDbRotatedDimension
  0
DIMENSION
  5
190
330
1F
100
AcDbEntity
  8
DIM
100
AcDbDimension
  2
_D_4
 10
480.9663466074
 20
161.2035041807
 30
0.0
 11
480.9663466074
 21
191.8785300008
 31
0.0
 70
   160
  1
%%c<>
 71
     2
 42
-1.0
  3
SLDDIMSTYLE0
100
AcDbAlignedDimension
 13
455.0373237888
 23
224.2035041807
 33
0.0
 14
455.0373237888
 24
161.2035041807
 34
0.0
 50
90.0
100
AcDbRotatedDimension
  0
LINE
  5
19B
330
1F
100
AcDbEntity
  8
DIM
  6
CENTERX2
 48
1.1111111111
370
     0
100
AcDbLine
 10
194.3875074408
 20
192.7035041807
 30
0.0
 11
461.4873302472
 21
192.7035041807
 31
0.0
  0
ENDSEC
  0
SECTION
  2
OBJECTS
  0
DICTIONARY
  5
C
330
0
100
AcDbDictionary
281
     1
  3
ACAD_GROUP
350
D
  3
ACAD_LAYOUT
350
1A
  3
ACAD_MLINESTYLE
350
17
  3
ACAD_PLOTSETTINGS
350
19
  3
ACAD_PLOTSTYLENAME
350
E
  3
ACAD_SCALELIST
350
47
  0
DICTIONARY
  5
D
102
{ACAD_REACTORS
330
C
102
}
330
C
100
AcDbDictionary
281
     1
  0
DICTIONARY
  5
1A
102
{ACAD_REACTORS
330
C
102
}
330
C
100
AcDbDictionary
281
     1
  3
Layout1
350
1E
  3
Layout2
350
26
  3
Model
350
22
  0
DICTIONARY
  5
17
102
{ACAD_REACTORS
330
C
102
}
330
C
100
AcDbDictionary
281
     1
  3
Standard
350
18
  0
DICTIONARY
  5
19
102
{ACAD_REACTORS
330
C
102
}
330
C
100
AcDbDictionary
281
     1
  0
ACDBDICTIONARYWDFLT
  5
E
102
{ACAD_REACTORS
330
C
102
}
330
C
100
AcDbDictionary
281
     1
  3
Normal
350
F
100
AcDbDictionaryWithDefault
340
F
  0
DICTIONARY
  5
47
102
{ACAD_REACTORS
330
C
102
}
330
C
100
AcDbDictionary
281
     1
  3
A0
350
48
  3
A1
350
49
  3
A2
350
4A
  3
A3
350
4B
  3
A4
350
4C
  3
A5
350
4D
  3
A6
350
4E
  3
A7
350
4F
  3
A8
350
50
  3
A9
350
51
  3
B0
350
52
  3
B1
350
53
  3
B2
350
54
  3
B3
350
55
  3
B4
350
56
  3
B5
350
57
  3
B6
350
58
  3
B7
350
59
  3
B8
350
5A
  3
B9
350
5B
  3
C0
350
5C
  3
C1
350
5D
  3
C2
350
5E
  3
C3
350
5F
  3
C4
350
60
  3
C5
350
61
  3
C6
350
62
  3
C7
350
63
  3
C8
350
64
  3
C9
350
65
  3
D0
350
66
  3
D1
350
67
  3
D2
350
68
  0
LAYOUT
  5
1E
102
{ACAD_REACTORS
330
1A
102
}
330
1A
100
AcDbPlotSettings
  1

  2
none_device
  4

  6

 40
0.0
 41
0.0
 42
0.0
 43
0.0
 44
0.0
 45
0.0
 46
0.0
 47
0.0
 48
0.0
 49
0.0
140
0.0
141
0.0
142
1.0
143
1.0
 70
   688
 72
     1
 73
     0
 74
     5
  7

 75
    16
147
1.0
148
0.0
149
0.0
100
AcDbLayout
  1
Layout1
 70
     1
 71
     1
 10
0.0
 20
0.0
 11
420.0
 21
297.0
 12
0.0
 22
0.0
 32
0.0
 14
1.0000000000E+20
 24
1.0000000000E+20
 34
1.0000000000E+20
 15
-1.0000000000E+20
 25
-1.0000000000E+20
 35
-1.0000000000E+20
146
0.0
 13
0.0
 23
0.0
 33
0.0
 16
1.0
 26
0.0
 36
0.0
 17
0.0
 27
1.0
 37
0.0
 76
     0
330
1B
  0
LAYOUT
  5
26
102
{ACAD_REACTORS
330
1A
102
}
330
1A
100
AcDbPlotSettings
  1

  2
none_device
  4

  6

 40
0.0
 41
0.0
 42
0.0
 43
0.0
 44
0.0
 45
0.0
 46
0.0
 47
0.0
 48
0.0
 49
0.0
140
0.0
141
0.0
142
1.0
143
1.0
 70
   688
 72
     1
 73
     0
 74
     5
  7

 75
    16
147
1.0
148
0.0
149
0.0
100
AcDbLayout
  1
Layout2
 70
     1
 71
     2
 10
0.0
 20
0.0
 11
0.0
 21
0.0
 12
0.0
 22
0.0
 32
0.0
 14
0.0
 24
0.0
 34
0.0
 15
0.0
 25
0.0
 35
0.0
146
0.0
 13
0.0
 23
0.0
 33
0.0
 16
1.0
 26
0.0
 36
0.0
 17
0.0
 27
1.0
 37
0.0
 76
     0
330
23
  0
LAYOUT
  5
22
102
{ACAD_REACTORS
330
1A
102
}
330
1A
100
AcDbPlotSettings
  1

  2
none_device
  4
Letter_(8.50_x_11.00_Inches)
  6

 40
6.35
 41
6.35
 42
6.35000508
 43
6.35000508
 44
215.9
 45
279.4
 46
0.0
 47
0.0
 48
0.0
 49
0.0
140
0.0
141
0.0
142
1.0
143
1.0
 70
  1712
 72
     1
 73
     0
 74
     0
  7

 75
     0
147
1.0
148
0.0
149
0.0
100
AcDbLayout
  1
Model
 70
     1
 71
     0
 10
0.0
 20
0.0
 11
534.6
 21
378.0
 12
0.0
 22
0.0
 32
0.0
 14
0.0
 24
0.0
 34
0.0
 15
534.6
 25
378.0
 35
0.0
146
0.0
 13
0.0
 23
0.0
 33
0.0
 16
1.0
 26
0.0
 36
0.0
 17
0.0
 27
1.0
 37
0.0
 76
     0
330
1F
331
29
  0
MLINESTYLE
  5
18
102
{ACAD_REACTORS
330
17
102
}
330
17
100
AcDbMlineStyle
  2
Standard
 70
     0
  3

 62
   256
 51
90.0
 52
90.0
 71
     2
 49
0.5
 62
   256
  6
BYLAYER
 49
-0.5
 62
   256
  6
BYLAYER
  0
ACDBPLACEHOLDER
  5
F
102
{ACAD_REACTORS
330
E
102
}
330
E
  0
SCALE
  5
48
102
{ACAD_REACTORS
330
47
102
}
330
47
100
AcDbScale
 70
     0
300
1:1
140
1.0
141
1.0
290
     1
  0
SCALE
  5
49
102
{ACAD_REACTORS
330
47
102
}
330
47
100
AcDbScale
 70
     0
300
1:2
140
1.0
141
2.0
290
     0
  0
SCALE
  5
4A
102
{ACAD_REACTORS
330
47
102
}
330
47
100
AcDbScale
 70
     0
300
1:4
140
1.0
141
4.0
290
     0
  0
SCALE
  5
4B
102
{ACAD_REACTORS
330
47
102
}
330
47
100
AcDbScale
 70
     0
300
1:5
140
1.0
141
5.0
290
     0
  0
SCALE
  5
4C
102
{ACAD_REACTORS
330
47
102
}
330
47
100
AcDbScale
 70
     0
300
1:8
140
1.0
141
8.0
290
     0
  0
SCALE
  5
4D
102
{ACAD_REACTORS
330
47
102
}
330
47
100
AcDbScale
 70
     0
300
1:10
140
1.0
141
10.0
290
     0
  0
SCALE
  5
4E
102
{ACAD_REACTORS
330
47
102
}
330
47
100
AcDbScale
 70
     0
300
1:16
140
1.0
141
16.0
290
     0
  0
SCALE
  5
4F
102
{ACAD_REACTORS
330
47
102
}
330
47
100
AcDbScale
 70
     0
300
1:20
140
1.0
141
20.0
290
     0
  0
SCALE
  5
50
102
{ACAD_REACTORS
330
47
102
}
330
47
100
AcDbScale
 70
     0
300
1:30
140
1.0
141
30.0
290
     0
  0
SCALE
  5
51
102
{ACAD_REACTORS
330
47
102
}
330
47
100
AcDbScale
 70
     0
300
1:40
140
1.0
141
40.0
290
     0
  0
SCALE
  5
52
102
{ACAD_REACTORS
330
47
102
}
330
47
100
AcDbScale
 70
     0
300
1:50
140
1.0
141
50.0
290
     0
  0
SCALE
  5
53
102
{ACAD_REACTORS
330
47
102
}
330
47
100
AcDbScale
 70
     0
300
1:100
140
1.0
141
100.0
290
     0
  0
SCALE
  5
54
102
{ACAD_REACTORS
330
47
102
}
330
47
100
AcDbScale
 70
     0
300
2:1
140
2.0
141
1.0
290
     0
  0
SCALE
  5
55
102
{ACAD_REACTORS
330
47
102
}
330
47
100
AcDbScale
 70
     0
300
4:1
140
4.0
141
1.0
290
     0
  0
SCALE
  5
56
102
{ACAD_REACTORS
330
47
102
}
330
47
100
AcDbScale
 70
     0
300
8:1
140
8.0
141
1.0
290
     0
  0
SCALE
  5
57
102
{ACAD_REACTORS
330
47
102
}
330
47
100
AcDbScale
 70
     0
300
10:1
140
10.0
141
1.0
290
     0
  0
SCALE
  5
58
102
{ACAD_REACTORS
330
47
102
}
330
47
100
AcDbScale
 70
     0
300
100:1
140
100.0
141
1.0
290
     0
  0
SCALE
  5
59
102
{ACAD_REACTORS
330
47
102
}
330
47
100
AcDbScale
 70
     0
300
1/128" = 1'-0"
140
0.0078125
141
12.0
290
     0
  0
SCALE
  5
5A
102
{ACAD_REACTORS
330
47
102
}
330
47
100
AcDbScale
 70
     0
300
1/64" = 1'-0"
140
0.015625
141
12.0
290
     0
  0
SCALE
  5
5B
102
{ACAD_REACTORS
330
47
102
}
330
47
100
AcDbScale
 70
     0
300
1/32" = 1'-0"
140
0.03125
141
12.0
290
     0
  0
SCALE
  5
5C
102
{ACAD_REACTORS
330
47
102
}
330
47
100
AcDbScale
 70
     0
300
1/16" = 1'-0"
140
0.0625
141
12.0
290
     0
  0
SCALE
  5
5D
102
{ACAD_REACTORS
330
47
102
}
330
47
100
AcDbScale
 70
     0
300
3/32" = 1'-0"
140
0.09375
141
12.0
290
     0
  0
SCALE
  5
5E
102
{ACAD_REACTORS
330
47
102
}
330
47
100
AcDbScale
 70
     0
300
1/8" = 1'-0"
140
0.125
141
12.0
290
     0
  0
SCALE
  5
5F
102
{ACAD_REACTORS
330
47
102
}
330
47
100
AcDbScale
 70
     0
300
3/16" = 1'-0"
140
0.1875
141
12.0
290
     0
  0
SCALE
  5
60
102
{ACAD_REACTORS
330
47
102
}
330
47
100
AcDbScale
 70
     0
300
1/4" = 1'-0"
140
0.25
141
12.0
290
     0
  0
SCALE
  5
61
102
{ACAD_REACTORS
330
47
102
}
330
47
100
AcDbScale
 70
     0
300
3/8" = 1'-0"
140
0.375
141
12.0
290
     0
  0
SCALE
  5
62
102
{ACAD_REACTORS
330
47
102
}
330
47
100
AcDbScale
 70
     0
300
1/2" = 1'-0"
140
0.5
141
12.0
290
     0
  0
SCALE
  5
63
102
{ACAD_REACTORS
330
47
102
}
330
47
100
AcDbScale
 70
     0
300
3/4" = 1'-0"
140
0.75
141
12.0
290
     0
  0
SCALE
  5
64
102
{ACAD_REACTORS
330
47
102
}
330
47
100
AcDbScale
 70
     0
300
1" = 1'-0"
140
1.0
141
12.0
290
     0
  0
SCALE
  5
65
102
{ACAD_REACTORS
330
47
102
}
330
47
100
AcDbScale
 70
     0
300
1-1/2" = 1'-0"
140
1.5
141
12.0
290
     0
  0
SCALE
  5
66
102
{ACAD_REACTORS
330
47
102
}
330
47
100
AcDbScale
 70
     0
300
3" = 1'-0"
140
3.0
141
12.0
290
     0
  0
SCALE
  5
67
102
{ACAD_REACTORS
330
47
102
}
330
47
100
AcDbScale
 70
     0
300
6" = 1'-0"
140
6.0
141
12.0
290
     0
  0
SCALE
  5
68
102
{ACAD_REACTORS
330
47
102
}
330
47
100
AcDbScale
 70
     0
300
1'-0" = 1'-0"
140
12.0
141
12.0
290
     0
  0
ENDSEC
  0
EOF
