  0
SECTION
  2
HEADER
  9
$ACADVER
  1
AC1015
  9
$ACADMAINTVER
 70
     6
  9
$DWGCODEPAGE
  3
ANSI_1252
  9
$INSBASE
 10
0.0
 20
0.0
 30
0.0
  9
$EXTMIN
 10
0.0
 20
0.0
 30
0.0
  9
$EXTMAX
 10
326.7
 20
231.0
 30
0.0
  9
$LIMMIN
 10
0.0
 20
0.0
  9
$LIMMAX
 10
326.7
 20
231.0
  9
$ORTHOMODE
 70
     0
  9
$REGENMODE
 70
     1
  9
$FILLMODE
 70
     1
  9
$QTEXTMODE
 70
     0
  9
$MIRRTEXT
 70
     1
  9
$LTSCALE
 40
1.1
  9
$ATTMODE
 70
     1
  9
$TEXTSIZE
 40
4.2686111111
  9
$TRACEWID
 40
1.0
  9
$TEXTSTYLE
  7
Standard
  9
$CLAYER
  8
0
  9
$CELTYPE
  6
ByLayer
  9
$CECOLOR
 62
   256
  9
$CELTSCALE
 40
1.0
  9
$DISPSILH
 70
     0
  9
$DIMSCALE
 40
1.0
  9
$DIMASZ
 40
3.6322
  9
$DIMEXO
 40
1.1
  9
$DIMDLI
 40
3.75
  9
$DIMRND
 40
0.0
  9
$DIMDLE
 40
0.0
  9
$DIMEXE
 40
1.1
  9
$DIMTP
 40
0.0
  9
$DIMTM
 40
0.0
  9
$DIMTXT
 40
4.2686111111
  9
$DIMCEN
 40
2.5
  9
$DIMTSZ
 40
0.0
  9
$DIMTOL
 70
     0
  9
$DIMLIM
 70
     0
  9
$DIMTIH
 70
     1
  9
$DIMTOH
 70
     1
  9
$DIMSE1
 70
     0
  9
$DIMSE2
 70
     0
  9
$DIMTAD
 70
     1
  9
$DIMZIN
 70
     0
  9
$DIMBLK
  1

  9
$DIMASO
 70
     1
  9
$DIMSHO
 70
     1
  9
$DIMPOST
  1

  9
$DIMAPOST
  1

  9
$DIMALT
 70
     0
  9
$DIMALTD
 70
     3
  9
$DIMALTF
 40
0.0393700787
  9
$DIMLFAC
 40
1.0
  9
$DIMTOFL
 70
     1
  9
$DIMTVP
 40
0.0
  9
$DIMTIX
 70
     0
  9
$DIMSOXD
 70
     0
  9
$DIMSAH
 70
     0
  9
$DIMBLK1
  1

  9
$DIMBLK2
  1

  9
$DIMSTYLE
  2
ISO-25
  9
$DIMCLRD
 70
     0
  9
$DIMCLRE
 70
     0
  9
$DIMCLRT
 70
     0
  9
$DIMTFAC
 40
1.0
  9
$DIMGAP
 40
1.6764
  9
$DIMJUST
 70
     0
  9
$DIMSD1
 70
     0
  9
$DIMSD2
 70
     0
  9
$DIMTOLJ
 70
     0
  9
$DIMTZIN
 70
     0
  9
$DIMALTZ
 70
     0
  9
$DIMALTTZ
 70
     0
  9
$DIMUPT
 70
     0
  9
$DIMDEC
 70
     2
  9
$DIMTDEC
 70
     2
  9
$DIMALTU
 70
     2
  9
$DIMALTTD
 70
     3
  9
$DIMTXSTY
  7
Standard
  9
$DIMAUNIT
 70
     0
  9
$DIMADEC
 70
     2
  9
$DIMALTRND
 40
0.0
  9
$DIMAZIN
 70
     0
  9
$DIMDSEP
 70
    44
  9
$DIMATFIT
 70
     3
  9
$DIMFRAC
 70
     0
  9
$DIMLDRBLK
  1

  9
$DIMLUNIT
 70
     2
  9
$DIMLWD
 70
    -2
  9
$DIMLWE
 70
    -2
  9
$DIMTMOVE
 70
     0
  9
$LUNITS
 70
     2
  9
$LUPREC
 70
     2
  9
$SKETCHINC
 40
1.0
  9
$FILLETRAD
 40
10.0
  9
$AUNITS
 70
     1
  9
$AUPREC
 70
     2
  9
$MENU
  1
.
  9
$ELEVATION
 40
0.0
  9
$PELEVATION
 40
0.0
  9
$THICKNESS
 40
0.0
  9
$LIMCHECK
 70
     0
  9
$CHAMFERA
 40
0.0
  9
$CHAMFERB
 40
0.0
  9
$CHAMFERC
 40
0.0
  9
$CHAMFERD
 40
0.0
  9
$SKPOLY
 70
     0
  9
$TDCREATE
 40
2458606.374678449
  9
$TDUCREATE
 40
2458606.145511782
  9
$TDUPDATE
 40
2458606.374679502
  9
$TDUUPDATE
 40
2458606.145512836
  9
$TDINDWG
 40
0.0000000116
  9
$TDUSRTIMER
 40
0.0000000116
  9
$USRTIMER
 70
     1
  9
$ANGBASE
 50
0.0
  9
$ANGDIR
 70
     0
  9
$PDMODE
 70
     0
  9
$PDSIZE
 40
-1.0
  9
$PLINEWID
 40
0.0
  9
$SPLFRAME
 70
     0
  9
$SPLINETYPE
 70
     6
  9
$SPLINESEGS
 70
     8
  9
$HANDSEED
  5
193
  9
$SURFTAB1
 70
     6
  9
$SURFTAB2
 70
     6
  9
$SURFTYPE
 70
     6
  9
$SURFU
 70
     6
  9
$SURFV
 70
     6
  9
$UCSBASE
  2

  9
$UCSNAME
  2

  9
$UCSORG
 10
0.0
 20
0.0
 30
0.0
  9
$UCSXDIR
 10
1.0
 20
0.0
 30
0.0
  9
$UCSYDIR
 10
0.0
 20
1.0
 30
0.0
  9
$UCSORTHOREF
  2

  9
$UCSORTHOVIEW
 70
     0
  9
$UCSORGTOP
 10
0.0
 20
0.0
 30
0.0
  9
$UCSORGBOTTOM
 10
0.0
 20
0.0
 30
0.0
  9
$UCSORGLEFT
 10
0.0
 20
0.0
 30
0.0
  9
$UCSORGRIGHT
 10
0.0
 20
0.0
 30
0.0
  9
$UCSORGFRONT
 10
0.0
 20
0.0
 30
0.0
  9
$UCSORGBACK
 10
0.0
 20
0.0
 30
0.0
  9
$PUCSBASE
  2

  9
$PUCSNAME
  2

  9
$PUCSORG
 10
0.0
 20
0.0
 30
0.0
  9
$PUCSXDIR
 10
1.0
 20
0.0
 30
0.0
  9
$PUCSYDIR
 10
0.0
 20
1.0
 30
0.0
  9
$PUCSORTHOREF
  2

  9
$PUCSORTHOVIEW
 70
     0
  9
$PUCSORGTOP
 10
0.0
 20
0.0
 30
0.0
  9
$PUCSORGBOTTOM
 10
0.0
 20
0.0
 30
0.0
  9
$PUCSORGLEFT
 10
0.0
 20
0.0
 30
0.0
  9
$PUCSORGRIGHT
 10
0.0
 20
0.0
 30
0.0
  9
$PUCSORGFRONT
 10
0.0
 20
0.0
 30
0.0
  9
$PUCSORGBACK
 10
0.0
 20
0.0
 30
0.0
  9
$USERI1
 70
     0
  9
$USERI2
 70
     0
  9
$USERI3
 70
     0
  9
$USERI4
 70
     0
  9
$USERI5
 70
     0
  9
$USERR1
 40
0.0
  9
$USERR2
 40
0.0
  9
$USERR3
 40
0.0
  9
$USERR4
 40
0.0
  9
$USERR5
 40
0.0
  9
$WORLDVIEW
 70
     1
  9
$SHADEDGE
 70
     3
  9
$SHADEDIF
 70
    70
  9
$TILEMODE
 70
     1
  9
$MAXACTVP
 70
    64
  9
$PINSBASE
 10
0.0
 20
0.0
 30
0.0
  9
$PLIMCHECK
 70
     0
  9
$PEXTMIN
 10
1.0000000000E+20
 20
1.0000000000E+20
 30
1.0000000000E+20
  9
$PEXTMAX
 10
-1.0000000000E+20
 20
-1.0000000000E+20
 30
-1.0000000000E+20
  9
$PLIMMIN
 10
0.0
 20
0.0
  9
$PLIMMAX
 10
420.0
 20
297.0
  9
$UNITMODE
 70
     0
  9
$VISRETAIN
 70
     1
  9
$PLINEGEN
 70
     0
  9
$PSLTSCALE
 70
     1
  9
$TREEDEPTH
 70
  3020
  9
$CMLSTYLE
  2
Standard
  9
$CMLJUST
 70
     0
  9
$CMLSCALE
 40
20.0
  9
$PROXYGRAPHICS
 70
     1
  9
$MEASUREMENT
 70
     1
  9
$CELWEIGHT
370
    -1
  9
$ENDCAPS
280
     0
  9
$JOINSTYLE
280
     0
  9
$LWDISPLAY
290
     1
  9
$INSUNITS
 70
     4
  9
$HYPERLINKBASE
  1

  9
$STYLESHEET
  1

  9
$XEDIT
290
     1
  9
$CEPSNTYPE
380
     0
  9
$PSTYLEMODE
290
     1
  9
$FINGERPRINTGUID
  2
{D47900DB-9DF2-4B76-B6C3-E9E6B62EE3F4}
  9
$VERSIONGUID
  2
{FAEB1C32-E019-11D5-929B-00C0DF256EC4}
  9
$EXTNAMES
290
     1
  9
$PSVPSCALE
 40
0.0
  9
$OLESTARTUP
290
     0
  0
ENDSEC
  0
SECTION
  2
CLASSES
  0
CLASS
  1
ACDBDICTIONARYWDFLT
  2
AcDbDictionaryWithDefault
  3
ObjectDBX Classes
 90
        0
280
     0
281
     0
  0
CLASS
  1
VISUALSTYLE
  2
AcDbVisualStyle
  3
ObjectDBX Classes
 90
     4095
280
     0
281
     0
  0
CLASS
  1
MATERIAL
  2
AcDbMaterial
  3
ObjectDBX Classes
 90
     1153
280
     0
281
     0
  0
CLASS
  1
SCALE
  2
AcDbScale
  3
ObjectDBX Classes
 90
     1153
280
     0
281
     0
  0
CLASS
  1
SUN
  2
AcDbSun
  3
SCENEOE
 90
     1153
280
     0
281
     0
  0
CLASS
  1
ACDBPLACEHOLDER
  2
AcDbPlaceHolder
  3
ObjectDBX Classes
 90
        0
280
     0
281
     0
  0
CLASS
  1
LAYOUT
  2
AcDbLayout
  3
ObjectDBX Classes
 90
        0
280
     0
281
     0
  0
ENDSEC
  0
SECTION
  2
TABLES
  0
TABLE
  2
VPORT
  5
8
330
0
100
AcDbSymbolTable
 70
     1
  0
VPORT
  5
29
330
8
100
AcDbSymbolTableRecord
100
AcDbViewportTableRecord
  2
*Active
 70
     0
 10
0.0
 20
0.0
 11
1.0
 21
1.0
 12
163.35
 22
115.5
 13
0.0
 23
0.0
 14
10.0
 24
10.0
 15
10.0
 25
10.0
 16
0.0
 26
0.0
 36
1.0
 17
0.0
 27
0.0
 37
0.0
 40
231.0
 41
1.4142857143
 42
50.0
 43
0.0
 44
0.0
 50
0.0
 51
0.0
 71
     0
 72
  2000
 73
     1
 74
     3
 75
     0
 76
     0
 77
     0
 78
     0
281
     0
 65
     1
110
0.0
120
0.0
130
0.0
111
1.0
121
0.0
131
0.0
112
0.0
122
1.0
132
0.0
 79
     0
146
0.0
  0
ENDTAB
  0
TABLE
  2
LTYPE
  5
5
330
0
100
AcDbSymbolTable
 70
     6
  0
LTYPE
  5
14
330
5
100
AcDbSymbolTableRecord
100
AcDbLinetypeTableRecord
  2
ByBlock
 70
     0
  3

 72
    65
 73
     0
 40
0.0
  0
LTYPE
  5
15
330
5
100
AcDbSymbolTableRecord
100
AcDbLinetypeTableRecord
  2
ByLayer
 70
     0
  3

 72
    65
 73
     0
 40
0.0
  0
LTYPE
  5
16
330
5
100
AcDbSymbolTableRecord
100
AcDbLinetypeTableRecord
  2
Continuous
 70
     0
  3
Solid line
 72
    65
 73
     0
 40
0.0
  0
LTYPE
  5
6A
330
5
100
AcDbSymbolTableRecord
100
AcDbLinetypeTableRecord
  2
HIDDEN
 70
     0
  3
Hidden __ __ __ __ __ __ __ __ __ __ __ __ __ __
 72
    65
 73
     2
 40
1.905
 49
1.27
 74
     0
 49
-0.635
 74
     0
  0
LTYPE
  5
6B
330
5
100
AcDbSymbolTableRecord
100
AcDbLinetypeTableRecord
  2
PHANTOM
 70
     0
  3
Phantom ______  __  __  ______  __  __  ______
 72
    65
 73
     6
 40
12.7
 49
6.35
 74
     0
 49
-1.27
 74
     0
 49
1.27
 74
     0
 49
-1.27
 74
     0
 49
1.27
 74
     0
 49
-1.27
 74
     0
  0
LTYPE
  5
6C
330
5
100
AcDbSymbolTableRecord
100
AcDbLinetypeTableRecord
  2
CENTER
 70
     0
  3
Center ____ _ ____ _ ____ _ ____ _ ____ _ ____
 72
    65
 73
     4
 40
10.16
 49
6.35
 74
     0
 49
-1.27
 74
     0
 49
1.27
 74
     0
 49
-1.27
 74
     0
  0
LTYPE
  5
6D
330
5
100
AcDbSymbolTableRecord
100
AcDbLinetypeTableRecord
  2
CENTERX2
 70
     0
  3
Center (2x) ________  __  ________  __  _____
 72
    65
 73
     4
 40
20.32
 49
12.7
 74
     0
 49
-2.54
 74
     0
 49
2.54
 74
     0
 49
-2.54
 74
     0
  0
LTYPE
  5
6E
330
5
100
AcDbSymbolTableRecord
100
AcDbLinetypeTableRecord
  2
DOT2
 70
     0
  3
Dot (.5x) ........................................
 72
    65
 73
     2
 40
0.635
 49
0.0
 74
     0
 49
-0.635
 74
     0
  0
ENDTAB
  0
TABLE
  2
LAYER
  5
2
330
0
100
AcDbSymbolTable
 70
     8
  0
LAYER
  5
10
330
2
100
AcDbSymbolTableRecord
100
AcDbLayerTableRecord
  2
0
 70
     0
 62
     7
  6
Continuous
370
    -3
390
F
  0
LAYER
  5
6F
330
2
100
AcDbSymbolTableRecord
100
AcDbLayerTableRecord
  2
FORMAT
 70
     0
 62
     7
  6
Continuous
370
    -3
390
F
  0
LAYER
  5
70
330
2
100
AcDbSymbolTableRecord
100
AcDbLayerTableRecord
  2
SLD-0
 70
     0
 62
     2
  6
Continuous
370
    -3
390
F
  0
LAYER
  5
71
330
2
100
AcDbSymbolTableRecord
100
AcDbLayerTableRecord
  2
DIM
 70
     0
 62
   179
  6
Continuous
370
    -3
390
F
  0
LAYER
  5
72
330
2
100
AcDbSymbolTableRecord
100
AcDbLayerTableRecord
  2
SLD-DEFPOINTS
 70
     0
 62
   179
  6
Continuous
370
    -3
390
F
  0
LAYER
  5
73
330
2
100
AcDbSymbolTableRecord
100
AcDbLayerTableRecord
  2
HAT
 70
     0
 62
   135
  6
Continuous
370
    -3
390
F
  0
LAYER
  5
74
330
2
100
AcDbSymbolTableRecord
100
AcDbLayerTableRecord
  2
JOB
 70
     0
 62
   201
  6
Continuous
370
    -3
390
F
  0
LAYER
  5
75
330
2
100
AcDbSymbolTableRecord
100
AcDbLayerTableRecord
  2
INSPECTION_REPORT
 70
     0
 62
   255
  6
Continuous
370
    -3
390
F
  0
ENDTAB
  0
TABLE
  2
STYLE
  5
3
330
0
100
AcDbSymbolTable
 70
     4
  0
STYLE
  5
11
330
3
100
AcDbSymbolTableRecord
100
AcDbTextStyleTableRecord
  2
Standard
 70
     0
 40
0.0
 41
1.0
 50
0.0
 71
     0
 42
4.2686111111
  3
txt
  4

  0
STYLE
  5
96
330
3
100
AcDbSymbolTableRecord
100
AcDbTextStyleTableRecord
  2
SLDTEXTSTYLE0
 70
     0
 40
0.0
 41
0.7
 50
0.0
 71
     0
 42
4.2686111111
  3
TXT
  4

  0
STYLE
  5
98
330
3
100
AcDbSymbolTableRecord
100
AcDbTextStyleTableRecord
  2
SLDTEXTSTYLE1
 70
     0
 40
0.0
 41
0.75
 50
0.0
 71
     0
 42
4.2686111111
  3
TXT
  4

  0
STYLE
  5
AB
330
3
100
AcDbSymbolTableRecord
100
AcDbTextStyleTableRecord
  2
SLDTEXTSTYLE2
 70
     0
 40
0.0
 41
0.6875
 50
0.0
 71
     0
 42
4.2686111111
  3
TXT
  4

  0
ENDTAB
  0
TABLE
  2
VIEW
  5
6
330
0
100
AcDbSymbolTable
 70
     0
  0
ENDTAB
  0
TABLE
  2
UCS
  5
7
330
0
100
AcDbSymbolTable
 70
     0
  0
ENDTAB
  0
TABLE
  2
APPID
  5
9
330
0
100
AcDbSymbolTable
 70
     1
  0
APPID
  5
12
330
9
100
AcDbSymbolTableRecord
100
AcDbRegAppTableRecord
  2
ACAD
 70
     0
  0
ENDTAB
  0
TABLE
  2
DIMSTYLE
  5
A
330
0
100
AcDbSymbolTable
 70
     4
100
AcDbDimStyleTable
  0
DIMSTYLE
105
27
330
A
100
AcDbSymbolTableRecord
100
AcDbDimStyleTableRecord
  2
ISO-25
 70
     0
 41
2.5
 42
0.625
 43
3.75
 44
1.25
 73
     0
 74
     0
 77
     1
 78
     8
140
2.5
141
2.5
143
0.0393700787
147
0.625
171
     3
172
     1
178
     0
271
     2
272
     2
274
     3
278
    44
283
     0
284
     8
340
11
  0
DIMSTYLE
105
14F
102
{ACAD_REACTORS
330
14E
330
168
102
}
330
A
100
AcDbSymbolTableRecord
100
AcDbDimStyleTableRecord
  2
SLDDIMSTYLE0
 70
     0
 41
3.6322
 44
0.0
 45
0.000000001
 73
     0
 74
     0
 77
     1
 78
    12
 79
     3
140
3.2014583333
147
0.8003645833
172
     1
173
     1
178
     0
271
     2
272
     2
276
     2
284
    12
289
     0
340
96
  0
DIMSTYLE
105
15D
102
{ACAD_REACTORS
330
15C
330
188
102
}
330
A
100
AcDbSymbolTableRecord
100
AcDbDimStyleTableRecord
  2
SLDDIMSTYLE1
 70
     0
 41
3.6322
 44
0.0
 45
0.000000001
 73
     0
 74
     0
 77
     1
 78
    12
 79
     3
140
3.2014583333
147
0.8003645833
173
     1
178
     0
271
     2
272
     2
276
     2
284
    12
340
96
  0
DIMSTYLE
105
173
102
{ACAD_REACTORS
330
172
330
17D
102
}
330
A
100
AcDbSymbolTableRecord
100
AcDbDimStyleTableRecord
  2
SLDDIMSTYLE2
 70
     0
 41
3.6322
 44
0.0
 45
0.000000001
 73
     0
 74
     0
 77
     1
 78
     4
 79
     1
140
3.2014583333
147
0.8003645833
173
     1
178
     0
271
     2
272
     2
276
     2
284
    12
340
96
  0
ENDTAB
  0
TABLE
  2
BLOCK_RECORD
  5
1
330
0
100
AcDbSymbolTable
 70
     7
  0
BLOCK_RECORD
  5
1F
330
1
100
AcDbSymbolTableRecord
100
AcDbBlockTableRecord
  2
*Model_Space
340
22
  0
BLOCK_RECORD
  5
1B
330
1
100
AcDbSymbolTableRecord
100
AcDbBlockTableRecord
  2
*Paper_Space
340
1E
  0
BLOCK_RECORD
  5
23
330
1
100
AcDbSymbolTableRecord
100
AcDbBlockTableRecord
  2
*Paper_Space0
340
26
  0
BLOCK_RECORD
  5
150
330
1
100
AcDbSymbolTableRecord
100
AcDbBlockTableRecord
  2
_D
340
0
  0
BLOCK_RECORD
  5
15E
330
1
100
AcDbSymbolTableRecord
100
AcDbBlockTableRecord
  2
_D_1
340
0
  0
BLOCK_RECORD
  5
169
330
1
100
AcDbSymbolTableRecord
100
AcDbBlockTableRecord
  2
_D_2
340
0
  0
BLOCK_RECORD
  5
174
330
1
100
AcDbSymbolTableRecord
100
AcDbBlockTableRecord
  2
_D_3
340
0
  0
BLOCK_RECORD
  5
17E
330
1
100
AcDbSymbolTableRecord
100
AcDbBlockTableRecord
  2
_D_4
340
0
  0
BLOCK_RECORD
  5
189
330
1
100
AcDbSymbolTableRecord
100
AcDbBlockTableRecord
  2
_D_5
340
0
  0
ENDTAB
  0
ENDSEC
  0
SECTION
  2
BLOCKS
  0
BLOCK
  5
20
330
1F
100
AcDbEntity
  8
0
100
AcDbBlockBegin
  2
*Model_Space
 70
     0
 10
0.0
 20
0.0
 30
0.0
  3
*Model_Space
  1
*Model_Space
  0
ENDBLK
  5
21
330
1F
100
AcDbEntity
  8
0
100
AcDbBlockEnd
  0
BLOCK
  5
1C
330
1B
100
AcDbEntity
 67
     1
  8
0
100
AcDbBlockBegin
  2
*Paper_Space
 70
     0
 10
0.0
 20
0.0
 30
0.0
  3
*Paper_Space
  1
*Paper_Space
  0
ENDBLK
  5
1D
330
1B
100
AcDbEntity
 67
     1
  8
0
100
AcDbBlockEnd
  0
BLOCK
  5
24
330
23
100
AcDbEntity
  8
0
100
AcDbBlockBegin
  2
*Paper_Space0
 70
     0
 10
0.0
 20
0.0
 30
0.0
  3
*Paper_Space0
  1
*Paper_Space0
  0
ENDBLK
  5
25
330
23
100
AcDbEntity
  8
0
100
AcDbBlockEnd
  0
BLOCK
  5
151
330
150
100
AcDbEntity
  8
0
100
AcDbBlockBegin
  2
_D
 70
     0
 10
0.0
 20
0.0
 30
0.0
  3
_D
  1
_D
  0
SOLID
  5
153
330
150
100
AcDbEntity
  8
DIM
100
AcDbTrace
 10
300.8486829821
 20
131.4424482608
 30
0.0
 11
301.4074829821
 21
135.0746482608
 31
0.0
 12
300.2898829821
 22
135.0746482608
 32
0.0
 13
300.2898829821
 23
135.0746482608
 33
0.0
  0
SOLID
  5
154
330
150
100
AcDbEntity
  8
DIM
100
AcDbTrace
 10
300.8486829821
 20
109.4424482608
 30
0.0
 11
300.2898829821
 21
105.8102482608
 31
0.0
 12
301.4074829821
 22
105.8102482608
 32
0.0
 13
301.4074829821
 23
105.8102482608
 33
0.0
  0
LINE
  5
155
330
150
100
AcDbEntity
  8
DIM
100
AcDbLine
 10
281.9713842143
 20
131.4424482608
 30
0.0
 11
301.9486829821
 21
131.4424482608
 31
0.0
  0
LINE
  5
156
330
150
100
AcDbEntity
  8
DIM
100
AcDbLine
 10
281.9713842143
 20
109.4424482608
 30
0.0
 11
301.9486829821
 21
109.4424482608
 31
0.0
  0
LINE
  5
157
330
150
100
AcDbEntity
  8
DIM
100
AcDbLine
 10
300.8486829821
 20
131.4424482608
 30
0.0
 11
300.8486829821
 21
138.4274482608
 31
0.0
  0
LINE
  5
158
330
150
100
AcDbEntity
  8
DIM
100
AcDbLine
 10
300.8486829821
 20
131.4424482608
 30
0.0
 11
300.8486829821
 21
109.4424482608
 31
0.0
  0
LINE
  5
159
330
150
100
AcDbEntity
  8
DIM
100
AcDbLine
 10
300.8486829821
 20
109.4424482608
 30
0.0
 11
300.8486829821
 21
102.4574482608
 31
0.0
  0
MTEXT
  5
15A
330
150
100
AcDbEntity
  8
DIM
100
AcDbMText
 10
296.7217860683
 20
115.8031497454
 30
0.0
 40
3.2014583333
 41
0.0
 71
     1
 72
     1
  1
%%c
  7
SLDTEXTSTYLE0
 11
-7.044195017643634E-15
 21
1.0
 31
0.0
 73
     1
 44
1.0
  0
MTEXT
  5
15B
330
150
100
AcDbEntity
  8
DIM
100
AcDbMText
 10
296.7217860683
 20
120.7538492349
 30
0.0
 40
3.2014583333
 41
0.0
 71
     1
 72
     1
  1
22
  7
SLDTEXTSTYLE0
 11
-7.044195017643634E-15
 21
1.0
 31
0.0
 73
     1
 44
1.0
  0
ENDBLK
  5
152
330
150
100
AcDbEntity
  8
0
100
AcDbBlockEnd
  0
BLOCK
  5
15F
330
15E
100
AcDbEntity
  8
0
100
AcDbBlockBegin
  2
_D_1
 70
     0
 10
0.0
 20
0.0
 30
0.0
  3
_D_1
  1
_D_1
  0
SOLID
  5
161
330
15E
100
AcDbEntity
  8
DIM
100
AcDbTrace
 10
306.4034825054
 20
144.4424482608
 30
0.0
 11
305.8446825054
 21
140.8102482608
 31
0.0
 12
306.9622825054
 22
140.8102482608
 32
0.0
 13
306.9622825054
 23
140.8102482608
 33
0.0
  0
SOLID
  5
162
330
15E
100
AcDbEntity
  8
DIM
100
AcDbTrace
 10
306.4034825054
 20
96.4424482608
 30
0.0
 11
306.9622825054
 21
100.0746482608
 31
0.0
 12
305.8446825054
 22
100.0746482608
 32
0.0
 13
305.8446825054
 23
100.0746482608
 33
0.0
  0
LINE
  5
163
330
15E
100
AcDbEntity
  8
DIM
100
AcDbLine
 10
263.3570248604
 20
144.4424482608
 30
0.0
 11
307.5034825054
 21
144.4424482608
 31
0.0
  0
LINE
  5
164
330
15E
100
AcDbEntity
  8
DIM
100
AcDbLine
 10
263.3570248604
 20
96.4424482608
 30
0.0
 11
307.5034825054
 21
96.4424482608
 31
0.0
  0
LINE
  5
165
330
15E
100
AcDbEntity
  8
DIM
100
AcDbLine
 10
306.4034825054
 20
144.4424482608
 30
0.0
 11
306.4034825054
 21
96.4424482608
 31
0.0
  0
MTEXT
  5
166
330
15E
100
AcDbEntity
  8
DIM
100
AcDbMText
 10
302.2765855915
 20
115.8031497454
 30
0.0
 40
3.2014583333
 41
0.0
 71
     1
 72
     1
  1
%%c
  7
SLDTEXTSTYLE0
 11
-7.044195017643634E-15
 21
1.0
 31
0.0
 73
     1
 44
1.0
  0
MTEXT
  5
167
330
15E
100
AcDbEntity
  8
DIM
100
AcDbMText
 10
302.2765855915
 20
120.7538492349
 30
0.0
 40
3.2014583333
 41
0.0
 71
     1
 72
     1
  1
48
  7
SLDTEXTSTYLE0
 11
-7.044195017643634E-15
 21
1.0
 31
0.0
 73
     1
 44
1.0
  0
ENDBLK
  5
160
330
15E
100
AcDbEntity
  8
0
100
AcDbBlockEnd
  0
BLOCK
  5
16A
330
169
100
AcDbEntity
  8
0
100
AcDbBlockBegin
  2
_D_2
 70
     0
 10
0.0
 20
0.0
 30
0.0
  3
_D_2
  1
_D_2
  0
SOLID
  5
16C
330
169
100
AcDbEntity
  8
DIM
100
AcDbTrace
 10
263.2570248604
 20
77.9870008914
 30
0.0
 11
266.8892248604
 21
77.4282008914
 31
0.0
 12
266.8892248604
 22
78.5458008914
 32
0.0
 13
266.8892248604
 23
78.5458008914
 33
0.0
  0
SOLID
  5
16D
330
169
100
AcDbEntity
  8
DIM
100
AcDbTrace
 10
282.2570248604
 20
77.9870008914
 30
0.0
 11
278.6248248604
 21
78.5458008914
 31
0.0
 12
278.6248248604
 22
77.4282008914
 32
0.0
 13
278.6248248604
 23
77.4282008914
 33
0.0
  0
LINE
  5
16E
330
169
100
AcDbEntity
  8
DIM
100
AcDbLine
 10
263.2570248604
 20
96.3424482608
 30
0.0
 11
263.2570248604
 21
76.8870008914
 31
0.0
  0
LINE
  5
16F
330
169
100
AcDbEntity
  8
DIM
100
AcDbLine
 10
282.2570248604
 20
109.1424482608
 30
0.0
 11
282.2570248604
 21
76.8870008914
 31
0.0
  0
LINE
  5
170
330
169
100
AcDbEntity
  8
DIM
100
AcDbLine
 10
263.2570248604
 20
77.9870008914
 30
0.0
 11
282.2570248604
 21
77.9870008914
 31
0.0
  0
MTEXT
  5
171
330
169
100
AcDbEntity
  8
DIM
100
AcDbMText
 10
270.5930760898
 20
82.1138978053
 30
0.0
 40
3.2014583333
 41
0.0
 71
     1
 72
     1
  1
19
  7
SLDTEXTSTYLE0
 73
     1
 44
1.0
  0
ENDBLK
  5
16B
330
169
100
AcDbEntity
  8
0
100
AcDbBlockEnd
  0
BLOCK
  5
175
330
174
100
AcDbEntity
  8
0
100
AcDbBlockBegin
  2
_D_3
 70
     0
 10
0.0
 20
0.0
 30
0.0
  3
_D_3
  1
_D_3
  0
SOLID
  5
177
330
174
100
AcDbEntity
  8
DIM
100
AcDbTrace
 10
34.8570248604
 20
71.0923482608
 30
0.0
 11
38.4892248604
 21
70.5335482608
 31
0.0
 12
38.4892248604
 22
71.6511482608
 32
0.0
 13
38.4892248604
 23
71.6511482608
 33
0.0
  0
SOLID
  5
178
330
174
100
AcDbEntity
  8
DIM
100
AcDbTrace
 10
294.2570248604
 20
71.0923482608
 30
0.0
 11
290.6248248604
 21
71.6511482608
 31
0.0
 12
290.6248248604
 22
70.5335482608
 32
0.0
 13
290.6248248604
 23
70.5335482608
 33
0.0
  0
LINE
  5
179
330
174
100
AcDbEntity
  8
DIM
100
AcDbLine
 10
34.8570248604
 20
119.3424482608
 30
0.0
 11
34.8570248604
 21
69.9923482608
 31
0.0
  0
LINE
  5
17A
330
174
100
AcDbEntity
  8
DIM
100
AcDbLine
 10
294.2570248604
 20
106.0424482608
 30
0.0
 11
294.2570248604
 21
69.9923482608
 31
0.0
  0
LINE
  5
17B
330
174
100
AcDbEntity
  8
DIM
100
AcDbLine
 10
34.8570248604
 20
71.0923482608
 30
0.0
 11
294.2570248604
 21
71.0923482608
 31
0.0
  0
MTEXT
  5
17C
330
174
100
AcDbEntity
  8
DIM
100
AcDbMText
 10
158.5780047585
 20
75.2192451746
 30
0.0
 40
3.2014583333
 41
0.0
 71
     1
 72
     1
  1
259.40
  7
SLDTEXTSTYLE0
 73
     1
 44
1.0
  0
ENDBLK
  5
176
330
174
100
AcDbEntity
  8
0
100
AcDbBlockEnd
  0
BLOCK
  5
17F
330
17E
100
AcDbEntity
  8
0
100
AcDbBlockBegin
  2
_D_4
 70
     0
 10
0.0
 20
0.0
 30
0.0
  3
_D_4
  1
_D_4
  0
SOLID
  5
181
330
17E
100
AcDbEntity
  8
DIM
100
AcDbTrace
 10
26.5688244084
 20
152.1924482608
 30
0.0
 11
26.0100244084
 21
148.5602482608
 31
0.0
 12
27.1276244084
 22
148.5602482608
 32
0.0
 13
27.1276244084
 23
148.5602482608
 33
0.0
  0
SOLID
  5
182
330
17E
100
AcDbEntity
  8
DIM
100
AcDbTrace
 10
26.5688244084
 20
88.6924482608
 30
0.0
 11
27.1276244084
 21
92.3246482608
 31
0.0
 12
26.0100244084
 22
92.3246482608
 32
0.0
 13
26.0100244084
 23
92.3246482608
 33
0.0
  0
LINE
  5
183
330
17E
100
AcDbEntity
  8
DIM
100
AcDbLine
 10
106.5227102853
 20
152.1924482608
 30
0.0
 11
25.4688244084
 21
152.1924482608
 31
0.0
  0
LINE
  5
184
330
17E
100
AcDbEntity
  8
DIM
100
AcDbLine
 10
106.5227102853
 20
88.6924482608
 30
0.0
 11
25.4688244084
 21
88.6924482608
 31
0.0
  0
LINE
  5
185
330
17E
100
AcDbEntity
  8
DIM
100
AcDbLine
 10
26.5688244084
 20
152.1924482608
 30
0.0
 11
26.5688244084
 21
88.6924482608
 31
0.0
  0
MTEXT
  5
186
330
17E
100
AcDbEntity
  8
DIM
100
AcDbMText
 10
22.4419274946
 20
113.0700527993
 30
0.0
 40
3.2014583333
 41
0.0
 71
     1
 72
     1
  1
%%c
  7
SLDTEXTSTYLE0
 11
-7.044195017643634E-15
 21
1.0
 31
0.0
 73
     1
 44
1.0
  0
MTEXT
  5
187
330
17E
100
AcDbEntity
  8
DIM
100
AcDbMText
 10
22.4419274946
 20
118.0207522889
 30
0.0
 40
3.2014583333
 41
0.0
 71
     1
 72
     1
  1
63.50
  7
SLDTEXTSTYLE0
 11
-7.044195017643634E-15
 21
1.0
 31
0.0
 73
     1
 44
1.0
  0
ENDBLK
  5
180
330
17E
100
AcDbEntity
  8
0
100
AcDbBlockEnd
  0
BLOCK
  5
18A
330
189
100
AcDbEntity
  8
0
100
AcDbBlockBegin
  2
_D_5
 70
     0
 10
0.0
 20
0.0
 30
0.0
  3
_D_5
  1
_D_5
  0
SOLID
  5
18C
330
189
100
AcDbEntity
  8
DIM
100
AcDbTrace
 10
103.2570248604
 20
77.9870008914
 30
0.0
 11
106.8892248604
 21
77.4282008914
 31
0.0
 12
106.8892248604
 22
78.5458008914
 32
0.0
 13
106.8892248604
 23
78.5458008914
 33
0.0
  0
SOLID
  5
18D
330
189
100
AcDbEntity
  8
DIM
100
AcDbTrace
 10
263.2570248604
 20
77.9870008914
 30
0.0
 11
259.6248248604
 21
78.5458008914
 31
0.0
 12
259.6248248604
 22
77.4282008914
 32
0.0
 13
259.6248248604
 23
77.4282008914
 33
0.0
  0
LINE
  5
18E
330
189
100
AcDbEntity
  8
DIM
100
AcDbLine
 10
103.2570248604
 20
97.1174482608
 30
0.0
 11
103.2570248604
 21
76.8870008914
 31
0.0
  0
LINE
  5
18F
330
189
100
AcDbEntity
  8
DIM
100
AcDbLine
 10
263.2570248604
 20
96.3424482608
 30
0.0
 11
263.2570248604
 21
76.8870008914
 31
0.0
  0
LINE
  5
190
330
189
100
AcDbEntity
  8
DIM
100
AcDbLine
 10
103.2570248604
 20
77.9870008914
 30
0.0
 11
263.2570248604
 21
77.9870008914
 31
0.0
  0
MTEXT
  5
191
330
189
100
AcDbEntity
  8
DIM
100
AcDbMText
 10
180.0111017045
 20
82.1138978053
 30
0.0
 40
3.2014583333
 41
0.0
 71
     1
 72
     1
  1
160
  7
SLDTEXTSTYLE0
 73
     1
 44
1.0
  0
ENDBLK
  5
18B
330
189
100
AcDbEntity
  8
0
100
AcDbBlockEnd
  0
ENDSEC
  0
SECTION
  2
ENTITIES
  0
LINE
  5
76
330
1F
100
AcDbEntity
  8
DIM
100
AcDbLine
 10
115.1748671579
 20
10.7700906025
 30
0.0
 11
115.1748671579
 21
5.2700906025
 31
0.0
  0
LINE
  5
77
330
1F
100
AcDbEntity
  8
DIM
100
AcDbLine
 10
279.9165618648
 20
10.7700906025
 30
0.0
 11
279.9165618648
 21
5.2700906025
 31
0.0
  0
LINE
  5
78
330
1F
100
AcDbEntity
  8
DIM
100
AcDbLine
 10
261.1968809247
 20
10.7700906025
 30
0.0
 11
261.1968809247
 21
5.2700906025
 31
0.0
  0
LINE
  5
79
330
1F
100
AcDbEntity
  8
DIM
100
AcDbLine
 10
306.7948671579
 20
5.2700906025
 30
0.0
 11
306.7948671579
 21
10.7700906025
 31
0.0
  0
LINE
  5
7A
330
1F
100
AcDbEntity
  8
DIM
100
AcDbLine
 10
123.7548671579
 20
10.7700906025
 30
0.0
 11
123.7548671579
 21
5.2700906025
 31
0.0
  0
LINE
  5
7B
330
1F
100
AcDbEntity
  8
DIM
100
AcDbLine
 10
144.8649148351
 20
10.7700906025
 30
0.0
 11
144.8649148351
 21
5.2700906025
 31
0.0
  0
LINE
  5
7C
330
1F
100
AcDbEntity
  8
DIM
100
AcDbLine
 10
321.0948671579
 20
5.2700906025
 30
0.0
 11
321.0948671579
 21
84.7450906025
 31
0.0
  0
LINE
  5
7D
330
1F
100
AcDbEntity
  8
DIM
100
AcDbLine
 10
314.4009051641
 20
66.0450906025
 30
0.0
 11
321.0948671579
 21
66.0450906025
 31
0.0
  0
LINE
  5
7E
330
1F
100
AcDbEntity
  8
DIM
100
AcDbLine
 10
164.0136859378
 20
9.9450906025
 30
0.0
 11
164.0136859378
 21
5.2700906025
 31
0.0
  0
LINE
  5
7F
330
1F
100
AcDbEntity
  8
DIM
100
AcDbLine
 10
216.4403440765
 20
10.7700906025
 30
0.0
 11
216.4403440765
 21
5.2700906025
 31
0.0
  0
LINE
  5
80
330
1F
100
AcDbEntity
  8
DIM
100
AcDbLine
 10
164.0136859378
 20
10.7700906025
 30
0.0
 11
164.0136859378
 21
9.9450906025
 31
0.0
  0
LINE
  5
81
330
1F
100
AcDbEntity
  8
DIM
100
AcDbLine
 10
315.5948671579
 20
19.2950114025
 30
0.0
 11
321.0948671579
 21
19.2950114025
 31
0.0
  0
LINE
  5
82
330
1F
100
AcDbEntity
  8
DIM
100
AcDbLine
 10
315.5948671579
 20
219.7700906025
 30
0.0
 11
10.8948671579
 21
219.7700906025
 31
0.0
  0
LINE
  5
83
330
1F
100
AcDbEntity
  8
DIM
100
AcDbLine
 10
321.0948671579
 20
225.2700906025
 30
0.0
 11
5.3948671579
 21
225.2700906025
 31
0.0
  0
LINE
  5
84
330
1F
100
AcDbEntity
  8
DIM
100
AcDbLine
 10
10.8948671579
 20
219.7700906025
 30
0.0
 11
10.8948671579
 21
10.7700906025
 31
0.0
  0
LINE
  5
85
330
1F
100
AcDbEntity
  8
DIM
100
AcDbLine
 10
5.3948671579
 20
225.2700906025
 30
0.0
 11
5.3948671579
 21
5.2700906025
 31
0.0
  0
LINE
  5
86
330
1F
100
AcDbEntity
  8
DIM
100
AcDbLine
 10
10.8948671579
 20
60.2700906025
 30
0.0
 11
5.3948671579
 21
60.2700906025
 31
0.0
  0
LINE
  5
87
330
1F
100
AcDbEntity
  8
DIM
100
AcDbLine
 10
5.3948671579
 20
115.2700906025
 30
0.0
 11
10.8948671579
 21
115.2700906025
 31
0.0
  0
LINE
  5
88
330
1F
100
AcDbEntity
  8
DIM
100
AcDbLine
 10
5.3948671579
 20
5.2700906025
 30
0.0
 11
321.0948671579
 21
5.2700906025
 31
0.0
  0
LINE
  5
89
330
1F
100
AcDbEntity
  8
DIM
100
AcDbLine
 10
10.8948671579
 20
10.7700906025
 30
0.0
 11
321.0948671579
 21
10.7700906025
 31
0.0
  0
LINE
  5
8A
330
1F
100
AcDbEntity
  8
DIM
100
AcDbLine
 10
53.2448671579
 20
5.2700906025
 30
0.0
 11
53.2448671579
 21
10.7700906025
 31
0.0
  0
LINE
  5
8B
330
1F
100
AcDbEntity
  8
DIM
100
AcDbLine
 10
108.2448671579
 20
10.7700906025
 30
0.0
 11
108.2448671579
 21
5.2700906025
 31
0.0
  0
LINE
  5
8C
330
1F
100
AcDbEntity
  8
DIM
100
AcDbLine
 10
10.8948671579
 20
170.2700906025
 30
0.0
 11
5.3948671579
 21
170.2700906025
 31
0.0
  0
LINE
  5
8D
330
1F
100
AcDbEntity
  8
DIM
100
AcDbLine
 10
53.2448671579
 20
219.7700906025
 30
0.0
 11
53.2448671579
 21
225.2700906025
 31
0.0
  0
LINE
  5
8E
330
1F
100
AcDbEntity
  8
DIM
100
AcDbLine
 10
108.2448671579
 20
225.2700906025
 30
0.0
 11
108.2448671579
 21
219.7700906025
 31
0.0
  0
LINE
  5
8F
330
1F
100
AcDbEntity
  8
DIM
100
AcDbLine
 10
163.2448671579
 20
225.2700906025
 30
0.0
 11
163.2448671579
 21
219.7700906025
 31
0.0
  0
LINE
  5
90
330
1F
100
AcDbEntity
  8
DIM
100
AcDbLine
 10
315.5948671579
 20
10.7700906025
 30
0.0
 11
315.5948671579
 21
219.7700906025
 31
0.0
  0
LINE
  5
91
330
1F
100
AcDbEntity
  8
DIM
100
AcDbLine
 10
321.0948671579
 20
84.7450906025
 30
0.0
 11
321.0948671579
 21
225.2700906025
 31
0.0
  0
LINE
  5
92
330
1F
100
AcDbEntity
  8
DIM
100
AcDbLine
 10
321.0948671579
 20
115.2700906025
 30
0.0
 11
315.5948671579
 21
115.2700906025
 31
0.0
  0
LINE
  5
93
330
1F
100
AcDbEntity
  8
DIM
100
AcDbLine
 10
218.2448671579
 20
225.2700906025
 30
0.0
 11
218.2448671579
 21
219.7700906025
 31
0.0
  0
LINE
  5
94
330
1F
100
AcDbEntity
  8
DIM
100
AcDbLine
 10
273.2448671579
 20
219.7700906025
 30
0.0
 11
273.2448671579
 21
225.2700906025
 31
0.0
  0
LINE
  5
95
330
1F
100
AcDbEntity
  8
DIM
100
AcDbLine
 10
315.5948671579
 20
170.2700906025
 30
0.0
 11
321.0948671579
 21
170.2700906025
 31
0.0
  0
MTEXT
  5
97
330
1F
100
AcDbEntity
  8
DIM
100
AcDbMText
 10
17.7426374083
 20
213.2548542292
 30
0.0
 40
4.6566666667
 41
0.0
 71
     1
 72
     1
  1
SK 40 FMH22 160 AD/6.3G15000 SL SP.S
  7
SLDTEXTSTYLE0
 73
     1
 44
1.0
  0
MTEXT
  5
99
330
1F
100
AcDbEntity
  8
DIM
 62
     7
100
AcDbMText
 10
217.5060565113
 20
8.5821466789
 30
0.0
 40
1.64846
 41
0.0
 71
     1
 72
     1
  1
WEIGHT:
  7
SLDTEXTSTYLE1
 73
     1
 44
1.0
  0
MTEXT
  5
9A
330
1F
100
AcDbEntity
  8
DIM
 62
     7
100
AcDbMText
 10
317.4567844303
 20
90.1346748591
 30
0.0
 40
2.0372916667
 41
0.0
 71
     1
 72
     1
  1
C
  7
SLDTEXTSTYLE1
 73
     1
 44
1.0
  0
MTEXT
  5
9B
330
1F
100
AcDbEntity
  8
DIM
 62
     7
100
AcDbMText
 10
311.3479386814
 20
16.339380182
 30
0.0
 40
3.2014583333
 41
0.0
 71
     1
 72
     1
  1
A4
  7
SLDTEXTSTYLE1
 73
     1
 44
1.0
  0
MTEXT
  5
9C
330
1F
100
AcDbEntity
  8
DIM
 62
     7
100
AcDbMText
 10
299.8282048912
 20
223.8049086465
 30
0.0
 40
2.0372916667
 41
0.0
 71
     1
 72
     1
  1
6
  7
SLDTEXTSTYLE1
 73
     1
 44
1.0
  0
MTEXT
  5
9D
330
1F
100
AcDbEntity
  8
DIM
 62
     7
100
AcDbMText
 10
244.8282048912
 20
223.8049086465
 30
0.0
 40
2.0372916667
 41
0.0
 71
     1
 72
     1
  1
5
  7
SLDTEXTSTYLE1
 73
     1
 44
1.0
  0
MTEXT
  5
9E
330
1F
100
AcDbEntity
  8
DIM
 62
     7
100
AcDbMText
 10
317.4282092912
 20
199.0549086465
 30
0.0
 40
2.0372916667
 41
0.0
 71
     1
 72
     1
  1
A
  7
SLDTEXTSTYLE1
 73
     1
 44
1.0
  0
MTEXT
  5
9F
330
1F
100
AcDbEntity
  8
DIM
 62
     7
100
AcDbMText
 10
317.4282092912
 20
144.0549086465
 30
0.0
 40
2.0372916667
 41
0.0
 71
     1
 72
     1
  1
B
  7
SLDTEXTSTYLE1
 73
     1
 44
1.0
  0
MTEXT
  5
A0
330
1F
100
AcDbEntity
  8
DIM
 62
     7
100
AcDbMText
 10
189.8282048912
 20
223.8049086465
 30
0.0
 40
2.0372916667
 41
0.0
 71
     1
 72
     1
  1
4
  7
SLDTEXTSTYLE1
 73
     1
 44
1.0
  0
MTEXT
  5
A1
330
1F
100
AcDbEntity
  8
DIM
 62
     7
100
AcDbMText
 10
25.2865382246
 20
223.8049086465
 30
0.0
 40
2.0372916667
 41
0.0
 71
     1
 72
     1
  1
1
  7
SLDTEXTSTYLE1
 73
     1
 44
1.0
  0
MTEXT
  5
A2
330
1F
100
AcDbEntity
  8
DIM
 62
     7
100
AcDbMText
 10
79.8282048912
 20
223.8049086465
 30
0.0
 40
2.0372916667
 41
0.0
 71
     1
 72
     1
  1
2
  7
SLDTEXTSTYLE1
 73
     1
 44
1.0
  0
MTEXT
  5
A3
330
1F
100
AcDbEntity
  8
DIM
 62
     7
100
AcDbMText
 10
134.8282048912
 20
223.8049086465
 30
0.0
 40
2.0372916667
 41
0.0
 71
     1
 72
     1
  1
3
  7
SLDTEXTSTYLE1
 73
     1
 44
1.0
  0
MTEXT
  5
A4
330
1F
100
AcDbEntity
  8
DIM
 62
     7
100
AcDbMText
 10
7.2282004912
 20
199.0549086465
 30
0.0
 40
2.0372916667
 41
0.0
 71
     1
 72
     1
  1
A
  7
SLDTEXTSTYLE1
 73
     1
 44
1.0
  0
MTEXT
  5
A5
330
1F
100
AcDbEntity
  8
DIM
 62
     7
100
AcDbMText
 10
79.8282048912
 20
9.3049086465
 30
0.0
 40
2.0372916667
 41
0.0
 71
     1
 72
     1
  1
2
  7
SLDTEXTSTYLE1
 73
     1
 44
1.0
  0
MTEXT
  5
A6
330
1F
100
AcDbEntity
  8
DIM
 62
     7
100
AcDbMText
 10
25.2865382246
 20
9.3049086465
 30
0.0
 40
2.0372916667
 41
0.0
 71
     1
 72
     1
  1
1
  7
SLDTEXTSTYLE1
 73
     1
 44
1.0
  0
MTEXT
  5
A7
330
1F
100
AcDbEntity
  8
DIM
 62
     7
100
AcDbMText
 10
7.2282004912
 20
34.0549086465
 30
0.0
 40
2.0372916667
 41
0.0
 71
     1
 72
     1
  1
D
  7
SLDTEXTSTYLE1
 73
     1
 44
1.0
  0
MTEXT
  5
A8
330
1F
100
AcDbEntity
  8
DIM
 62
     7
100
AcDbMText
 10
7.2282004912
 20
89.0549086465
 30
0.0
 40
2.0372916667
 41
0.0
 71
     1
 72
     1
  1
C
  7
SLDTEXTSTYLE1
 73
     1
 44
1.0
  0
MTEXT
  5
A9
330
1F
100
AcDbEntity
  8
DIM
 62
     7
100
AcDbMText
 10
7.2282004912
 20
144.0549086465
 30
0.0
 40
2.0372916667
 41
0.0
 71
     1
 72
     1
  1
B
  7
SLDTEXTSTYLE1
 73
     1
 44
1.0
  0
MTEXT
  5
AA
330
1F
100
AcDbEntity
  8
DIM
 62
     7
100
AcDbMText
 10
317.4567844303
 20
90.1346748591
 30
0.0
 40
2.0372916667
 41
0.0
 71
     1
 72
     1
  1
C
  7
SLDTEXTSTYLE1
 73
     1
 44
1.0
  0
MTEXT
  5
AC
330
1F
100
AcDbEntity
  8
DIM
 62
     7
100
AcDbMText
 10
282.1779023938
 20
8.4601866045
 30
0.0
 40
1.65
 41
0.0
 71
     1
 72
     1
  1
SHEET 1 OF 1
  7
SLDTEXTSTYLE2
 73
     1
 44
1.0
  0
MTEXT
  5
AD
330
1F
100
AcDbEntity
  8
DIM
 62
     7
100
AcDbMText
 10
165.4089584218
 20
8.638704232
 30
0.0
 40
1.65
 41
0.0
 71
     1
 72
     1
  1
MATERIAL:
  7
SLDTEXTSTYLE1
 73
     1
 44
1.0
  0
MTEXT
  5
AE
330
1F
100
AcDbEntity
  8
DIM
 62
     7
100
AcDbMText
 10
299.8282048912
 20
223.8049086465
 30
0.0
 40
2.0372916667
 41
0.0
 71
     1
 72
     1
  1
6
  7
SLDTEXTSTYLE1
 73
     1
 44
1.0
  0
MTEXT
  5
AF
330
1F
100
AcDbEntity
  8
DIM
 62
     7
100
AcDbMText
 10
244.8282048912
 20
223.8049086465
 30
0.0
 40
2.0372916667
 41
0.0
 71
     1
 72
     1
  1
5
  7
SLDTEXTSTYLE1
 73
     1
 44
1.0
  0
MTEXT
  5
B0
330
1F
100
AcDbEntity
  8
DIM
 62
     7
100
AcDbMText
 10
317.4282092912
 20
199.0549086465
 30
0.0
 40
2.0372916667
 41
0.0
 71
     1
 72
     1
  1
A
  7
SLDTEXTSTYLE1
 73
     1
 44
1.0
  0
MTEXT
  5
B1
330
1F
100
AcDbEntity
  8
DIM
 62
     7
100
AcDbMText
 10
317.4282092912
 20
144.0549086465
 30
0.0
 40
2.0372916667
 41
0.0
 71
     1
 72
     1
  1
B
  7
SLDTEXTSTYLE1
 73
     1
 44
1.0
  0
MTEXT
  5
B2
330
1F
100
AcDbEntity
  8
DIM
 62
     7
100
AcDbMText
 10
189.8282048912
 20
223.8049086465
 30
0.0
 40
2.0372916667
 41
0.0
 71
     1
 72
     1
  1
4
  7
SLDTEXTSTYLE1
 73
     1
 44
1.0
  0
MTEXT
  5
B3
330
1F
100
AcDbEntity
  8
DIM
 62
     7
100
AcDbMText
 10
25.2865382246
 20
223.8049086465
 30
0.0
 40
2.0372916667
 41
0.0
 71
     1
 72
     1
  1
1
  7
SLDTEXTSTYLE1
 73
     1
 44
1.0
  0
MTEXT
  5
B4
330
1F
100
AcDbEntity
  8
DIM
 62
     7
100
AcDbMText
 10
79.8282048912
 20
223.8049086465
 30
0.0
 40
2.0372916667
 41
0.0
 71
     1
 72
     1
  1
2
  7
SLDTEXTSTYLE1
 73
     1
 44
1.0
  0
MTEXT
  5
B5
330
1F
100
AcDbEntity
  8
DIM
 62
     7
100
AcDbMText
 10
134.8282048912
 20
223.8049086465
 30
0.0
 40
2.0372916667
 41
0.0
 71
     1
 72
     1
  1
3
  7
SLDTEXTSTYLE1
 73
     1
 44
1.0
  0
MTEXT
  5
B6
330
1F
100
AcDbEntity
  8
DIM
 62
     7
100
AcDbMText
 10
7.2282004912
 20
199.0549086465
 30
0.0
 40
2.0372916667
 41
0.0
 71
     1
 72
     1
  1
A
  7
SLDTEXTSTYLE1
 73
     1
 44
1.0
  0
MTEXT
  5
B7
330
1F
100
AcDbEntity
  8
DIM
 62
     7
100
AcDbMText
 10
79.8282048912
 20
9.3049086465
 30
0.0
 40
2.0372916667
 41
0.0
 71
     1
 72
     1
  1
2
  7
SLDTEXTSTYLE1
 73
     1
 44
1.0
  0
MTEXT
  5
B8
330
1F
100
AcDbEntity
  8
DIM
 62
     7
100
AcDbMText
 10
25.2865382246
 20
9.3049086465
 30
0.0
 40
2.0372916667
 41
0.0
 71
     1
 72
     1
  1
1
  7
SLDTEXTSTYLE1
 73
     1
 44
1.0
  0
MTEXT
  5
B9
330
1F
100
AcDbEntity
  8
DIM
 62
     7
100
AcDbMText
 10
7.2282004912
 20
34.0549086465
 30
0.0
 40
2.0372916667
 41
0.0
 71
     1
 72
     1
  1
D
  7
SLDTEXTSTYLE1
 73
     1
 44
1.0
  0
MTEXT
  5
BA
330
1F
100
AcDbEntity
  8
DIM
 62
     7
100
AcDbMText
 10
7.2282004912
 20
89.0549086465
 30
0.0
 40
2.0372916667
 41
0.0
 71
     1
 72
     1
  1
C
  7
SLDTEXTSTYLE1
 73
     1
 44
1.0
  0
MTEXT
  5
BB
330
1F
100
AcDbEntity
  8
DIM
 62
     7
100
AcDbMText
 10
7.2282004912
 20
144.0549086465
 30
0.0
 40
2.0372916667
 41
0.0
 71
     1
 72
     1
  1
B
  7
SLDTEXTSTYLE1
 73
     1
 44
1.0
  0
LINE
  5
BC
330
1F
100
AcDbEntity
  8
0
  6
Continuous
 62
     7
370
    15
100
AcDbLine
 10
117.8788615025
 20
88.6924482608
 30
0.0
 11
121.1913394355
 21
88.6924482608
 31
0.0
  0
LINE
  5
BD
330
1F
100
AcDbEntity
  8
0
  6
Continuous
 62
     7
370
    15
100
AcDbLine
 10
121.1913394355
 20
152.1924482608
 30
0.0
 11
117.8788615025
 21
152.1924482608
 31
0.0
  0
LINE
  5
BE
330
1F
100
AcDbEntity
  8
0
  6
Continuous
 62
     7
370
    15
100
AcDbLine
 10
117.8788615025
 20
152.1924482608
 30
0.0
 11
116.2570248604
 21
149.3833447951
 31
0.0
  0
LINE
  5
BF
330
1F
100
AcDbEntity
  8
0
  6
Continuous
 62
     7
370
    15
100
AcDbLine
 10
116.2570248604
 20
91.5015517264
 30
0.0
 11
117.8788615025
 21
88.6924482608
 31
0.0
  0
LINE
  5
C0
330
1F
100
AcDbEntity
  8
0
  6
Continuous
 62
     7
370
    15
100
AcDbLine
 10
110.8351882183
 20
88.6924482608
 30
0.0
 11
112.4570248604
 21
91.5015517264
 31
0.0
  0
LINE
  5
C1
330
1F
100
AcDbEntity
  8
0
  6
Continuous
 62
     7
370
    15
100
AcDbLine
 10
112.4570248604
 20
149.3833447951
 30
0.0
 11
110.8351882183
 21
152.1924482608
 31
0.0
  0
LINE
  5
C2
330
1F
100
AcDbEntity
  8
0
  6
Continuous
 62
     7
370
    15
100
AcDbLine
 10
107.6227102853
 20
88.6924482608
 30
0.0
 11
110.8351882183
 21
88.6924482608
 31
0.0
  0
LINE
  5
C3
330
1F
100
AcDbEntity
  8
0
  6
Continuous
 62
     7
370
    15
100
AcDbLine
 10
110.8351882183
 20
152.1924482608
 30
0.0
 11
107.6227102853
 21
152.1924482608
 31
0.0
  0
LINE
  5
C4
330
1F
100
AcDbEntity
  8
0
  6
Continuous
 62
     7
370
    15
100
AcDbLine
 10
121.4741821479
 20
88.8096055483
 30
0.0
 11
122.2398675729
 21
89.5752909732
 31
0.0
  0
LINE
  5
C5
330
1F
100
AcDbEntity
  8
0
  6
Continuous
 62
     7
370
    15
100
AcDbLine
 10
122.2398675729
 20
151.3096055483
 30
0.0
 11
121.4741821479
 21
152.0752909732
 31
0.0
  0
LINE
  5
C6
330
1F
100
AcDbEntity
  8
0
  6
Continuous
 62
     7
370
    15
100
AcDbLine
 10
107.3398675729
 20
152.0752909732
 30
0.0
 11
106.5741821479
 21
151.3096055483
 31
0.0
  0
LINE
  5
C7
330
1F
100
AcDbEntity
  8
0
  6
Continuous
 62
     7
370
    15
100
AcDbLine
 10
106.5741821479
 20
89.5752909732
 30
0.0
 11
107.3398675729
 21
88.8096055483
 31
0.0
  0
ARC
  5
C8
330
1F
100
AcDbEntity
  8
0
  6
Continuous
 62
     7
370
    15
100
AcDbCircle
 10
121.1913394355
 20
89.0924482608
 30
0.0
 40
0.4000000000000093
100
AcDbArc
 50
270.0
 51
315.0
  0
ARC
  5
C9
330
1F
100
AcDbEntity
  8
0
  6
Continuous
 62
     7
370
    15
100
AcDbCircle
 10
107.6227102853
 20
89.0924482608
 30
0.0
 40
0.4000000000000057
100
AcDbArc
 50
225.0
 51
270.0
  0
ARC
  5
CA
330
1F
100
AcDbEntity
  8
0
  6
Continuous
 62
     7
370
    15
100
AcDbCircle
 10
121.1913394355
 20
151.7924482608
 30
0.0
 40
0.4000000000000093
100
AcDbArc
 50
45.0
 51
90.0
  0
ARC
  5
CB
330
1F
100
AcDbEntity
  8
0
  6
Continuous
 62
     7
370
    15
100
AcDbCircle
 10
107.6227102853
 20
151.7924482608
 30
0.0
 40
0.4000000000000093
100
AcDbArc
 50
90.0
 51
135.0
  0
ARC
  5
CC
330
1F
100
AcDbEntity
  8
0
  6
Continuous
 62
     7
370
    15
100
AcDbCircle
 10
121.9570248604
 20
89.8581336857
 30
0.0
 40
0.3999999999999992
100
AcDbArc
 50
315.0
 51
0.0
  0
ARC
  5
CD
330
1F
100
AcDbEntity
  8
0
  6
Continuous
 62
     7
370
    15
100
AcDbCircle
 10
121.9570248604
 20
151.0267628358
 30
0.0
 40
0.3999999999999992
100
AcDbArc
 50
0.0
 51
45.0
  0
ARC
  5
CE
330
1F
100
AcDbEntity
  8
0
  6
Continuous
 62
     7
370
    15
100
AcDbCircle
 10
106.8570248604
 20
89.8581336857
 30
0.0
 40
0.3999999999999992
100
AcDbArc
 50
180.0
 51
225.0
  0
ARC
  5
CF
330
1F
100
AcDbEntity
  8
0
  6
Continuous
 62
     7
370
    15
100
AcDbCircle
 10
106.8570248604
 20
151.0267628358
 30
0.0
 40
0.3999999999999915
100
AcDbArc
 50
135.0
 51
180.0
  0
LINE
  5
D0
330
1F
100
AcDbEntity
  8
0
  6
Continuous
 62
     7
370
    15
100
AcDbLine
 10
112.4570248604
 20
92.4424482608
 30
0.0
 11
116.2570248604
 21
92.4424482608
 31
0.0
  0
LINE
  5
D1
330
1F
100
AcDbEntity
  8
0
  6
Continuous
 62
     7
370
    15
100
AcDbLine
 10
116.2570248604
 20
148.4424482608
 30
0.0
 11
112.4570248604
 21
148.4424482608
 31
0.0
  0
LINE
  5
D2
330
1F
100
AcDbEntity
  8
0
  6
Continuous
 62
     7
370
    15
100
AcDbLine
 10
262.2570248604
 20
96.4424482608
 30
0.0
 11
263.2570248604
 21
97.4424482608
 31
0.0
  0
LINE
  5
D3
330
1F
100
AcDbEntity
  8
0
  6
Continuous
 62
     7
370
    15
100
AcDbLine
 10
263.2570248604
 20
143.4424482608
 30
0.0
 11
262.2570248604
 21
144.4424482608
 31
0.0
  0
LINE
  5
D4
330
1F
100
AcDbEntity
  8
0
  6
Continuous
 62
     7
370
    15
100
AcDbLine
 10
123.2398675729
 20
96.4424482608
 30
0.0
 11
262.2570248604
 21
96.4424482608
 31
0.0
  0
LINE
  5
D5
330
1F
100
AcDbEntity
  8
0
  6
Continuous
 62
     7
370
    15
100
AcDbLine
 10
262.2570248604
 20
144.4424482608
 30
0.0
 11
123.2398675729
 21
144.4424482608
 31
0.0
  0
ARC
  5
D6
330
1F
100
AcDbEntity
  8
0
  6
Continuous
 62
     7
370
    15
100
AcDbCircle
 10
123.2398675729
 20
95.4424482608
 30
0.0
 40
1.000000000000014
100
AcDbArc
 50
90.0
 51
151.9872027572
  0
ARC
  5
D7
330
1F
100
AcDbEntity
  8
0
  6
Continuous
 62
     7
370
    15
100
AcDbCircle
 10
123.2398675729
 20
145.4424482608
 30
0.0
 40
1.000000000000005
100
AcDbArc
 50
208.0127972428
 51
270.0
  0
ARC
  5
D8
330
1F
100
AcDbEntity
  8
0
  6
Continuous
 62
     7
370
    15
100
AcDbCircle
 10
105.9570248604
 20
97.9424482608
 30
0.0
 40
0.5
100
AcDbArc
 50
0.0
 51
90.0
  0
ARC
  5
D9
330
1F
100
AcDbEntity
  8
0
  6
Continuous
 62
     7
370
    15
100
AcDbCircle
 10
105.9570248604
 20
142.9424482608
 30
0.0
 40
0.5
100
AcDbArc
 50
270.0
 51
0.0
  0
LINE
  5
DA
330
1F
100
AcDbEntity
  8
0
  6
Continuous
 62
     7
370
    15
100
AcDbLine
 10
103.2570248604
 20
98.2174482608
 30
0.0
 11
103.7395389175
 21
98.4424482608
 31
0.0
  0
LINE
  5
DB
330
1F
100
AcDbEntity
  8
0
  6
Continuous
 62
     7
370
    15
100
AcDbLine
 10
103.7395389175
 20
142.4424482608
 30
0.0
 11
103.2570248604
 21
142.6674482608
 31
0.0
  0
LINE
  5
DC
330
1F
100
AcDbEntity
  8
0
  6
Continuous
 62
     7
370
    15
100
AcDbLine
 10
103.2570248604
 20
142.6674482608
 30
0.0
 11
35.7127166331
 21
132.8171436369
 31
0.0
  0
LINE
  5
DD
330
1F
100
AcDbEntity
  8
0
  6
Continuous
 62
     7
370
    15
100
AcDbLine
 10
35.7127166331
 20
108.0677528846
 30
0.0
 11
103.2570248604
 21
98.2174482608
 31
0.0
  0
LINE
  5
DE
330
1F
100
AcDbEntity
  8
0
  6
Continuous
 62
     7
370
    15
100
AcDbLine
 10
103.7395389175
 20
98.4424482608
 30
0.0
 11
105.9570248604
 21
98.4424482608
 31
0.0
  0
LINE
  5
DF
330
1F
100
AcDbEntity
  8
0
  6
Continuous
 62
     7
370
    15
100
AcDbLine
 10
105.9570248604
 20
142.4424482608
 30
0.0
 11
103.7395389175
 21
142.4424482608
 31
0.0
  0
LINE
  5
E0
330
1F
100
AcDbEntity
  8
0
  6
Continuous
 62
     7
370
    15
100
AcDbLine
 10
286.9570248604
 20
106.4424482608
 30
0.0
 11
293.5570248604
 21
106.4424482608
 31
0.0
  0
LINE
  5
E1
330
1F
100
AcDbEntity
  8
0
  6
Continuous
 62
     7
370
    15
100
AcDbLine
 10
293.5570248604
 20
134.4424482608
 30
0.0
 11
286.9570248604
 21
134.4424482608
 31
0.0
  0
LINE
  5
E2
330
1F
100
AcDbEntity
  8
0
  6
Continuous
 62
     7
370
    15
100
AcDbLine
 10
293.5570248604
 20
106.4424482608
 30
0.0
 11
294.2570248604
 21
107.1424482608
 31
0.0
  0
LINE
  5
E3
330
1F
100
AcDbEntity
  8
0
  6
Continuous
 62
     7
370
    15
100
AcDbLine
 10
294.2570248604
 20
133.7424482608
 30
0.0
 11
293.5570248604
 21
134.4424482608
 31
0.0
  0
LINE
  5
E4
330
1F
100
AcDbEntity
  8
0
  6
Continuous
 62
     7
370
    15
100
AcDbLine
 10
286.9570248604
 20
134.4424482608
 30
0.0
 11
286.2570248604
 21
133.7424482608
 31
0.0
  0
LINE
  5
E5
330
1F
100
AcDbEntity
  8
0
  6
Continuous
 62
     7
370
    15
100
AcDbLine
 10
286.2570248604
 20
107.1424482608
 30
0.0
 11
286.9570248604
 21
106.4424482608
 31
0.0
  0
ARC
  5
E6
330
1F
100
AcDbEntity
  8
0
  6
Continuous
 62
     7
370
    15
100
AcDbCircle
 10
35.8570248604
 20
109.0572856711
 30
0.0
 40
1.000000000000003
100
AcDbArc
 50
180.0
 51
261.7027777778
  0
ARC
  5
E7
330
1F
100
AcDbEntity
  8
0
  6
Continuous
 62
     7
370
    15
100
AcDbCircle
 10
35.8570248604
 20
131.8276108504
 30
0.0
 40
1.000000000000017
100
AcDbArc
 50
98.2972222222
 51
180.0
  0
LINE
  5
E8
330
1F
100
AcDbEntity
  8
0
  6
Continuous
 62
     7
370
    15
100
AcDbLine
 10
280.8713842143
 20
109.4424482608
 30
0.0
 11
282.2570248604
 21
110.2424482608
 31
0.0
  0
LINE
  5
E9
330
1F
100
AcDbEntity
  8
0
  6
Continuous
 62
     7
370
    15
100
AcDbLine
 10
282.2570248604
 20
130.6424482608
 30
0.0
 11
280.8713842143
 21
131.4424482608
 31
0.0
  0
LINE
  5
EA
330
1F
100
AcDbEntity
  8
0
  6
Continuous
 62
     7
370
    15
100
AcDbLine
 10
263.2570248604
 20
109.4424482608
 30
0.0
 11
280.8713842143
 21
109.4424482608
 31
0.0
  0
LINE
  5
EB
330
1F
100
AcDbEntity
  8
0
  6
Continuous
 62
     7
370
    15
100
AcDbLine
 10
280.8713842143
 20
131.4424482608
 30
0.0
 11
263.2570248604
 21
131.4424482608
 31
0.0
  0
ARC
  5
EC
330
1F
100
AcDbEntity
  8
0
  6
Continuous
 62
     7
370
    15
100
AcDbCircle
 10
285.7570248604
 20
114.9424482608
 30
0.0
 40
0.5000000000000568
100
AcDbArc
 50
0.0
 51
90.0
  0
ARC
  5
ED
330
1F
100
AcDbEntity
  8
0
  6
Continuous
 62
     7
370
    15
100
AcDbCircle
 10
285.7570248604
 20
125.9424482608
 30
0.0
 40
0.5000000000000568
100
AcDbArc
 50
270.0
 51
0.0
  0
LINE
  5
EE
330
1F
100
AcDbEntity
  8
0
  6
Continuous
 62
     7
370
    15
100
AcDbLine
 10
282.2570248604
 20
115.4424482608
 30
0.0
 11
285.7570248604
 21
115.4424482608
 31
0.0
  0
LINE
  5
EF
330
1F
100
AcDbEntity
  8
0
  6
Continuous
 62
     7
370
    15
100
AcDbLine
 10
285.7570248604
 20
125.4424482608
 30
0.0
 11
282.2570248604
 21
125.4424482608
 31
0.0
  0
LINE
  5
F0
330
1F
100
AcDbEntity
  8
0
  6
Continuous
 62
     7
370
    15
100
AcDbLine
 10
121.1913394355
 20
111.8420172229
 30
0.0
 11
121.1913394355
 21
129.0428792986
 31
0.0
  0
LINE
  5
F1
330
1F
100
AcDbEntity
  8
0
  6
Continuous
 62
     7
370
    15
100
AcDbLine
 10
117.8788615025
 20
88.6924482608
 30
0.0
 11
117.8788615025
 21
152.1924482608
 31
0.0
  0
LINE
  5
F2
330
1F
100
AcDbEntity
  8
0
  6
Continuous
 62
     7
370
    15
100
AcDbLine
 10
121.4741821479
 20
111.9370527072
 30
0.0
 11
121.4741821479
 21
128.9478438144
 31
0.0
  0
SPLINE
  5
F3
330
1F
100
AcDbEntity
  8
0
  6
Continuous
 62
     7
370
    15
100
AcDbSpline
210
0.0
220
0.0
230
1.0
 70
     8
 71
     3
 72
     8
 73
     4
 74
     0
 42
0.000000001
 43
0.00000001
 40
0.0
 40
0.0
 40
0.0
 40
0.0
 40
1.0
 40
1.0
 40
1.0
 40
1.0
 10
121.4741821479249
 20
111.9370527071536
 30
0.0
 10
121.4029368484493
 20
111.8792262038779
 30
0.0
 10
121.3000284847321
 20
111.8420172228712
 30
0.0
 10
121.1913394354503
 20
111.8420172228712
 30
0.0
  0
SPLINE
  5
F4
330
1F
100
AcDbEntity
  8
0
  6
Continuous
 62
     7
370
    15
100
AcDbSpline
210
0.0
220
0.0
230
1.0
 70
     8
 71
     3
 72
     8
 73
     4
 74
     0
 42
0.000000001
 43
0.00000001
 40
0.0
 40
0.0
 40
0.0
 40
0.0
 40
1.0
 40
1.0
 40
1.0
 40
1.0
 10
121.1913394354503
 20
129.0428792986427
 30
0.0
 10
121.2999184276333
 20
129.0428792986427
 30
0.0
 10
121.4029677481067
 20
129.0056452378181
 30
0.0
 10
121.4741821479249
 20
128.9478438143603
 30
0.0
  0
LINE
  5
F5
330
1F
100
AcDbEntity
  8
0
  6
Continuous
 62
     7
370
    15
100
AcDbLine
 10
116.2570248604
 20
149.3833447951
 30
0.0
 11
116.2570248604
 21
91.5015517264
 31
0.0
  0
LINE
  5
F6
330
1F
100
AcDbEntity
  8
0
  6
Continuous
 62
     7
370
    15
100
AcDbLine
 10
112.4570248604
 20
120.4424482608
 30
0.0
 11
112.4570248604
 21
149.3833447951
 31
0.0
  0
LINE
  5
F7
330
1F
100
AcDbEntity
  8
0
  6
Continuous
 62
     7
370
    15
100
AcDbLine
 10
112.4570248604
 20
91.5015517264
 30
0.0
 11
112.4570248604
 21
120.4424482608
 31
0.0
  0
LINE
  5
F8
330
1F
100
AcDbEntity
  8
0
  6
Continuous
 62
     7
370
    15
100
AcDbLine
 10
110.8351882183
 20
120.4424482608
 30
0.0
 11
110.8351882183
 21
88.6924482608
 31
0.0
  0
LINE
  5
F9
330
1F
100
AcDbEntity
  8
0
  6
Continuous
 62
     7
370
    15
100
AcDbLine
 10
110.8351882183
 20
152.1924482608
 30
0.0
 11
110.8351882183
 21
120.4424482608
 31
0.0
  0
LINE
  5
FA
330
1F
100
AcDbEntity
  8
0
  6
Continuous
 62
     7
370
    15
100
AcDbLine
 10
107.6227102853
 20
111.8420172229
 30
0.0
 11
107.6227102853
 21
129.0428792986
 31
0.0
  0
SPLINE
  5
FB
330
1F
100
AcDbEntity
  8
0
  6
Continuous
 62
     7
370
    15
100
AcDbSpline
210
0.0
220
0.0
230
1.0
 70
     8
 71
     3
 72
     8
 73
     4
 74
     0
 42
0.000000001
 43
0.00000001
 40
0.0
 40
0.0
 40
0.0
 40
0.0
 40
1.0
 40
1.0
 40
1.0
 40
1.0
 10
107.6227102853488
 20
111.8420172228713
 30
0.0
 10
107.5141312931659
 20
111.8420172228713
 30
0.0
 10
107.4110819726925
 20
111.8792512836959
 30
0.0
 10
107.3398675728742
 20
111.9370527071536
 30
0.0
  0
LINE
  5
FC
330
1F
100
AcDbEntity
  8
0
  6
Continuous
 62
     7
370
    15
100
AcDbLine
 10
107.3398675729
 20
111.9370527072
 30
0.0
 11
107.3398675729
 21
128.9478438144
 31
0.0
  0
SPLINE
  5
FD
330
1F
100
AcDbEntity
  8
0
  6
Continuous
 62
     7
370
    15
100
AcDbSpline
210
0.0
220
0.0
230
1.0
 70
     8
 71
     3
 72
     8
 73
     4
 74
     0
 42
0.000000001
 43
0.00000001
 40
0.0
 40
0.0
 40
0.0
 40
0.0
 40
1.0
 40
1.0
 40
1.0
 40
1.0
 10
107.3398675728742
 20
128.9478438143603
 30
0.0
 10
107.4111128723498
 20
129.005670317636
 30
0.0
 10
107.5140212360671
 20
129.0428792986427
 30
0.0
 10
107.6227102853488
 20
129.0428792986427
 30
0.0
  0
LINE
  5
FE
330
1F
100
AcDbEntity
  8
0
  6
Continuous
 62
     7
370
    15
100
AcDbLine
 10
122.2398675729
 20
112.3924482608
 30
0.0
 11
122.2398675729
 21
128.4924482608
 31
0.0
  0
LINE
  5
FF
330
1F
100
AcDbEntity
  8
0
  6
Continuous
 62
     7
370
    15
100
AcDbLine
 10
106.5741821479
 20
111.8096055483
 30
0.0
 11
106.5741821479
 21
129.0752909732
 31
0.0
  0
LINE
  5
100
330
1F
100
AcDbEntity
  8
0
  6
Continuous
 62
     7
370
    15
100
AcDbLine
 10
122.3570248604
 20
112.3924482608
 30
0.0
 11
122.3570248604
 21
128.4924482608
 31
0.0
  0
SPLINE
  5
101
330
1F
100
AcDbEntity
  8
0
  6
Continuous
 62
     7
370
    15
100
AcDbSpline
210
0.0
220
0.0
230
1.0
 70
    24
 71
     3
 72
     8
 73
     4
 74
     0
 42
0.000000001
 43
0.00000001
 40
0.0
 40
0.0
 40
0.0
 40
0.0
 40
1.0
 40
1.0
 40
1.0
 40
1.0
 10
122.3570248603996
 20
112.392448260757
 30
0.0
 10
122.3570248603996
 20
112.392448260757
 30
0.0
 10
122.3154343376791
 20
112.392448260757
 30
0.0
 10
122.2398675728742
 20
112.392448260757
 30
0.0
  0
SPLINE
  5
102
330
1F
100
AcDbEntity
  8
0
  6
Continuous
 62
     7
370
    15
100
AcDbSpline
210
0.0
220
0.0
230
1.0
 70
    24
 71
     3
 72
     8
 73
     4
 74
     0
 42
0.000000001
 43
0.00000001
 40
0.0
 40
0.0
 40
0.0
 40
0.0
 40
1.0
 40
1.0
 40
1.0
 40
1.0
 10
122.3570248603996
 20
128.492448260757
 30
0.0
 10
122.3570248603997
 20
128.492448260757
 30
0.0
 10
122.3154343376791
 20
128.492448260757
 30
0.0
 10
122.2398675728742
 20
128.492448260757
 30
0.0
  0
SPLINE
  5
103
330
1F
100
AcDbEntity
  8
0
  6
Continuous
 62
     7
370
    15
100
AcDbSpline
210
0.0
220
0.0
230
1.0
 70
    24
 71
     3
 72
    10
 73
     6
 74
     0
 42
0.000000001
 43
0.00000001
 40
0.0
 40
0.0
 40
0.0
 40
0.0
 40
0.5
 40
0.5
 40
1.0
 40
1.0
 40
1.0
 40
1.0
 10
106.5741821479249
 20
111.8096055482823
 30
0.0
 10
106.5415275229958
 20
111.7769509233531
 30
0.0
 10
106.5135464085816
 20
111.7489698089389
 30
0.0
 10
106.4709002026463
 20
111.7063236030036
 30
0.0
 10
106.4570248603996
 20
111.6924482607569
 30
0.0
 10
106.4570248603996
 20
111.6924482607569
 30
0.0
  0
LINE
  5
104
330
1F
100
AcDbEntity
  8
0
  6
Continuous
 62
     7
370
    15
100
AcDbLine
 10
106.4570248604
 20
111.6924482608
 30
0.0
 11
106.4570248604
 21
129.1924482608
 31
0.0
  0
SPLINE
  5
105
330
1F
100
AcDbEntity
  8
0
  6
Continuous
 62
     7
370
    15
100
AcDbSpline
210
0.0
220
0.0
230
1.0
 70
    24
 71
     3
 72
    10
 73
     6
 74
     0
 42
0.000000001
 43
0.00000001
 40
0.0
 40
0.0
 40
0.0
 40
0.0
 40
0.5
 40
0.5
 40
1.0
 40
1.0
 40
1.0
 40
1.0
 10
106.4570248603996
 20
129.1924482607569
 30
0.0
 10
106.4570248603996
 20
129.1924482607569
 30
0.0
 10
106.4708592276971
 20
129.1786138934594
 30
0.0
 10
106.5130132143706
 20
129.1364599067859
 30
0.0
 10
106.5415064858439
 20
129.1079666353127
 30
0.0
 10
106.574182147925
 20
129.0752909732316
 30
0.0
  0
SPLINE
  5
106
330
1F
100
AcDbEntity
  8
0
  6
Continuous
 62
     7
370
    15
100
AcDbSpline
210
0.0
220
0.0
230
1.0
 70
    24
 71
     3
 72
    31
 73
    27
 74
     0
 42
0.000000001
 43
0.00000001
 40
0.0
 40
0.0
 40
0.0
 40
0.0
 40
0.0132615207442977
 40
0.0265095384681778
 40
0.0397479986757152
 40
0.052980855419985
 40
0.0662120677777281
 40
0.0794455963015391
 40
0.0926853994654406
 40
0.1059354301197711
 40
0.1191996319712225
 40
0.1812172750696335
 40
0.2432482095398756
 40
0.3070054688904406
 40
0.3707758549323026
 40
0.5000016454769403
 40
0.6292274360215779
 40
0.6929846958538618
 40
0.756755082374765
 40
0.8187727243566626
 40
0.8808036579395964
 40
0.9046617584680593
 40
0.9284873637472372
 40
0.9523035459912107
 40
0.9761334047843963
 40
1.0
 40
1.0
 40
1.0
 40
1.0
 10
122.3570248603996
 20
112.392448260757
 30
0.0
 10
122.3570248603996
 20
112.22261237046
 30
0.0
 10
122.3570248603996
 20
111.8831135185625
 30
0.0
 10
122.3570248603996
 20
111.3772637131404
 30
0.0
 10
122.3570248603996
 20
110.8743096475169
 30
0.0
 10
122.3570248603996
 20
110.3744688752708
 30
0.0
 10
122.3570248603996
 20
109.8776834436753
 30
0.0
 10
122.3570248603996
 20
109.3839686226603
 30
0.0
 10
122.3570248603996
 20
108.8933220569235
 30
0.0
 10
122.3570248603996
 20
108.4057386691815
 30
0.0
 10
122.3570248603996
 20
107.3279210834622
 30
0.0
 10
122.3570248603996
 20
105.6919856300008
 30
0.0
 10
122.3570248603996
 20
103.5528229581036
 30
0.0
 10
122.3570248603996
 20
101.5068468811793
 30
0.0
 10
122.3570248603996
 20
98.91260512991234
 30
0.0
 10
122.3570248603996
 20
96.02016253126732
 30
0.0
 10
122.3570248603996
 20
93.7056359598261
 30
0.0
 10
122.3570248603996
 20
92.24414940677936
 30
0.0
 10
122.3570248603996
 20
91.35878299341368
 30
0.0
 10
122.3570248603996
 20
90.67542292489952
 30
0.0
 10
122.3570248603996
 20
90.29270483117443
 30
0.0
 10
122.3570248603996
 20
90.08927317791014
 30
0.0
 10
122.3570248603996
 20
89.98587326571517
 30
0.0
 10
122.3570248603996
 20
89.91255408100112
 30
0.0
 10
122.3570248603996
 20
89.8666403462724
 30
0.0
 10
122.3570248603996
 20
89.86097069484109
 30
0.0
 10
122.3570248603996
 20
89.85813368570619
 30
0.0
  0
SPLINE
  5
107
330
1F
100
AcDbEntity
  8
0
  6
Continuous
 62
     7
370
    15
100
AcDbSpline
210
0.0
220
0.0
230
1.0
 70
    24
 71
     3
 72
    18
 73
    14
 74
     0
 42
0.000000001
 43
0.00000001
 40
0.0
 40
0.0
 40
0.0
 40
0.0
 40
0.066591223594786
 40
0.1598334488045344
 40
0.2510077520776223
 40
0.34218205535071
 40
0.4354242805604582
 40
0.5300979332371611
 40
0.6255038760388113
 40
0.7209098188404615
 40
0.8155834715171641
 40
0.9088256967269122
 40
1.0
 40
1.0
 40
1.0
 40
1.0
 10
122.3570248603996
 20
150.9781229179643
 30
0.0
 10
122.3570248603996
 20
150.975261694173
 30
0.0
 10
122.3570248603996
 20
150.9683941335295
 30
0.0
 10
122.3570248603996
 20
150.4323019368527
 30
0.0
 10
122.3570248603996
 20
149.4730502294119
 30
0.0
 10
122.3570248603996
 20
148.0844421854162
 30
0.0
 10
122.3570248603996
 20
146.2793565033666
 30
0.0
 10
122.3570248603996
 20
144.0559097285488
 30
0.0
 10
122.3570248603996
 20
141.4525622260044
 30
0.0
 10
122.3570248603996
 20
138.5255638002666
 30
0.0
 10
122.3570248603996
 20
135.3427681139518
 30
0.0
 10
122.3570248603996
 20
131.9948810530614
 30
0.0
 10
122.3570248603996
 20
129.6511655793432
 30
0.0
 10
122.3570248603996
 20
128.492448260757
 30
0.0
  0
SPLINE
  5
108
330
1F
100
AcDbEntity
  8
0
  6
Continuous
 62
     7
370
    15
100
AcDbSpline
210
0.0
220
0.0
230
1.0
 70
    24
 71
     3
 72
    31
 73
    27
 74
     0
 42
0.000000001
 43
0.00000001
 40
0.0
 40
0.0
 40
0.0
 40
0.0
 40
0.0132831470206863
 40
0.0265535276369074
 40
0.0398149668686543
 40
0.0530712974757198
 40
0.0663263566494436
 40
0.079583982685148
 40
0.0928480116497893
 40
0.1061222740592671
 40
0.1194105915797471
 40
0.1814480340998471
 40
0.243498568473281
 40
0.3072097122489106
 40
0.3709343011151119
 40
0.5000015948939122
 40
0.6290688886727123
 40
0.6927800329052618
 40
0.7565046222254207
 40
0.8185420654268883
 40
0.8805926004833303
 40
0.9044943901584614
 40
0.9283636595453258
 40
0.9522227660580519
 40
0.9760940956658253
 40
1.0
 40
1.0
 40
1.0
 40
1.0
 10
106.4570248603996
 20
89.85813368570619
 30
0.0
 10
106.4570248603996
 20
89.85897725233357
 30
0.0
 10
106.4570248603996
 20
89.86066357483826
 30
0.0
 10
106.4570248603996
 20
89.87436144446968
 30
0.0
 10
106.4570248603996
 20
89.89623842064223
 30
0.0
 10
106.4570248603996
 20
89.92709407348904
 30
0.0
 10
106.4570248603996
 20
89.9667142834241
 30
0.0
 10
106.4570248603996
 20
90.01515661536422
 30
0.0
 10
106.4570248603996
 20
90.072404768921
 30
0.0
 10
106.4570248603996
 20
90.13846626674899
 30
0.0
 10
106.4570248603996
 20
90.30482896039084
 30
0.0
 10
106.4570248603996
 20
90.64803037660222
 30
0.0
 10
106.4570248603996
 20
91.30759676199904
 30
0.0
 10
106.4570248603996
 20
92.16200679759883
 30
0.0
 10
106.4570248603996
 20
93.57160287385874
 30
0.0
 10
106.4570248603996
 20
95.80443906435936
 30
0.0
 10
106.4570248603996
 20
98.5976458218196
 30
0.0
 10
106.4570248603996
 20
101.1068625070856
 30
0.0
 10
106.4570248603996
 20
103.0887821317821
 30
0.0
 10
106.4570248603996
 20
105.1644030401091
 30
0.0
 10
106.4570248603996
 20
106.8772094481377
 30
0.0
 10
106.4570248603996
 20
108.181401223997
 30
0.0
 10
106.4570248603996
 20
109.0435228045819
 30
0.0
 10
106.4570248603996
 20
109.9160918601213
 30
0.0
 10
106.4570248603996
 20
110.7983835167958
 30
0.0
 10
106.4570248603996
 20
111.3942829355257
 30
0.0
 10
106.4570248603996
 20
111.6924482607569
 30
0.0
  0
SPLINE
  5
109
330
1F
100
AcDbEntity
  8
0
  6
Continuous
 62
     7
370
    15
100
AcDbSpline
210
0.0
220
0.0
230
1.0
 70
    24
 71
     3
 72
    18
 73
    14
 74
     0
 42
0.000000001
 43
0.00000001
 40
0.0
 40
0.0
 40
0.0
 40
0.0
 40
0.09281048689693
 40
0.1856275101837549
 40
0.2808601381357827
 40
0.3768109009075093
 40
0.4727616636792361
 40
0.567994291631264
 40
0.6608013885740591
 40
0.7536218463518306
 40
0.8464289454086454
 40
0.9392494051922796
 40
1.0
 40
1.0
 40
1.0
 40
1.0
 10
106.4570248603996
 20
129.1924482607569
 30
0.0
 10
106.4570248603996
 20
130.3417615370115
 30
0.0
 10
106.4570248603996
 20
132.6404690325253
 30
0.0
 10
106.4570248603996
 20
135.9103795426814
 30
0.0
 10
106.4570248603996
 20
139.0017682817392
 30
0.0
 10
106.4570248603996
 20
141.8464872663854
 30
0.0
 10
106.4570248603996
 20
144.3699958967021
 30
0.0
 10
106.4570248603996
 20
146.5106823972419
 30
0.0
 10
106.4570248603996
 20
148.2523727932752
 30
0.0
 10
106.4570248603996
 20
149.5878564363638
 30
0.0
 10
106.4570248603996
 20
150.4981587987235
 30
0.0
 10
106.4570248603996
 20
150.9843271410111
 30
0.0
 10
106.4570248603996
 20
150.9771006092631
 30
0.0
 10
106.4570248603996
 20
150.9742418927995
 30
0.0
  0
SPLINE
  5
10A
330
1F
100
AcDbEntity
  8
0
  6
Continuous
 62
     7
370
    15
100
AcDbSpline
210
0.0
220
0.0
230
1.0
 70
     8
 71
     3
 72
    12
 73
     8
 74
     0
 42
0.000000001
 43
0.00000001
 40
0.0
 40
0.0
 40
0.0
 40
0.0
 40
0.499999999999999
 40
0.499999999999999
 40
0.7499999999999994
 40
0.7499999999999994
 40
1.0
 40
1.0
 40
1.0
 40
1.0
 10
122.3570248603996
 20
128.462262081107
 30
0.0
 10
122.4442541135341
 20
128.4175721437362
 30
0.0
 10
122.5735155825952
 20
128.3331398082083
 30
0.0
 10
122.8032007911293
 20
128.2189030219907
 30
0.0
 10
122.8841524301053
 20
128.1835638319036
 30
0.0
 10
123.0563902260338
 20
128.1280091027899
 30
0.0
 10
123.1473936648831
 20
128.108468547581
 30
0.0
 10
123.2398675728742
 20
128.1012806878729
 30
0.0
  0
LINE
  5
10B
330
1F
100
AcDbEntity
  8
0
  6
Continuous
 62
     7
370
    15
100
AcDbLine
 10
123.2398675729
 20
112.7836158336
 30
0.0
 11
123.2398675729
 21
128.1012806879
 31
0.0
  0
SPLINE
  5
10C
330
1F
100
AcDbEntity
  8
0
  6
Continuous
 62
     7
370
    15
100
AcDbSpline
210
0.0
220
0.0
230
1.0
 70
     8
 71
     3
 72
    10
 73
     6
 74
     0
 42
0.000000001
 43
0.00000001
 40
0.0
 40
0.0
 40
0.0
 40
0.0
 40
0.5000000000000006
 40
0.5000000000000006
 40
1.0
 40
1.0
 40
1.0
 40
1.0
 10
123.2398675728742
 20
112.7836158336411
 30
0.0
 10
123.0547830260901
 20
112.7692294863424
 30
0.0
 10
122.8797444300123
 20
112.7039795914861
 30
0.0
 10
122.5754451003415
 20
112.5527996939825
 30
0.0
 10
122.4442076150408
 20
112.467300555325
 30
0.0
 10
122.3570248603996
 20
112.422634440407
 30
0.0
  0
LINE
  5
10D
330
1F
100
AcDbEntity
  8
0
  6
Continuous
 62
     7
370
    15
100
AcDbLine
 10
263.2570248604
 20
120.4424482608
 30
0.0
 11
263.2570248604
 21
143.4424482608
 31
0.0
  0
LINE
  5
10E
330
1F
100
AcDbEntity
  8
0
  6
Continuous
 62
     7
370
    15
100
AcDbLine
 10
263.2570248604
 20
97.4424482608
 30
0.0
 11
263.2570248604
 21
120.4424482608
 31
0.0
  0
LINE
  5
10F
330
1F
100
AcDbEntity
  8
0
  6
Continuous
 62
     7
370
    15
100
AcDbLine
 10
262.2570248604
 20
120.4424482608
 30
0.0
 11
262.2570248604
 21
144.4424482608
 31
0.0
  0
LINE
  5
110
330
1F
100
AcDbEntity
  8
0
  6
Continuous
 62
     7
370
    15
100
AcDbLine
 10
262.2570248604
 20
96.4424482608
 30
0.0
 11
262.2570248604
 21
120.4424482608
 31
0.0
  0
LINE
  5
111
330
1F
100
AcDbEntity
  8
0
  6
Continuous
 62
     7
370
    15
100
AcDbLine
 10
103.2570248604
 20
120.4424482608
 30
0.0
 11
103.2570248604
 21
98.2174482608
 31
0.0
  0
LINE
  5
112
330
1F
100
AcDbEntity
  8
0
  6
Continuous
 62
     7
370
    15
100
AcDbLine
 10
103.2570248604
 20
142.6674482608
 30
0.0
 11
103.2570248604
 21
120.4424482608
 31
0.0
  0
LINE
  5
113
330
1F
100
AcDbEntity
  8
0
  6
Continuous
 62
     7
370
    15
100
AcDbLine
 10
103.7395389175
 20
120.4424482608
 30
0.0
 11
103.7395389175
 21
98.4424482608
 31
0.0
  0
LINE
  5
114
330
1F
100
AcDbEntity
  8
0
  6
Continuous
 62
     7
370
    15
100
AcDbLine
 10
103.7395389175
 20
142.4424482608
 30
0.0
 11
103.7395389175
 21
120.4424482608
 31
0.0
  0
LINE
  5
115
330
1F
100
AcDbEntity
  8
0
  6
Continuous
 62
     7
370
    15
100
AcDbLine
 10
293.5570248604
 20
120.4424482608
 30
0.0
 11
293.5570248604
 21
134.4424482608
 31
0.0
  0
LINE
  5
116
330
1F
100
AcDbEntity
  8
0
  6
Continuous
 62
     7
370
    15
100
AcDbLine
 10
293.5570248604
 20
106.4424482608
 30
0.0
 11
293.5570248604
 21
120.4424482608
 31
0.0
  0
LINE
  5
117
330
1F
100
AcDbEntity
  8
0
  6
Continuous
 62
     7
370
    15
100
AcDbLine
 10
286.9570248604
 20
106.4424482608
 30
0.0
 11
286.9570248604
 21
134.4424482608
 31
0.0
  0
LINE
  5
118
330
1F
100
AcDbEntity
  8
0
  6
Continuous
 62
     7
370
    15
100
AcDbLine
 10
294.2570248604
 20
120.4424482608
 30
0.0
 11
294.2570248604
 21
133.7424482608
 31
0.0
  0
LINE
  5
119
330
1F
100
AcDbEntity
  8
0
  6
Continuous
 62
     7
370
    15
100
AcDbLine
 10
294.2570248604
 20
107.1424482608
 30
0.0
 11
294.2570248604
 21
120.4424482608
 31
0.0
  0
LINE
  5
11A
330
1F
100
AcDbEntity
  8
0
  6
Continuous
 62
     7
370
    15
100
AcDbLine
 10
286.2570248604
 20
107.1424482608
 30
0.0
 11
286.2570248604
 21
133.7424482608
 31
0.0
  0
SPLINE
  5
11B
330
1F
100
AcDbEntity
  8
0
  6
Continuous
 62
     7
370
    15
100
AcDbSpline
210
0.0
220
0.0
230
1.0
 70
    24
 71
     3
 72
    10
 73
     6
 74
     0
 42
0.000000001
 43
0.00000001
 40
0.0
 40
0.0
 40
0.0
 40
0.0
 40
0.4999999999999997
 40
0.4999999999999997
 40
0.9999999999999999
 40
0.9999999999999999
 40
0.9999999999999999
 40
0.9999999999999999
 10
34.85702486039958
 20
131.8276108503759
 30
0.0
 10
34.85702486039958
 20
131.8276108503758
 30
0.0
 10
34.85702486039958
 20
130.6280456669331
 30
0.0
 10
34.85702486039958
 20
126.3579021986425
 30
0.0
 10
34.85702486039958
 20
123.4618956638246
 30
0.0
 10
34.85702486039958
 20
120.442448260757
 30
0.0
  0
SPLINE
  5
11C
330
1F
100
AcDbEntity
  8
0
  6
Continuous
 62
     7
370
    15
100
AcDbSpline
210
0.0
220
0.0
230
1.0
 70
    24
 71
     3
 72
    10
 73
     6
 74
     0
 42
0.000000001
 43
0.00000001
 40
0.0
 40
0.0
 40
0.0
 40
0.0
 40
0.5
 40
0.5
 40
1.0
 40
1.0
 40
1.0
 40
1.0
 10
34.85702486039958
 20
120.442448260757
 30
0.0
 10
34.85702486039958
 20
117.4230008576893
 30
0.0
 10
34.85702486039958
 20
114.5269943228711
 30
0.0
 10
34.85702486039958
 20
110.2568508545807
 30
0.0
 10
34.85702486039958
 20
109.057285671138
 30
0.0
 10
34.85702486039958
 20
109.057285671138
 30
0.0
  0
LINE
  5
11D
330
1F
100
AcDbEntity
  8
0
  6
Continuous
 62
     7
370
    15
100
AcDbLine
 10
282.2570248604
 20
120.4424482608
 30
0.0
 11
282.2570248604
 21
130.6424482608
 31
0.0
  0
LINE
  5
11E
330
1F
100
AcDbEntity
  8
0
  6
Continuous
 62
     7
370
    15
100
AcDbLine
 10
282.2570248604
 20
110.2424482608
 30
0.0
 11
282.2570248604
 21
120.4424482608
 31
0.0
  0
LINE
  5
11F
330
1F
100
AcDbEntity
  8
0
  6
Continuous
 62
     7
370
    15
100
AcDbLine
 10
280.8713842143
 20
120.4424482608
 30
0.0
 11
280.8713842143
 21
131.4424482608
 31
0.0
  0
LINE
  5
120
330
1F
100
AcDbEntity
  8
0
  6
Continuous
 62
     7
370
    15
100
AcDbLine
 10
280.8713842143
 20
109.4424482608
 30
0.0
 11
280.8713842143
 21
120.4424482608
 31
0.0
  0
LINE
  5
121
330
1F
100
AcDbEntity
  8
0
  6
Continuous
 62
     7
370
    15
100
AcDbLine
 10
268.6570248604
 20
132.8424482608
 30
0.0
 11
263.2570248604
 21
132.8424482608
 31
0.0
  0
LINE
  5
122
330
1F
100
AcDbEntity
  8
0
  6
Continuous
 62
     7
370
    15
100
AcDbLine
 10
263.2570248604
 20
142.0424482608
 30
0.0
 11
268.6570248604
 21
142.0424482608
 31
0.0
  0
LINE
  5
123
330
1F
100
AcDbEntity
  8
0
  6
Continuous
 62
     7
370
    15
100
AcDbLine
 10
268.6570248604
 20
142.0424482608
 30
0.0
 11
269.0570248604
 21
141.4767628358
 31
0.0
  0
LINE
  5
124
330
1F
100
AcDbEntity
  8
0
  6
Continuous
 62
     7
370
    15
100
AcDbLine
 10
269.0570248604
 20
141.4767628358
 30
0.0
 11
269.0570248604
 21
133.4081336857
 31
0.0
  0
LINE
  5
125
330
1F
100
AcDbEntity
  8
0
  6
Continuous
 62
     7
370
    15
100
AcDbLine
 10
269.0570248604
 20
133.4081336857
 30
0.0
 11
268.6570248604
 21
132.8424482608
 31
0.0
  0
LINE
  5
126
330
1F
100
AcDbEntity
  8
0
  6
Continuous
 62
     7
370
    15
100
AcDbLine
 10
268.6570248604
 20
142.4424482608
 30
0.0
 11
268.6570248604
 21
142.0424482608
 31
0.0
  0
LINE
  5
127
330
1F
100
AcDbEntity
  8
0
  6
Continuous
 62
     7
370
    15
100
AcDbLine
 10
268.6570248604
 20
142.4424482608
 30
0.0
 11
269.0570248604
 21
142.4424482608
 31
0.0
  0
LINE
  5
128
330
1F
100
AcDbEntity
  8
0
  6
Continuous
 62
     7
370
    15
100
AcDbLine
 10
269.0570248604
 20
141.4767628358
 30
0.0
 11
269.0570248604
 21
142.4424482608
 31
0.0
  0
LINE
  5
129
330
1F
100
AcDbEntity
  8
0
  6
Continuous
 62
     7
370
    15
100
AcDbLine
 10
268.6570248604
 20
108.0424482608
 30
0.0
 11
263.2570248604
 21
108.0424482608
 31
0.0
  0
LINE
  5
12A
330
1F
100
AcDbEntity
  8
0
  6
Continuous
 62
     7
370
    15
100
AcDbLine
 10
269.0570248604
 20
107.4767628358
 30
0.0
 11
268.6570248604
 21
108.0424482608
 31
0.0
  0
LINE
  5
12B
330
1F
100
AcDbEntity
  8
0
  6
Continuous
 62
     7
370
    15
100
AcDbLine
 10
269.0570248604
 20
99.4081336857
 30
0.0
 11
269.0570248604
 21
107.4767628358
 31
0.0
  0
LINE
  5
12C
330
1F
100
AcDbEntity
  8
0
  6
Continuous
 62
     7
370
    15
100
AcDbLine
 10
268.6570248604
 20
98.8424482608
 30
0.0
 11
269.0570248604
 21
99.4081336857
 31
0.0
  0
LINE
  5
12D
330
1F
100
AcDbEntity
  8
0
  6
Continuous
 62
     7
370
    15
100
AcDbLine
 10
263.2570248604
 20
98.8424482608
 30
0.0
 11
268.6570248604
 21
98.8424482608
 31
0.0
  0
LINE
  5
12E
330
1F
100
AcDbEntity
  8
0
  6
Continuous
 62
     7
370
    15
100
AcDbLine
 10
268.6570248604
 20
108.0424482608
 30
0.0
 11
268.6570248604
 21
108.4424482608
 31
0.0
  0
LINE
  5
12F
330
1F
100
AcDbEntity
  8
0
  6
Continuous
 62
     7
370
    15
100
AcDbLine
 10
268.6570248604
 20
108.4424482608
 30
0.0
 11
263.2570248604
 21
108.4424482608
 31
0.0
  0
LINE
  5
130
330
1F
100
AcDbEntity
  8
0
  6
Continuous
 62
     7
370
    15
100
AcDbLine
 10
268.6570248604
 20
132.4424482608
 30
0.0
 11
269.0570248604
 21
132.4424482608
 31
0.0
  0
LINE
  5
131
330
1F
100
AcDbEntity
  8
0
  6
Continuous
 62
     7
370
    15
100
AcDbLine
 10
268.6570248604
 20
132.8424482608
 30
0.0
 11
268.6570248604
 21
132.4424482608
 31
0.0
  0
LINE
  5
132
330
1F
100
AcDbEntity
  8
0
  6
Continuous
 62
     7
370
    15
100
AcDbLine
 10
269.0570248604
 20
133.4081336857
 30
0.0
 11
269.0570248604
 21
132.4424482608
 31
0.0
  0
LINE
  5
133
330
1F
100
AcDbEntity
  8
0
  6
Continuous
 62
     7
370
    15
100
AcDbLine
 10
263.2570248604
 20
142.4424482608
 30
0.0
 11
268.6570248604
 21
142.4424482608
 31
0.0
  0
LINE
  5
134
330
1F
100
AcDbEntity
  8
0
  6
Continuous
 62
     7
370
    15
100
AcDbLine
 10
269.0570248604
 20
108.4424482608
 30
0.0
 11
268.6570248604
 21
108.4424482608
 31
0.0
  0
LINE
  5
135
330
1F
100
AcDbEntity
  8
0
  6
Continuous
 62
     7
370
    15
100
AcDbLine
 10
269.0570248604
 20
107.4767628358
 30
0.0
 11
269.0570248604
 21
108.4424482608
 31
0.0
  0
LINE
  5
136
330
1F
100
AcDbEntity
  8
0
  6
Continuous
 62
     7
370
    15
100
AcDbLine
 10
263.2570248604
 20
132.4424482608
 30
0.0
 11
268.6570248604
 21
132.4424482608
 31
0.0
  0
LINE
  5
137
330
1F
100
AcDbEntity
  8
0
  6
Continuous
 62
     7
370
    15
100
AcDbLine
 10
268.6570248604
 20
98.4424482608
 30
0.0
 11
263.2570248604
 21
98.4424482608
 31
0.0
  0
LINE
  5
138
330
1F
100
AcDbEntity
  8
0
  6
Continuous
 62
     7
370
    15
100
AcDbLine
 10
268.6570248604
 20
98.8424482608
 30
0.0
 11
268.6570248604
 21
98.4424482608
 31
0.0
  0
LINE
  5
139
330
1F
100
AcDbEntity
  8
0
  6
Continuous
 62
     7
370
    15
100
AcDbLine
 10
269.0570248604
 20
98.4424482608
 30
0.0
 11
268.6570248604
 21
98.4424482608
 31
0.0
  0
LINE
  5
13A
330
1F
100
AcDbEntity
  8
0
  6
Continuous
 62
     7
370
    15
100
AcDbLine
 10
269.0570248604
 20
98.4424482608
 30
0.0
 11
269.0570248604
 21
99.4081336857
 31
0.0
  0
LINE
  5
13B
330
1F
100
AcDbEntity
  8
0
  6
Continuous
 62
     8
370
    15
100
AcDbLine
 10
121.1913394355
 20
88.6924482608
 30
0.0
 11
121.1913394355
 21
111.8420172229
 31
0.0
  0
LINE
  5
13C
330
1F
100
AcDbEntity
  8
0
  6
Continuous
 62
     8
370
    15
100
AcDbLine
 10
121.1913394355
 20
129.0428792986
 30
0.0
 11
121.1913394355
 21
152.1924482608
 31
0.0
  0
LINE
  5
13D
330
1F
100
AcDbEntity
  8
0
  6
Continuous
 62
     8
370
    15
100
AcDbLine
 10
107.6227102853
 20
111.8420172229
 30
0.0
 11
107.6227102853
 21
88.6924482608
 31
0.0
  0
LINE
  5
13E
330
1F
100
AcDbEntity
  8
0
  6
Continuous
 62
     8
370
    15
100
AcDbLine
 10
107.6227102853
 20
152.1924482608
 30
0.0
 11
107.6227102853
 21
129.0428792986
 31
0.0
  0
LINE
  5
13F
330
1F
100
AcDbEntity
  8
0
  6
Continuous
 62
     8
370
    15
100
AcDbLine
 10
122.2398675729
 20
151.3096055483
 30
0.0
 11
122.2398675729
 21
128.4924482608
 31
0.0
  0
LINE
  5
140
330
1F
100
AcDbEntity
  8
0
  6
Continuous
 62
     8
370
    15
100
AcDbLine
 10
122.2398675729
 20
112.3924482608
 30
0.0
 11
122.2398675729
 21
89.5752909732
 31
0.0
  0
LINE
  5
141
330
1F
100
AcDbEntity
  8
0
  6
Continuous
 62
     8
370
    15
100
AcDbLine
 10
121.4741821479
 20
111.9370527072
 30
0.0
 11
121.4741821479
 21
88.8096055483
 31
0.0
  0
LINE
  5
142
330
1F
100
AcDbEntity
  8
0
  6
Continuous
 62
     8
370
    15
100
AcDbLine
 10
121.4741821479
 20
152.0752909732
 30
0.0
 11
121.4741821479
 21
128.9478438144
 31
0.0
  0
LINE
  5
143
330
1F
100
AcDbEntity
  8
0
  6
Continuous
 62
     8
370
    15
100
AcDbLine
 10
106.5741821479
 20
89.5752909732
 30
0.0
 11
106.5741821479
 21
111.8096055483
 31
0.0
  0
LINE
  5
144
330
1F
100
AcDbEntity
  8
0
  6
Continuous
 62
     8
370
    15
100
AcDbLine
 10
106.5741821479
 20
129.0752909732
 30
0.0
 11
106.5741821479
 21
151.3096055483
 31
0.0
  0
LINE
  5
145
330
1F
100
AcDbEntity
  8
0
  6
Continuous
 62
     8
370
    15
100
AcDbLine
 10
107.3398675729
 20
128.9478438144
 30
0.0
 11
107.3398675729
 21
152.0752909732
 31
0.0
  0
LINE
  5
146
330
1F
100
AcDbEntity
  8
0
  6
Continuous
 62
     8
370
    15
100
AcDbLine
 10
107.3398675729
 20
88.8096055483
 30
0.0
 11
107.3398675729
 21
111.9370527072
 31
0.0
  0
LINE
  5
147
330
1F
100
AcDbEntity
  8
0
  6
Continuous
 62
     8
370
    15
100
AcDbLine
 10
123.2398675729
 20
112.7836158336
 30
0.0
 11
123.2398675729
 21
96.4424482608
 31
0.0
  0
LINE
  5
148
330
1F
100
AcDbEntity
  8
0
  6
Continuous
 62
     8
370
    15
100
AcDbLine
 10
123.2398675729
 20
144.4424482608
 30
0.0
 11
123.2398675729
 21
128.1012806879
 31
0.0
  0
LINE
  5
149
330
1F
100
AcDbEntity
  8
0
  6
Continuous
 62
     8
370
    15
100
AcDbLine
 10
105.9570248604
 20
120.4424482608
 30
0.0
 11
105.9570248604
 21
142.4424482608
 31
0.0
  0
LINE
  5
14A
330
1F
100
AcDbEntity
  8
0
  6
Continuous
 62
     8
370
    15
100
AcDbLine
 10
105.9570248604
 20
98.4424482608
 30
0.0
 11
105.9570248604
 21
120.4424482608
 31
0.0
  0
LINE
  5
14B
330
1F
100
AcDbEntity
  8
0
  6
Continuous
 62
     8
370
    15
100
AcDbLine
 10
35.7127166331
 20
132.8171436369
 30
0.0
 11
35.7127166331
 21
108.0677528846
 31
0.0
  0
LINE
  5
14C
330
1F
100
AcDbEntity
  8
0
  6
Continuous
 62
     8
370
    15
100
AcDbLine
 10
285.7570248604
 20
120.4424482608
 30
0.0
 11
285.7570248604
 21
125.4424482608
 31
0.0
  0
LINE
  5
14D
330
1F
100
AcDbEntity
  8
0
  6
Continuous
 62
     8
370
    15
100
AcDbLine
 10
285.7570248604
 20
115.4424482608
 30
0.0
 11
285.7570248604
 21
120.4424482608
 31
0.0
  0
DIMENSION
  5
14E
330
1F
100
AcDbEntity
  8
DIM
100
AcDbDimension
  2
_D
 10
300.8486829821
 20
109.4424482608
 30
0.0
 11
300.8486829821
 21
120.4424482608
 31
0.0
 70
   160
  1
%%c<>
 71
     2
 42
-1.0
  3
SLDDIMSTYLE0
100
AcDbAlignedDimension
 13
280.8713842143
 23
131.4424482608
 33
0.0
 14
280.8713842143
 24
109.4424482608
 34
0.0
 50
90.0
100
AcDbRotatedDimension
  0
DIMENSION
  5
15C
330
1F
100
AcDbEntity
  8
DIM
100
AcDbDimension
  2
_D_1
 10
306.4034825054
 20
96.4424482608
 30
0.0
 11
306.4034825054
 21
120.4424482608
 31
0.0
 70
   160
  1
%%c<>
 71
     2
 42
-1.0
  3
SLDDIMSTYLE1
100
AcDbAlignedDimension
 13
262.2570248604
 23
144.4424482608
 33
0.0
 14
262.2570248604
 24
96.4424482608
 34
0.0
 50
90.0
100
AcDbRotatedDimension
  0
DIMENSION
  5
168
330
1F
100
AcDbEntity
  8
DIM
100
AcDbDimension
  2
_D_2
 10
282.2570248604
 20
77.9870008914
 30
0.0
 11
272.7570248604
 21
77.9870008914
 31
0.0
 70
   160
  1
<>
 71
     2
 42
-1.0
  3
SLDDIMSTYLE0
100
AcDbAlignedDimension
 13
263.2570248604
 23
97.4424482608
 33
0.0
 14
282.2570248604
 24
110.2424482608
 34
0.0
100
AcDbRotatedDimension
  0
DIMENSION
  5
172
330
1F
100
AcDbEntity
  8
DIM
100
AcDbDimension
  2
_D_3
 10
294.2570248604
 20
71.0923482608
 30
0.0
 11
164.5570248604
 21
71.0923482608
 31
0.0
 70
   160
  1
<>
 71
     2
 42
-1.0
  3
SLDDIMSTYLE2
100
AcDbAlignedDimension
 13
34.8570248604
 23
120.4424482608
 33
0.0
 14
294.2570248604
 24
107.1424482608
 34
0.0
100
AcDbRotatedDimension
  0
DIMENSION
  5
17D
330
1F
100
AcDbEntity
  8
DIM
100
AcDbDimension
  2
_D_4
 10
26.5688244084
 20
88.6924482608
 30
0.0
 11
26.5688244084
 21
120.4424482608
 31
0.0
 70
   160
  1
%%c<>
 71
     2
 42
-1.0
  3
SLDDIMSTYLE2
100
AcDbAlignedDimension
 13
107.6227102853
 23
152.1924482608
 33
0.0
 14
107.6227102853
 24
88.6924482608
 34
0.0
 50
90.0
100
AcDbRotatedDimension
  0
DIMENSION
  5
188
330
1F
100
AcDbEntity
  8
DIM
100
AcDbDimension
  2
_D_5
 10
263.2570248604
 20
77.9870008914
 30
0.0
 11
183.2570248604
 21
77.9870008914
 31
0.0
 70
   160
  1
<>
 71
     2
 42
-1.0
  3
SLDDIMSTYLE1
100
AcDbAlignedDimension
 13
103.2570248604
 23
98.2174482608
 33
0.0
 14
263.2570248604
 24
97.4424482608
 34
0.0
100
AcDbRotatedDimension
  0
LINE
  5
192
330
1F
100
AcDbEntity
  8
DIM
  6
CENTERX2
 48
1.8181818182
370
     0
100
AcDbLine
 10
32.3739648118
 20
120.4424482608
 30
0.0
 11
295.5893830727
 21
120.4424482608
 31
0.0
  0
ENDSEC
  0
SECTION
  2
OBJECTS
  0
DICTIONARY
  5
C
330
0
100
AcDbDictionary
281
     1
  3
ACAD_GROUP
350
D
  3
ACAD_LAYOUT
350
1A
  3
ACAD_MLINESTYLE
350
17
  3
ACAD_PLOTSETTINGS
350
19
  3
ACAD_PLOTSTYLENAME
350
E
  3
ACAD_SCALELIST
350
47
  0
DICTIONARY
  5
D
102
{ACAD_REACTORS
330
C
102
}
330
C
100
AcDbDictionary
281
     1
  0
DICTIONARY
  5
1A
102
{ACAD_REACTORS
330
C
102
}
330
C
100
AcDbDictionary
281
     1
  3
Layout1
350
1E
  3
Layout2
350
26
  3
Model
350
22
  0
DICTIONARY
  5
17
102
{ACAD_REACTORS
330
C
102
}
330
C
100
AcDbDictionary
281
     1
  3
Standard
350
18
  0
DICTIONARY
  5
19
102
{ACAD_REACTORS
330
C
102
}
330
C
100
AcDbDictionary
281
     1
  0
ACDBDICTIONARYWDFLT
  5
E
102
{ACAD_REACTORS
330
C
102
}
330
C
100
AcDbDictionary
281
     1
  3
Normal
350
F
100
AcDbDictionaryWithDefault
340
F
  0
DICTIONARY
  5
47
102
{ACAD_REACTORS
330
C
102
}
330
C
100
AcDbDictionary
281
     1
  3
A0
350
48
  3
A1
350
49
  3
A2
350
4A
  3
A3
350
4B
  3
A4
350
4C
  3
A5
350
4D
  3
A6
350
4E
  3
A7
350
4F
  3
A8
350
50
  3
A9
350
51
  3
B0
350
52
  3
B1
350
53
  3
B2
350
54
  3
B3
350
55
  3
B4
350
56
  3
B5
350
57
  3
B6
350
58
  3
B7
350
59
  3
B8
350
5A
  3
B9
350
5B
  3
C0
350
5C
  3
C1
350
5D
  3
C2
350
5E
  3
C3
350
5F
  3
C4
350
60
  3
C5
350
61
  3
C6
350
62
  3
C7
350
63
  3
C8
350
64
  3
C9
350
65
  3
D0
350
66
  3
D1
350
67
  3
D2
350
68
  0
LAYOUT
  5
1E
102
{ACAD_REACTORS
330
1A
102
}
330
1A
100
AcDbPlotSettings
  1

  2
none_device
  4

  6

 40
0.0
 41
0.0
 42
0.0
 43
0.0
 44
0.0
 45
0.0
 46
0.0
 47
0.0
 48
0.0
 49
0.0
140
0.0
141
0.0
142
1.0
143
1.0
 70
   688
 72
     1
 73
     0
 74
     5
  7

 75
    16
147
1.0
148
0.0
149
0.0
100
AcDbLayout
  1
Layout1
 70
     1
 71
     1
 10
0.0
 20
0.0
 11
420.0
 21
297.0
 12
0.0
 22
0.0
 32
0.0
 14
1.0000000000E+20
 24
1.0000000000E+20
 34
1.0000000000E+20
 15
-1.0000000000E+20
 25
-1.0000000000E+20
 35
-1.0000000000E+20
146
0.0
 13
0.0
 23
0.0
 33
0.0
 16
1.0
 26
0.0
 36
0.0
 17
0.0
 27
1.0
 37
0.0
 76
     0
330
1B
  0
LAYOUT
  5
26
102
{ACAD_REACTORS
330
1A
102
}
330
1A
100
AcDbPlotSettings
  1

  2
none_device
  4

  6

 40
0.0
 41
0.0
 42
0.0
 43
0.0
 44
0.0
 45
0.0
 46
0.0
 47
0.0
 48
0.0
 49
0.0
140
0.0
141
0.0
142
1.0
143
1.0
 70
   688
 72
     1
 73
     0
 74
     5
  7

 75
    16
147
1.0
148
0.0
149
0.0
100
AcDbLayout
  1
Layout2
 70
     1
 71
     2
 10
0.0
 20
0.0
 11
0.0
 21
0.0
 12
0.0
 22
0.0
 32
0.0
 14
0.0
 24
0.0
 34
0.0
 15
0.0
 25
0.0
 35
0.0
146
0.0
 13
0.0
 23
0.0
 33
0.0
 16
1.0
 26
0.0
 36
0.0
 17
0.0
 27
1.0
 37
0.0
 76
     0
330
23
  0
LAYOUT
  5
22
102
{ACAD_REACTORS
330
1A
102
}
330
1A
100
AcDbPlotSettings
  1

  2
none_device
  4
Letter_(8.50_x_11.00_Inches)
  6

 40
6.35
 41
6.35
 42
6.35000508
 43
6.35000508
 44
215.9
 45
279.4
 46
0.0
 47
0.0
 48
0.0
 49
0.0
140
0.0
141
0.0
142
1.0
143
1.0
 70
  1712
 72
     1
 73
     0
 74
     0
  7

 75
     0
147
1.0
148
0.0
149
0.0
100
AcDbLayout
  1
Model
 70
     1
 71
     0
 10
0.0
 20
0.0
 11
326.7
 21
231.0
 12
0.0
 22
0.0
 32
0.0
 14
0.0
 24
0.0
 34
0.0
 15
326.7
 25
231.0
 35
0.0
146
0.0
 13
0.0
 23
0.0
 33
0.0
 16
1.0
 26
0.0
 36
0.0
 17
0.0
 27
1.0
 37
0.0
 76
     0
330
1F
331
29
  0
MLINESTYLE
  5
18
102
{ACAD_REACTORS
330
17
102
}
330
17
100
AcDbMlineStyle
  2
Standard
 70
     0
  3

 62
   256
 51
90.0
 52
90.0
 71
     2
 49
0.5
 62
   256
  6
BYLAYER
 49
-0.5
 62
   256
  6
BYLAYER
  0
ACDBPLACEHOLDER
  5
F
102
{ACAD_REACTORS
330
E
102
}
330
E
  0
SCALE
  5
48
102
{ACAD_REACTORS
330
47
102
}
330
47
100
AcDbScale
 70
     0
300
1:1
140
1.0
141
1.0
290
     1
  0
SCALE
  5
49
102
{ACAD_REACTORS
330
47
102
}
330
47
100
AcDbScale
 70
     0
300
1:2
140
1.0
141
2.0
290
     0
  0
SCALE
  5
4A
102
{ACAD_REACTORS
330
47
102
}
330
47
100
AcDbScale
 70
     0
300
1:4
140
1.0
141
4.0
290
     0
  0
SCALE
  5
4B
102
{ACAD_REACTORS
330
47
102
}
330
47
100
AcDbScale
 70
     0
300
1:5
140
1.0
141
5.0
290
     0
  0
SCALE
  5
4C
102
{ACAD_REACTORS
330
47
102
}
330
47
100
AcDbScale
 70
     0
300
1:8
140
1.0
141
8.0
290
     0
  0
SCALE
  5
4D
102
{ACAD_REACTORS
330
47
102
}
330
47
100
AcDbScale
 70
     0
300
1:10
140
1.0
141
10.0
290
     0
  0
SCALE
  5
4E
102
{ACAD_REACTORS
330
47
102
}
330
47
100
AcDbScale
 70
     0
300
1:16
140
1.0
141
16.0
290
     0
  0
SCALE
  5
4F
102
{ACAD_REACTORS
330
47
102
}
330
47
100
AcDbScale
 70
     0
300
1:20
140
1.0
141
20.0
290
     0
  0
SCALE
  5
50
102
{ACAD_REACTORS
330
47
102
}
330
47
100
AcDbScale
 70
     0
300
1:30
140
1.0
141
30.0
290
     0
  0
SCALE
  5
51
102
{ACAD_REACTORS
330
47
102
}
330
47
100
AcDbScale
 70
     0
300
1:40
140
1.0
141
40.0
290
     0
  0
SCALE
  5
52
102
{ACAD_REACTORS
330
47
102
}
330
47
100
AcDbScale
 70
     0
300
1:50
140
1.0
141
50.0
290
     0
  0
SCALE
  5
53
102
{ACAD_REACTORS
330
47
102
}
330
47
100
AcDbScale
 70
     0
300
1:100
140
1.0
141
100.0
290
     0
  0
SCALE
  5
54
102
{ACAD_REACTORS
330
47
102
}
330
47
100
AcDbScale
 70
     0
300
2:1
140
2.0
141
1.0
290
     0
  0
SCALE
  5
55
102
{ACAD_REACTORS
330
47
102
}
330
47
100
AcDbScale
 70
     0
300
4:1
140
4.0
141
1.0
290
     0
  0
SCALE
  5
56
102
{ACAD_REACTORS
330
47
102
}
330
47
100
AcDbScale
 70
     0
300
8:1
140
8.0
141
1.0
290
     0
  0
SCALE
  5
57
102
{ACAD_REACTORS
330
47
102
}
330
47
100
AcDbScale
 70
     0
300
10:1
140
10.0
141
1.0
290
     0
  0
SCALE
  5
58
102
{ACAD_REACTORS
330
47
102
}
330
47
100
AcDbScale
 70
     0
300
100:1
140
100.0
141
1.0
290
     0
  0
SCALE
  5
59
102
{ACAD_REACTORS
330
47
102
}
330
47
100
AcDbScale
 70
     0
300
1/128" = 1'-0"
140
0.0078125
141
12.0
290
     0
  0
SCALE
  5
5A
102
{ACAD_REACTORS
330
47
102
}
330
47
100
AcDbScale
 70
     0
300
1/64" = 1'-0"
140
0.015625
141
12.0
290
     0
  0
SCALE
  5
5B
102
{ACAD_REACTORS
330
47
102
}
330
47
100
AcDbScale
 70
     0
300
1/32" = 1'-0"
140
0.03125
141
12.0
290
     0
  0
SCALE
  5
5C
102
{ACAD_REACTORS
330
47
102
}
330
47
100
AcDbScale
 70
     0
300
1/16" = 1'-0"
140
0.0625
141
12.0
290
     0
  0
SCALE
  5
5D
102
{ACAD_REACTORS
330
47
102
}
330
47
100
AcDbScale
 70
     0
300
3/32" = 1'-0"
140
0.09375
141
12.0
290
     0
  0
SCALE
  5
5E
102
{ACAD_REACTORS
330
47
102
}
330
47
100
AcDbScale
 70
     0
300
1/8" = 1'-0"
140
0.125
141
12.0
290
     0
  0
SCALE
  5
5F
102
{ACAD_REACTORS
330
47
102
}
330
47
100
AcDbScale
 70
     0
300
3/16" = 1'-0"
140
0.1875
141
12.0
290
     0
  0
SCALE
  5
60
102
{ACAD_REACTORS
330
47
102
}
330
47
100
AcDbScale
 70
     0
300
1/4" = 1'-0"
140
0.25
141
12.0
290
     0
  0
SCALE
  5
61
102
{ACAD_REACTORS
330
47
102
}
330
47
100
AcDbScale
 70
     0
300
3/8" = 1'-0"
140
0.375
141
12.0
290
     0
  0
SCALE
  5
62
102
{ACAD_REACTORS
330
47
102
}
330
47
100
AcDbScale
 70
     0
300
1/2" = 1'-0"
140
0.5
141
12.0
290
     0
  0
SCALE
  5
63
102
{ACAD_REACTORS
330
47
102
}
330
47
100
AcDbScale
 70
     0
300
3/4" = 1'-0"
140
0.75
141
12.0
290
     0
  0
SCALE
  5
64
102
{ACAD_REACTORS
330
47
102
}
330
47
100
AcDbScale
 70
     0
300
1" = 1'-0"
140
1.0
141
12.0
290
     0
  0
SCALE
  5
65
102
{ACAD_REACTORS
330
47
102
}
330
47
100
AcDbScale
 70
     0
300
1-1/2" = 1'-0"
140
1.5
141
12.0
290
     0
  0
SCALE
  5
66
102
{ACAD_REACTORS
330
47
102
}
330
47
100
AcDbScale
 70
     0
300
3" = 1'-0"
140
3.0
141
12.0
290
     0
  0
SCALE
  5
67
102
{ACAD_REACTORS
330
47
102
}
330
47
100
AcDbScale
 70
     0
300
6" = 1'-0"
140
6.0
141
12.0
290
     0
  0
SCALE
  5
68
102
{ACAD_REACTORS
330
47
102
}
330
47
100
AcDbScale
 70
     0
300
1'-0" = 1'-0"
140
12.0
141
12.0
290
     0
  0
ENDSEC
  0
EOF
