  0
SECTION
  2
HEADER
  9
$ACADVER
  1
AC1015
  9
$ACADMAINTVER
 70
     6
  9
$DWGCODEPAGE
  3
ANSI_1252
  9
$INSBASE
 10
0.0
 20
0.0
 30
0.0
  9
$EXTMIN
 10
0.0
 20
0.0
 30
0.0
  9
$EXTMAX
 10
371.25
 20
262.5
 30
0.0
  9
$LIMMIN
 10
0.0
 20
0.0
  9
$LIMMAX
 10
371.25
 20
262.5
  9
$ORTHOMODE
 70
     0
  9
$REGENMODE
 70
     1
  9
$FILLMODE
 70
     1
  9
$QTEXTMODE
 70
     0
  9
$MIRRTEXT
 70
     1
  9
$LTSCALE
 40
1.25
  9
$ATTMODE
 70
     1
  9
$TEXTSIZE
 40
4.8506944444
  9
$TRACEWID
 40
1.0
  9
$TEXTSTYLE
  7
Standard
  9
$CLAYER
  8
0
  9
$CELTYPE
  6
ByLayer
  9
$CECOLOR
 62
   256
  9
$CELTSCALE
 40
1.0
  9
$DISPSILH
 70
     0
  9
$DIMSCALE
 40
1.0
  9
$DIMASZ
 40
4.1275
  9
$DIMEXO
 40
1.25
  9
$DIMDLI
 40
3.75
  9
$DIMRND
 40
0.0
  9
$DIMDLE
 40
0.0
  9
$DIMEXE
 40
1.25
  9
$DIMTP
 40
0.0
  9
$DIMTM
 40
0.0
  9
$DIMTXT
 40
4.8506944444
  9
$DIMCEN
 40
2.5
  9
$DIMTSZ
 40
0.0
  9
$DIMTOL
 70
     0
  9
$DIMLIM
 70
     0
  9
$DIMTIH
 70
     1
  9
$DIMTOH
 70
     1
  9
$DIMSE1
 70
     0
  9
$DIMSE2
 70
     0
  9
$DIMTAD
 70
     1
  9
$DIMZIN
 70
     0
  9
$DIMBLK
  1

  9
$DIMASO
 70
     1
  9
$DIMSHO
 70
     1
  9
$DIMPOST
  1

  9
$DIMAPOST
  1

  9
$DIMALT
 70
     0
  9
$DIMALTD
 70
     3
  9
$DIMALTF
 40
0.0393700787
  9
$DIMLFAC
 40
1.0
  9
$DIMTOFL
 70
     1
  9
$DIMTVP
 40
0.0
  9
$DIMTIX
 70
     0
  9
$DIMSOXD
 70
     0
  9
$DIMSAH
 70
     0
  9
$DIMBLK1
  1

  9
$DIMBLK2
  1

  9
$DIMSTYLE
  2
ISO-25
  9
$DIMCLRD
 70
     0
  9
$DIMCLRE
 70
     0
  9
$DIMCLRT
 70
     0
  9
$DIMTFAC
 40
1.0
  9
$DIMGAP
 40
1.905
  9
$DIMJUST
 70
     0
  9
$DIMSD1
 70
     0
  9
$DIMSD2
 70
     0
  9
$DIMTOLJ
 70
     0
  9
$DIMTZIN
 70
     0
  9
$DIMALTZ
 70
     0
  9
$DIMALTTZ
 70
     0
  9
$DIMUPT
 70
     0
  9
$DIMDEC
 70
     2
  9
$DIMTDEC
 70
     2
  9
$DIMALTU
 70
     2
  9
$DIMALTTD
 70
     3
  9
$DIMTXSTY
  7
Standard
  9
$DIMAUNIT
 70
     0
  9
$DIMADEC
 70
     2
  9
$DIMALTRND
 40
0.0
  9
$DIMAZIN
 70
     0
  9
$DIMDSEP
 70
    44
  9
$DIMATFIT
 70
     3
  9
$DIMFRAC
 70
     0
  9
$DIMLDRBLK
  1

  9
$DIMLUNIT
 70
     2
  9
$DIMLWD
 70
    -2
  9
$DIMLWE
 70
    -2
  9
$DIMTMOVE
 70
     0
  9
$LUNITS
 70
     2
  9
$LUPREC
 70
     2
  9
$SKETCHINC
 40
1.0
  9
$FILLETRAD
 40
10.0
  9
$AUNITS
 70
     1
  9
$AUPREC
 70
     2
  9
$MENU
  1
.
  9
$ELEVATION
 40
0.0
  9
$PELEVATION
 40
0.0
  9
$THICKNESS
 40
0.0
  9
$LIMCHECK
 70
     0
  9
$CHAMFERA
 40
0.0
  9
$CHAMFERB
 40
0.0
  9
$CHAMFERC
 40
0.0
  9
$CHAMFERD
 40
0.0
  9
$SKPOLY
 70
     0
  9
$TDCREATE
 40
2458600.660737604
  9
$TDUCREATE
 40
2458600.431570937
  9
$TDUPDATE
 40
2458600.660738762
  9
$TDUUPDATE
 40
2458600.431572095
  9
$TDINDWG
 40
0.0000000116
  9
$TDUSRTIMER
 40
0.0000000116
  9
$USRTIMER
 70
     1
  9
$ANGBASE
 50
0.0
  9
$ANGDIR
 70
     0
  9
$PDMODE
 70
     0
  9
$PDSIZE
 40
-1.0
  9
$PLINEWID
 40
0.0
  9
$SPLFRAME
 70
     0
  9
$SPLINETYPE
 70
     6
  9
$SPLINESEGS
 70
     8
  9
$HANDSEED
  5
1CA
  9
$SURFTAB1
 70
     6
  9
$SURFTAB2
 70
     6
  9
$SURFTYPE
 70
     6
  9
$SURFU
 70
     6
  9
$SURFV
 70
     6
  9
$UCSBASE
  2

  9
$UCSNAME
  2

  9
$UCSORG
 10
0.0
 20
0.0
 30
0.0
  9
$UCSXDIR
 10
1.0
 20
0.0
 30
0.0
  9
$UCSYDIR
 10
0.0
 20
1.0
 30
0.0
  9
$UCSORTHOREF
  2

  9
$UCSORTHOVIEW
 70
     0
  9
$UCSORGTOP
 10
0.0
 20
0.0
 30
0.0
  9
$UCSORGBOTTOM
 10
0.0
 20
0.0
 30
0.0
  9
$UCSORGLEFT
 10
0.0
 20
0.0
 30
0.0
  9
$UCSORGRIGHT
 10
0.0
 20
0.0
 30
0.0
  9
$UCSORGFRONT
 10
0.0
 20
0.0
 30
0.0
  9
$UCSORGBACK
 10
0.0
 20
0.0
 30
0.0
  9
$PUCSBASE
  2

  9
$PUCSNAME
  2

  9
$PUCSORG
 10
0.0
 20
0.0
 30
0.0
  9
$PUCSXDIR
 10
1.0
 20
0.0
 30
0.0
  9
$PUCSYDIR
 10
0.0
 20
1.0
 30
0.0
  9
$PUCSORTHOREF
  2

  9
$PUCSORTHOVIEW
 70
     0
  9
$PUCSORGTOP
 10
0.0
 20
0.0
 30
0.0
  9
$PUCSORGBOTTOM
 10
0.0
 20
0.0
 30
0.0
  9
$PUCSORGLEFT
 10
0.0
 20
0.0
 30
0.0
  9
$PUCSORGRIGHT
 10
0.0
 20
0.0
 30
0.0
  9
$PUCSORGFRONT
 10
0.0
 20
0.0
 30
0.0
  9
$PUCSORGBACK
 10
0.0
 20
0.0
 30
0.0
  9
$USERI1
 70
     0
  9
$USERI2
 70
     0
  9
$USERI3
 70
     0
  9
$USERI4
 70
     0
  9
$USERI5
 70
     0
  9
$USERR1
 40
0.0
  9
$USERR2
 40
0.0
  9
$USERR3
 40
0.0
  9
$USERR4
 40
0.0
  9
$USERR5
 40
0.0
  9
$WORLDVIEW
 70
     1
  9
$SHADEDGE
 70
     3
  9
$SHADEDIF
 70
    70
  9
$TILEMODE
 70
     1
  9
$MAXACTVP
 70
    64
  9
$PINSBASE
 10
0.0
 20
0.0
 30
0.0
  9
$PLIMCHECK
 70
     0
  9
$PEXTMIN
 10
1.0000000000E+20
 20
1.0000000000E+20
 30
1.0000000000E+20
  9
$PEXTMAX
 10
-1.0000000000E+20
 20
-1.0000000000E+20
 30
-1.0000000000E+20
  9
$PLIMMIN
 10
0.0
 20
0.0
  9
$PLIMMAX
 10
420.0
 20
297.0
  9
$UNITMODE
 70
     0
  9
$VISRETAIN
 70
     1
  9
$PLINEGEN
 70
     0
  9
$PSLTSCALE
 70
     1
  9
$TREEDEPTH
 70
  3020
  9
$CMLSTYLE
  2
Standard
  9
$CMLJUST
 70
     0
  9
$CMLSCALE
 40
20.0
  9
$PROXYGRAPHICS
 70
     1
  9
$MEASUREMENT
 70
     1
  9
$CELWEIGHT
370
    -1
  9
$ENDCAPS
280
     0
  9
$JOINSTYLE
280
     0
  9
$LWDISPLAY
290
     1
  9
$INSUNITS
 70
     4
  9
$HYPERLINKBASE
  1

  9
$STYLESHEET
  1

  9
$XEDIT
290
     1
  9
$CEPSNTYPE
380
     0
  9
$PSTYLEMODE
290
     1
  9
$FINGERPRINTGUID
  2
{A8047A09-8655-4D4E-83A6-BBF692522AC2}
  9
$VERSIONGUID
  2
{FAEB1C32-E019-11D5-929B-00C0DF256EC4}
  9
$EXTNAMES
290
     1
  9
$PSVPSCALE
 40
0.0
  9
$OLESTARTUP
290
     0
  0
ENDSEC
  0
SECTION
  2
CLASSES
  0
CLASS
  1
ACDBDICTIONARYWDFLT
  2
AcDbDictionaryWithDefault
  3
ObjectDBX Classes
 90
        0
280
     0
281
     0
  0
CLASS
  1
VISUALSTYLE
  2
AcDbVisualStyle
  3
ObjectDBX Classes
 90
     4095
280
     0
281
     0
  0
CLASS
  1
MATERIAL
  2
AcDbMaterial
  3
ObjectDBX Classes
 90
     1153
280
     0
281
     0
  0
CLASS
  1
SCALE
  2
AcDbScale
  3
ObjectDBX Classes
 90
     1153
280
     0
281
     0
  0
CLASS
  1
SUN
  2
AcDbSun
  3
SCENEOE
 90
     1153
280
     0
281
     0
  0
CLASS
  1
ACDBPLACEHOLDER
  2
AcDbPlaceHolder
  3
ObjectDBX Classes
 90
        0
280
     0
281
     0
  0
CLASS
  1
LAYOUT
  2
AcDbLayout
  3
ObjectDBX Classes
 90
        0
280
     0
281
     0
  0
ENDSEC
  0
SECTION
  2
TABLES
  0
TABLE
  2
VPORT
  5
8
330
0
100
AcDbSymbolTable
 70
     1
  0
VPORT
  5
29
330
8
100
AcDbSymbolTableRecord
100
AcDbViewportTableRecord
  2
*Active
 70
     0
 10
0.0
 20
0.0
 11
1.0
 21
1.0
 12
185.625
 22
131.25
 13
0.0
 23
0.0
 14
10.0
 24
10.0
 15
10.0
 25
10.0
 16
0.0
 26
0.0
 36
1.0
 17
0.0
 27
0.0
 37
0.0
 40
262.5
 41
1.4142857143
 42
50.0
 43
0.0
 44
0.0
 50
0.0
 51
0.0
 71
     0
 72
  2000
 73
     1
 74
     3
 75
     0
 76
     0
 77
     0
 78
     0
281
     0
 65
     1
110
0.0
120
0.0
130
0.0
111
1.0
121
0.0
131
0.0
112
0.0
122
1.0
132
0.0
 79
     0
146
0.0
  0
ENDTAB
  0
TABLE
  2
LTYPE
  5
5
330
0
100
AcDbSymbolTable
 70
     6
  0
LTYPE
  5
14
330
5
100
AcDbSymbolTableRecord
100
AcDbLinetypeTableRecord
  2
ByBlock
 70
     0
  3

 72
    65
 73
     0
 40
0.0
  0
LTYPE
  5
15
330
5
100
AcDbSymbolTableRecord
100
AcDbLinetypeTableRecord
  2
ByLayer
 70
     0
  3

 72
    65
 73
     0
 40
0.0
  0
LTYPE
  5
16
330
5
100
AcDbSymbolTableRecord
100
AcDbLinetypeTableRecord
  2
Continuous
 70
     0
  3
Solid line
 72
    65
 73
     0
 40
0.0
  0
LTYPE
  5
6A
330
5
100
AcDbSymbolTableRecord
100
AcDbLinetypeTableRecord
  2
HIDDEN
 70
     0
  3
Hidden __ __ __ __ __ __ __ __ __ __ __ __ __ __
 72
    65
 73
     2
 40
1.905
 49
1.27
 74
     0
 49
-0.635
 74
     0
  0
LTYPE
  5
6B
330
5
100
AcDbSymbolTableRecord
100
AcDbLinetypeTableRecord
  2
PHANTOM
 70
     0
  3
Phantom ______  __  __  ______  __  __  ______
 72
    65
 73
     6
 40
12.7
 49
6.35
 74
     0
 49
-1.27
 74
     0
 49
1.27
 74
     0
 49
-1.27
 74
     0
 49
1.27
 74
     0
 49
-1.27
 74
     0
  0
LTYPE
  5
6C
330
5
100
AcDbSymbolTableRecord
100
AcDbLinetypeTableRecord
  2
CENTER
 70
     0
  3
Center ____ _ ____ _ ____ _ ____ _ ____ _ ____
 72
    65
 73
     4
 40
10.16
 49
6.35
 74
     0
 49
-1.27
 74
     0
 49
1.27
 74
     0
 49
-1.27
 74
     0
  0
LTYPE
  5
6D
330
5
100
AcDbSymbolTableRecord
100
AcDbLinetypeTableRecord
  2
CENTERX2
 70
     0
  3
Center (2x) ________  __  ________  __  _____
 72
    65
 73
     4
 40
20.32
 49
12.7
 74
     0
 49
-2.54
 74
     0
 49
2.54
 74
     0
 49
-2.54
 74
     0
  0
LTYPE
  5
6E
330
5
100
AcDbSymbolTableRecord
100
AcDbLinetypeTableRecord
  2
DOT2
 70
     0
  3
Dot (.5x) ........................................
 72
    65
 73
     2
 40
0.635
 49
0.0
 74
     0
 49
-0.635
 74
     0
  0
ENDTAB
  0
TABLE
  2
LAYER
  5
2
330
0
100
AcDbSymbolTable
 70
     8
  0
LAYER
  5
10
330
2
100
AcDbSymbolTableRecord
100
AcDbLayerTableRecord
  2
0
 70
     0
 62
     7
  6
Continuous
370
    -3
390
F
  0
LAYER
  5
6F
330
2
100
AcDbSymbolTableRecord
100
AcDbLayerTableRecord
  2
FORMAT
 70
     0
 62
     7
  6
Continuous
370
    -3
390
F
  0
LAYER
  5
70
330
2
100
AcDbSymbolTableRecord
100
AcDbLayerTableRecord
  2
SLD-0
 70
     0
 62
     2
  6
Continuous
370
    -3
390
F
  0
LAYER
  5
71
330
2
100
AcDbSymbolTableRecord
100
AcDbLayerTableRecord
  2
DIM
 70
     0
 62
   179
  6
Continuous
370
    -3
390
F
  0
LAYER
  5
72
330
2
100
AcDbSymbolTableRecord
100
AcDbLayerTableRecord
  2
SLD-DEFPOINTS
 70
     0
 62
   179
  6
Continuous
370
    -3
390
F
  0
LAYER
  5
73
330
2
100
AcDbSymbolTableRecord
100
AcDbLayerTableRecord
  2
HAT
 70
     0
 62
   135
  6
Continuous
370
    -3
390
F
  0
LAYER
  5
74
330
2
100
AcDbSymbolTableRecord
100
AcDbLayerTableRecord
  2
JOB
 70
     0
 62
   201
  6
Continuous
370
    -3
390
F
  0
LAYER
  5
75
330
2
100
AcDbSymbolTableRecord
100
AcDbLayerTableRecord
  2
INSPECTION_REPORT
 70
     0
 62
   255
  6
Continuous
370
    -3
390
F
  0
ENDTAB
  0
TABLE
  2
STYLE
  5
3
330
0
100
AcDbSymbolTable
 70
     4
  0
STYLE
  5
11
330
3
100
AcDbSymbolTableRecord
100
AcDbTextStyleTableRecord
  2
Standard
 70
     0
 40
0.0
 41
1.0
 50
0.0
 71
     0
 42
4.8506944444
  3
txt
  4

  0
STYLE
  5
96
330
3
100
AcDbSymbolTableRecord
100
AcDbTextStyleTableRecord
  2
SLDTEXTSTYLE0
 70
     0
 40
0.0
 41
0.7
 50
0.0
 71
     0
 42
4.8506944444
  3
TXT
  4

  0
STYLE
  5
98
330
3
100
AcDbSymbolTableRecord
100
AcDbTextStyleTableRecord
  2
SLDTEXTSTYLE1
 70
     0
 40
0.0
 41
0.75
 50
0.0
 71
     0
 42
4.8506944444
  3
TXT
  4

  0
STYLE
  5
AB
330
3
100
AcDbSymbolTableRecord
100
AcDbTextStyleTableRecord
  2
SLDTEXTSTYLE2
 70
     0
 40
0.0
 41
0.6875
 50
0.0
 71
     0
 42
4.8506944444
  3
TXT
  4

  0
ENDTAB
  0
TABLE
  2
VIEW
  5
6
330
0
100
AcDbSymbolTable
 70
     0
  0
ENDTAB
  0
TABLE
  2
UCS
  5
7
330
0
100
AcDbSymbolTable
 70
     0
  0
ENDTAB
  0
TABLE
  2
APPID
  5
9
330
0
100
AcDbSymbolTable
 70
     1
  0
APPID
  5
12
330
9
100
AcDbSymbolTableRecord
100
AcDbRegAppTableRecord
  2
ACAD
 70
     0
  0
ENDTAB
  0
TABLE
  2
DIMSTYLE
  5
A
330
0
100
AcDbSymbolTable
 70
     3
100
AcDbDimStyleTable
  0
DIMSTYLE
105
27
330
A
100
AcDbSymbolTableRecord
100
AcDbDimStyleTableRecord
  2
ISO-25
 70
     0
 41
2.5
 42
0.625
 43
3.75
 44
1.25
 73
     0
 74
     0
 77
     1
 78
     8
140
2.5
141
2.5
143
0.0393700787
147
0.625
171
     3
172
     1
178
     0
271
     2
272
     2
274
     3
278
    44
283
     0
284
     8
340
11
  0
DIMSTYLE
105
193
102
{ACAD_REACTORS
330
192
330
1B3
102
}
330
A
100
AcDbSymbolTableRecord
100
AcDbDimStyleTableRecord
  2
SLDDIMSTYLE0
 70
     0
 41
4.1275
 44
0.0
 45
0.000000001
 73
     0
 74
     0
 77
     1
 78
     4
 79
     1
140
3.6380208333
147
0.9095052083
173
     1
178
     0
271
     2
272
     2
276
     2
284
    12
340
96
  0
DIMSTYLE
105
19E
102
{ACAD_REACTORS
330
19D
330
1A8
330
1BE
102
}
330
A
100
AcDbSymbolTableRecord
100
AcDbDimStyleTableRecord
  2
SLDDIMSTYLE1
 70
     0
 41
4.1275
 44
0.0
 45
0.000000001
 73
     0
 74
     0
 77
     1
 78
    12
 79
     3
140
3.6380208333
147
0.9095052083
173
     1
178
     0
271
     2
272
     2
276
     2
284
    12
340
96
  0
ENDTAB
  0
TABLE
  2
BLOCK_RECORD
  5
1
330
0
100
AcDbSymbolTable
 70
     7
  0
BLOCK_RECORD
  5
1F
330
1
100
AcDbSymbolTableRecord
100
AcDbBlockTableRecord
  2
*Model_Space
340
22
  0
BLOCK_RECORD
  5
1B
330
1
100
AcDbSymbolTableRecord
100
AcDbBlockTableRecord
  2
*Paper_Space
340
1E
  0
BLOCK_RECORD
  5
23
330
1
100
AcDbSymbolTableRecord
100
AcDbBlockTableRecord
  2
*Paper_Space0
340
26
  0
BLOCK_RECORD
  5
FD
330
1
100
AcDbSymbolTableRecord
100
AcDbBlockTableRecord
  2
SW_CENTERMARKSYMBOL_0
340
0
102
{BLKREFS
331
108
102
}
  0
BLOCK_RECORD
  5
194
330
1
100
AcDbSymbolTableRecord
100
AcDbBlockTableRecord
  2
_D
340
0
  0
BLOCK_RECORD
  5
19F
330
1
100
AcDbSymbolTableRecord
100
AcDbBlockTableRecord
  2
_D_1
340
0
  0
BLOCK_RECORD
  5
1A9
330
1
100
AcDbSymbolTableRecord
100
AcDbBlockTableRecord
  2
_D_2
340
0
  0
BLOCK_RECORD
  5
1B4
330
1
100
AcDbSymbolTableRecord
100
AcDbBlockTableRecord
  2
_D_3
340
0
  0
BLOCK_RECORD
  5
1BF
330
1
100
AcDbSymbolTableRecord
100
AcDbBlockTableRecord
  2
_D_4
340
0
  0
ENDTAB
  0
ENDSEC
  0
SECTION
  2
BLOCKS
  0
BLOCK
  5
20
330
1F
100
AcDbEntity
  8
0
100
AcDbBlockBegin
  2
*Model_Space
 70
     0
 10
0.0
 20
0.0
 30
0.0
  3
*Model_Space
  1
*Model_Space
  0
ENDBLK
  5
21
330
1F
100
AcDbEntity
  8
0
100
AcDbBlockEnd
  0
BLOCK
  5
1C
330
1B
100
AcDbEntity
 67
     1
  8
0
100
AcDbBlockBegin
  2
*Paper_Space
 70
     0
 10
0.0
 20
0.0
 30
0.0
  3
*Paper_Space
  1
*Paper_Space
  0
ENDBLK
  5
1D
330
1B
100
AcDbEntity
 67
     1
  8
0
100
AcDbBlockEnd
  0
BLOCK
  5
24
330
23
100
AcDbEntity
  8
0
100
AcDbBlockBegin
  2
*Paper_Space0
 70
     0
 10
0.0
 20
0.0
 30
0.0
  3
*Paper_Space0
  1
*Paper_Space0
  0
ENDBLK
  5
25
330
23
100
AcDbEntity
  8
0
100
AcDbBlockEnd
  0
BLOCK
  5
FE
330
FD
100
AcDbEntity
  8
0
100
AcDbBlockBegin
  2
SW_CENTERMARKSYMBOL_0
 70
     0
 10
0.0
 20
0.0
 30
0.0
  3
SW_CENTERMARKSYMBOL_0
  1
SW_CENTERMARKSYMBOL_0
  0
LINE
  5
100
330
FD
100
AcDbEntity
  8
DIM
 62
     0
100
AcDbLine
 10
0.0
 20
0.0
 30
0.0
 11
0.0
 21
2.5
 31
0.0
  0
LINE
  5
101
330
FD
100
AcDbEntity
  8
DIM
 62
     0
100
AcDbLine
 10
0.0
 20
0.0
 30
0.0
 11
-2.5
 21
0.0
 31
0.0
  0
LINE
  5
102
330
FD
100
AcDbEntity
  8
DIM
 62
     0
100
AcDbLine
 10
0.0
 20
0.0
 30
0.0
 11
0.0
 21
-2.5
 31
0.0
  0
LINE
  5
103
330
FD
100
AcDbEntity
  8
DIM
 62
     0
100
AcDbLine
 10
0.0
 20
0.0
 30
0.0
 11
2.5
 21
0.0
 31
0.0
  0
LINE
  5
104
330
FD
100
AcDbEntity
  8
DIM
 62
     0
100
AcDbLine
 10
0.0
 20
5.0
 30
0.0
 11
0.0
 21
24.725
 31
0.0
  0
LINE
  5
105
330
FD
100
AcDbEntity
  8
DIM
 62
     0
100
AcDbLine
 10
-5.0
 20
0.0
 30
0.0
 11
-24.725
 21
0.0
 31
0.0
  0
LINE
  5
106
330
FD
100
AcDbEntity
  8
DIM
 62
     0
100
AcDbLine
 10
0.0
 20
-5.0
 30
0.0
 11
0.0
 21
-24.725
 31
0.0
  0
LINE
  5
107
330
FD
100
AcDbEntity
  8
DIM
 62
     0
100
AcDbLine
 10
5.0
 20
0.0
 30
0.0
 11
24.725
 21
0.0
 31
0.0
  0
ENDBLK
  5
FF
330
FD
100
AcDbEntity
  8
0
100
AcDbBlockEnd
  0
BLOCK
  5
195
330
194
100
AcDbEntity
  8
0
100
AcDbBlockBegin
  2
_D
 70
     0
 10
0.0
 20
0.0
 30
0.0
  3
_D
  1
_D
  0
SOLID
  5
197
330
194
100
AcDbEntity
  8
DIM
100
AcDbTrace
 10
142.8302023841
 20
87.2736115666
 30
0.0
 11
146.9577023841
 21
86.6386115666
 31
0.0
 12
146.9577023841
 22
87.9086115666
 32
0.0
 13
146.9577023841
 23
87.9086115666
 33
0.0
  0
SOLID
  5
198
330
194
100
AcDbEntity
  8
DIM
100
AcDbTrace
 10
311.2302023841
 20
87.2736115666
 30
0.0
 11
307.1027023841
 21
87.9086115666
 31
0.0
 12
307.1027023841
 22
86.6386115666
 32
0.0
 13
307.1027023841
 23
86.6386115666
 33
0.0
  0
LINE
  5
199
330
194
100
AcDbEntity
  8
DIM
100
AcDbLine
 10
142.8302023841
 20
135.1988542151
 30
0.0
 11
142.8302023841
 21
86.0236115666
 31
0.0
  0
LINE
  5
19A
330
194
100
AcDbEntity
  8
DIM
100
AcDbLine
 10
311.2302023841
 20
122.6988542151
 30
0.0
 11
311.2302023841
 21
86.0236115666
 31
0.0
  0
LINE
  5
19B
330
194
100
AcDbEntity
  8
DIM
100
AcDbLine
 10
142.8302023841
 20
87.2736115666
 30
0.0
 11
311.2302023841
 21
87.2736115666
 31
0.0
  0
MTEXT
  5
19C
330
194
100
AcDbEntity
  8
DIM
100
AcDbMText
 10
220.2358613591
 20
91.9632671505
 30
0.0
 40
3.6380208333
 41
0.0
 71
     1
 72
     1
  1
168.40
  7
SLDTEXTSTYLE0
 73
     1
 44
1.0
  0
ENDBLK
  5
196
330
194
100
AcDbEntity
  8
0
100
AcDbBlockEnd
  0
BLOCK
  5
1A0
330
19F
100
AcDbEntity
  8
0
100
AcDbBlockBegin
  2
_D_1
 70
     0
 10
0.0
 20
0.0
 30
0.0
  3
_D_1
  1
_D_1
  0
SOLID
  5
1A2
330
19F
100
AcDbEntity
  8
DIM
100
AcDbTrace
 10
211.2302023841
 20
96.2567936668
 30
0.0
 11
215.3577023841
 21
95.6217936668
 31
0.0
 12
215.3577023841
 22
96.8917936668
 32
0.0
 13
215.3577023841
 23
96.8917936668
 33
0.0
  0
SOLID
  5
1A3
330
19F
100
AcDbEntity
  8
DIM
100
AcDbTrace
 10
311.2302023841
 20
96.2567936668
 30
0.0
 11
307.1027023841
 21
96.8917936668
 31
0.0
 12
307.1027023841
 22
95.6217936668
 32
0.0
 13
307.1027023841
 23
95.6217936668
 33
0.0
  0
LINE
  5
1A4
330
19F
100
AcDbEntity
  8
DIM
100
AcDbLine
 10
211.2302023841
 20
112.9738542151
 30
0.0
 11
211.2302023841
 21
95.0067936668
 31
0.0
  0
LINE
  5
1A5
330
19F
100
AcDbEntity
  8
DIM
100
AcDbLine
 10
311.2302023841
 20
122.6988542151
 30
0.0
 11
311.2302023841
 21
95.0067936668
 31
0.0
  0
LINE
  5
1A6
330
19F
100
AcDbEntity
  8
DIM
100
AcDbLine
 10
211.2302023841
 20
96.2567936668
 30
0.0
 11
311.2302023841
 21
96.2567936668
 31
0.0
  0
MTEXT
  5
1A7
330
19F
100
AcDbEntity
  8
DIM
100
AcDbMText
 10
257.5416533432
 20
100.9464492507
 30
0.0
 40
3.6380208333
 41
0.0
 71
     1
 72
     1
  1
100
  7
SLDTEXTSTYLE0
 73
     1
 44
1.0
  0
ENDBLK
  5
1A1
330
19F
100
AcDbEntity
  8
0
100
AcDbBlockEnd
  0
BLOCK
  5
1AA
330
1A9
100
AcDbEntity
  8
0
100
AcDbBlockBegin
  2
_D_2
 70
     0
 10
0.0
 20
0.0
 30
0.0
  3
_D_2
  1
_D_2
  0
SOLID
  5
1AC
330
1A9
100
AcDbEntity
  8
DIM
100
AcDbTrace
 10
327.171628935
 20
152.4488542151
 30
0.0
 11
326.536628935
 21
148.3213542151
 31
0.0
 12
327.806628935
 22
148.3213542151
 32
0.0
 13
327.806628935
 23
148.3213542151
 33
0.0
  0
SOLID
  5
1AD
330
1A9
100
AcDbEntity
  8
DIM
100
AcDbTrace
 10
327.171628935
 20
120.4488542151
 30
0.0
 11
327.806628935
 21
124.5763542151
 31
0.0
 12
326.536628935
 22
124.5763542151
 32
0.0
 13
326.536628935
 23
124.5763542151
 33
0.0
  0
LINE
  5
1AE
330
1A9
100
AcDbEntity
  8
DIM
100
AcDbLine
 10
310.4594764421
 20
152.4488542151
 30
0.0
 11
328.421628935
 21
152.4488542151
 31
0.0
  0
LINE
  5
1AF
330
1A9
100
AcDbEntity
  8
DIM
100
AcDbLine
 10
310.4594764421
 20
120.4488542151
 30
0.0
 11
328.421628935
 21
120.4488542151
 31
0.0
  0
LINE
  5
1B0
330
1A9
100
AcDbEntity
  8
DIM
100
AcDbLine
 10
327.171628935
 20
152.4488542151
 30
0.0
 11
327.171628935
 21
120.4488542151
 31
0.0
  0
MTEXT
  5
1B1
330
1A9
100
AcDbEntity
  8
DIM
100
AcDbMText
 10
322.4819733511
 20
131.176924084
 30
0.0
 40
3.6380208333
 41
0.0
 71
     1
 72
     1
  1
%%c
  7
SLDTEXTSTYLE0
 11
-7.044195017643634E-15
 21
1.0
 31
0.0
 73
     1
 44
1.0
  0
MTEXT
  5
1B2
330
1A9
100
AcDbEntity
  8
DIM
100
AcDbMText
 10
322.4819733511
 20
136.8027189585
 30
0.0
 40
3.6380208333
 41
0.0
 71
     1
 72
     1
  1
32
  7
SLDTEXTSTYLE0
 11
-7.044195017643634E-15
 21
1.0
 31
0.0
 73
     1
 44
1.0
  0
ENDBLK
  5
1AB
330
1A9
100
AcDbEntity
  8
0
100
AcDbBlockEnd
  0
BLOCK
  5
1B5
330
1B4
100
AcDbEntity
  8
0
100
AcDbBlockBegin
  2
_D_3
 70
     0
 10
0.0
 20
0.0
 30
0.0
  3
_D_3
  1
_D_3
  0
SOLID
  5
1B7
330
1B4
100
AcDbEntity
  8
DIM
100
AcDbTrace
 10
134.5405551772
 20
168.1988542151
 30
0.0
 11
133.9055551772
 21
164.0713542151
 31
0.0
 12
135.1755551772
 22
164.0713542151
 32
0.0
 13
135.1755551772
 23
164.0713542151
 33
0.0
  0
SOLID
  5
1B8
330
1B4
100
AcDbEntity
  8
DIM
100
AcDbTrace
 10
134.5405551772
 20
104.6988542151
 30
0.0
 11
135.1755551772
 21
108.8263542151
 31
0.0
 12
133.9055551772
 22
108.8263542151
 32
0.0
 13
133.9055551772
 23
108.8263542151
 33
0.0
  0
LINE
  5
1B9
330
1B4
100
AcDbEntity
  8
DIM
100
AcDbLine
 10
214.3458878091
 20
168.1988542151
 30
0.0
 11
133.2905551772
 21
168.1988542151
 31
0.0
  0
LINE
  5
1BA
330
1B4
100
AcDbEntity
  8
DIM
100
AcDbLine
 10
214.3458878091
 20
104.6988542151
 30
0.0
 11
133.2905551772
 21
104.6988542151
 31
0.0
  0
LINE
  5
1BB
330
1B4
100
AcDbEntity
  8
DIM
100
AcDbLine
 10
134.5405551772
 20
168.1988542151
 30
0.0
 11
134.5405551772
 21
104.6988542151
 31
0.0
  0
MTEXT
  5
1BC
330
1B4
100
AcDbEntity
  8
DIM
100
AcDbMText
 10
129.8508995933
 20
128.0711320998
 30
0.0
 40
3.6380208333
 41
0.0
 71
     1
 72
     1
  1
%%c
  7
SLDTEXTSTYLE0
 11
-7.044195017643634E-15
 21
1.0
 31
0.0
 73
     1
 44
1.0
  0
MTEXT
  5
1BD
330
1B4
100
AcDbEntity
  8
DIM
100
AcDbMText
 10
129.8508995933
 20
133.6969269743
 30
0.0
 40
3.6380208333
 41
0.0
 71
     1
 72
     1
  1
63.50
  7
SLDTEXTSTYLE0
 11
-7.044195017643634E-15
 21
1.0
 31
0.0
 73
     1
 44
1.0
  0
ENDBLK
  5
1B6
330
1B4
100
AcDbEntity
  8
0
100
AcDbBlockEnd
  0
BLOCK
  5
1C0
330
1BF
100
AcDbEntity
  8
0
100
AcDbBlockBegin
  2
_D_4
 70
     0
 10
0.0
 20
0.0
 30
0.0
  3
_D_4
  1
_D_4
  0
SOLID
  5
1C2
330
1BF
100
AcDbEntity
  8
DIM
100
AcDbTrace
 10
320.9113380463
 20
150.4488542151
 30
0.0
 11
320.2763380463
 21
146.3213542151
 31
0.0
 12
321.5463380463
 22
146.3213542151
 32
0.0
 13
321.5463380463
 23
146.3213542151
 33
0.0
  0
SOLID
  5
1C3
330
1BF
100
AcDbEntity
  8
DIM
100
AcDbTrace
 10
320.9113380463
 20
122.4488542151
 30
0.0
 11
321.5463380463
 21
126.5763542151
 31
0.0
 12
320.2763380463
 22
126.5763542151
 32
0.0
 13
320.2763380463
 23
126.5763542151
 33
0.0
  0
LINE
  5
1C4
330
1BF
100
AcDbEntity
  8
DIM
100
AcDbLine
 10
278.0602023841
 20
150.4488542151
 30
0.0
 11
322.1613380463
 21
150.4488542151
 31
0.0
  0
LINE
  5
1C5
330
1BF
100
AcDbEntity
  8
DIM
100
AcDbLine
 10
278.0602023841
 20
122.4488542151
 30
0.0
 11
322.1613380463
 21
122.4488542151
 31
0.0
  0
LINE
  5
1C6
330
1BF
100
AcDbEntity
  8
DIM
100
AcDbLine
 10
320.9113380463
 20
150.4488542151
 30
0.0
 11
320.9113380463
 21
122.4488542151
 31
0.0
  0
MTEXT
  5
1C7
330
1BF
100
AcDbEntity
  8
DIM
100
AcDbMText
 10
316.2216824624
 20
131.176924084
 30
0.0
 40
3.6380208333
 41
0.0
 71
     1
 72
     1
  1
%%c
  7
SLDTEXTSTYLE0
 11
-7.044195017643634E-15
 21
1.0
 31
0.0
 73
     1
 44
1.0
  0
MTEXT
  5
1C8
330
1BF
100
AcDbEntity
  8
DIM
100
AcDbMText
 10
316.2216824624
 20
136.8027189585
 30
0.0
 40
3.6380208333
 41
0.0
 71
     1
 72
     1
  1
28
  7
SLDTEXTSTYLE0
 11
-7.044195017643634E-15
 21
1.0
 31
0.0
 73
     1
 44
1.0
  0
ENDBLK
  5
1C1
330
1BF
100
AcDbEntity
  8
0
100
AcDbBlockEnd
  0
ENDSEC
  0
SECTION
  2
ENTITIES
  0
LINE
  5
76
330
1F
100
AcDbEntity
  8
DIM
100
AcDbLine
 10
130.8805308612
 20
12.2387393211
 30
0.0
 11
130.8805308612
 21
5.9887393211
 31
0.0
  0
LINE
  5
77
330
1F
100
AcDbEntity
  8
DIM
100
AcDbLine
 10
318.0870021191
 20
12.2387393211
 30
0.0
 11
318.0870021191
 21
5.9887393211
 31
0.0
  0
LINE
  5
78
330
1F
100
AcDbEntity
  8
DIM
100
AcDbLine
 10
296.8146374145
 20
12.2387393211
 30
0.0
 11
296.8146374145
 21
5.9887393211
 31
0.0
  0
LINE
  5
79
330
1F
100
AcDbEntity
  8
DIM
100
AcDbLine
 10
348.6305308612
 20
5.9887393211
 30
0.0
 11
348.6305308612
 21
12.2387393211
 31
0.0
  0
LINE
  5
7A
330
1F
100
AcDbEntity
  8
DIM
100
AcDbLine
 10
140.6305308612
 20
12.2387393211
 30
0.0
 11
140.6305308612
 21
5.9887393211
 31
0.0
  0
LINE
  5
7B
330
1F
100
AcDbEntity
  8
DIM
100
AcDbLine
 10
164.6192214035
 20
12.2387393211
 30
0.0
 11
164.6192214035
 21
5.9887393211
 31
0.0
  0
LINE
  5
7C
330
1F
100
AcDbEntity
  8
DIM
100
AcDbLine
 10
364.8805308612
 20
5.9887393211
 30
0.0
 11
364.8805308612
 21
96.3012393211
 31
0.0
  0
LINE
  5
7D
330
1F
100
AcDbEntity
  8
DIM
100
AcDbLine
 10
357.2737558684
 20
75.0512393211
 30
0.0
 11
364.8805308612
 21
75.0512393211
 31
0.0
  0
LINE
  5
7E
330
1F
100
AcDbEntity
  8
DIM
100
AcDbLine
 10
186.3791885657
 20
11.3012393211
 30
0.0
 11
186.3791885657
 21
5.9887393211
 31
0.0
  0
LINE
  5
7F
330
1F
100
AcDbEntity
  8
DIM
100
AcDbLine
 10
245.9549364505
 20
12.2387393211
 30
0.0
 11
245.9549364505
 21
5.9887393211
 31
0.0
  0
LINE
  5
80
330
1F
100
AcDbEntity
  8
DIM
100
AcDbLine
 10
186.3791885657
 20
12.2387393211
 30
0.0
 11
186.3791885657
 21
11.3012393211
 31
0.0
  0
LINE
  5
81
330
1F
100
AcDbEntity
  8
DIM
100
AcDbLine
 10
358.6305308612
 20
21.9261493211
 30
0.0
 11
364.8805308612
 21
21.9261493211
 31
0.0
  0
LINE
  5
82
330
1F
100
AcDbEntity
  8
DIM
100
AcDbLine
 10
358.6305308612
 20
249.7387393211
 30
0.0
 11
12.3805308612
 21
249.7387393211
 31
0.0
  0
LINE
  5
83
330
1F
100
AcDbEntity
  8
DIM
100
AcDbLine
 10
364.8805308612
 20
255.9887393211
 30
0.0
 11
6.1305308612
 21
255.9887393211
 31
0.0
  0
LINE
  5
84
330
1F
100
AcDbEntity
  8
DIM
100
AcDbLine
 10
12.3805308612
 20
249.7387393211
 30
0.0
 11
12.3805308612
 21
12.2387393211
 31
0.0
  0
LINE
  5
85
330
1F
100
AcDbEntity
  8
DIM
100
AcDbLine
 10
6.1305308612
 20
255.9887393211
 30
0.0
 11
6.1305308612
 21
5.9887393211
 31
0.0
  0
LINE
  5
86
330
1F
100
AcDbEntity
  8
DIM
100
AcDbLine
 10
12.3805308612
 20
68.4887393211
 30
0.0
 11
6.1305308612
 21
68.4887393211
 31
0.0
  0
LINE
  5
87
330
1F
100
AcDbEntity
  8
DIM
100
AcDbLine
 10
6.1305308612
 20
130.9887393211
 30
0.0
 11
12.3805308612
 21
130.9887393211
 31
0.0
  0
LINE
  5
88
330
1F
100
AcDbEntity
  8
DIM
100
AcDbLine
 10
6.1305308612
 20
5.9887393211
 30
0.0
 11
364.8805308612
 21
5.9887393211
 31
0.0
  0
LINE
  5
89
330
1F
100
AcDbEntity
  8
DIM
100
AcDbLine
 10
12.3805308612
 20
12.2387393211
 30
0.0
 11
364.8805308612
 21
12.2387393211
 31
0.0
  0
LINE
  5
8A
330
1F
100
AcDbEntity
  8
DIM
100
AcDbLine
 10
60.5055308612
 20
5.9887393211
 30
0.0
 11
60.5055308612
 21
12.2387393211
 31
0.0
  0
LINE
  5
8B
330
1F
100
AcDbEntity
  8
DIM
100
AcDbLine
 10
123.0055308612
 20
12.2387393211
 30
0.0
 11
123.0055308612
 21
5.9887393211
 31
0.0
  0
LINE
  5
8C
330
1F
100
AcDbEntity
  8
DIM
100
AcDbLine
 10
12.3805308612
 20
193.4887393211
 30
0.0
 11
6.1305308612
 21
193.4887393211
 31
0.0
  0
LINE
  5
8D
330
1F
100
AcDbEntity
  8
DIM
100
AcDbLine
 10
60.5055308612
 20
249.7387393211
 30
0.0
 11
60.5055308612
 21
255.9887393211
 31
0.0
  0
LINE
  5
8E
330
1F
100
AcDbEntity
  8
DIM
100
AcDbLine
 10
123.0055308612
 20
255.9887393211
 30
0.0
 11
123.0055308612
 21
249.7387393211
 31
0.0
  0
LINE
  5
8F
330
1F
100
AcDbEntity
  8
DIM
100
AcDbLine
 10
185.5055308612
 20
255.9887393211
 30
0.0
 11
185.5055308612
 21
249.7387393211
 31
0.0
  0
LINE
  5
90
330
1F
100
AcDbEntity
  8
DIM
100
AcDbLine
 10
358.6305308612
 20
12.2387393211
 30
0.0
 11
358.6305308612
 21
249.7387393211
 31
0.0
  0
LINE
  5
91
330
1F
100
AcDbEntity
  8
DIM
100
AcDbLine
 10
364.8805308612
 20
96.3012393211
 30
0.0
 11
364.8805308612
 21
255.9887393211
 31
0.0
  0
LINE
  5
92
330
1F
100
AcDbEntity
  8
DIM
100
AcDbLine
 10
364.8805308612
 20
130.9887393211
 30
0.0
 11
358.6305308612
 21
130.9887393211
 31
0.0
  0
LINE
  5
93
330
1F
100
AcDbEntity
  8
DIM
100
AcDbLine
 10
248.0055308612
 20
255.9887393211
 30
0.0
 11
248.0055308612
 21
249.7387393211
 31
0.0
  0
LINE
  5
94
330
1F
100
AcDbEntity
  8
DIM
100
AcDbLine
 10
310.5055308612
 20
249.7387393211
 30
0.0
 11
310.5055308612
 21
255.9887393211
 31
0.0
  0
LINE
  5
95
330
1F
100
AcDbEntity
  8
DIM
100
AcDbLine
 10
358.6305308612
 20
193.4887393211
 30
0.0
 11
364.8805308612
 21
193.4887393211
 31
0.0
  0
MTEXT
  5
97
330
1F
100
AcDbEntity
  8
DIM
100
AcDbMText
 10
16.5759429274
 20
242.6535727172
 30
0.0
 40
5.2916666667
 41
0.0
 71
     1
 72
     1
  1
SK 40 ER 16 100 AD+B/6.3G15000 SL
  7
SLDTEXTSTYLE0
 73
     1
 44
1.0
  0
MTEXT
  5
99
330
1F
100
AcDbEntity
  8
DIM
 62
     7
100
AcDbMText
 10
247.1659733083
 20
9.7524394079
 30
0.0
 40
1.87325
 41
0.0
 71
     1
 72
     1
  1
WEIGHT:
  7
SLDTEXTSTYLE1
 73
     1
 44
1.0
  0
MTEXT
  5
9A
330
1F
100
AcDbEntity
  8
DIM
 62
     7
100
AcDbMText
 10
360.7463459435
 20
102.4257668853
 30
0.0
 40
2.3151041667
 41
0.0
 71
     1
 72
     1
  1
C
  7
SLDTEXTSTYLE1
 73
     1
 44
1.0
  0
MTEXT
  5
9B
330
1F
100
AcDbEntity
  8
DIM
 62
     7
100
AcDbMText
 10
353.8044757743
 20
18.5674774795
 30
0.0
 40
3.6380208333
 41
0.0
 71
     1
 72
     1
  1
A4
  7
SLDTEXTSTYLE1
 73
     1
 44
1.0
  0
MTEXT
  5
9C
330
1F
100
AcDbEntity
  8
DIM
 62
     7
100
AcDbMText
 10
340.7138691946
 20
254.3237598255
 30
0.0
 40
2.3151041667
 41
0.0
 71
     1
 72
     1
  1
6
  7
SLDTEXTSTYLE1
 73
     1
 44
1.0
  0
MTEXT
  5
9D
330
1F
100
AcDbEntity
  8
DIM
 62
     7
100
AcDbMText
 10
278.2138691946
 20
254.3237598255
 30
0.0
 40
2.3151041667
 41
0.0
 71
     1
 72
     1
  1
5
  7
SLDTEXTSTYLE1
 73
     1
 44
1.0
  0
MTEXT
  5
9E
330
1F
100
AcDbEntity
  8
DIM
 62
     7
100
AcDbMText
 10
360.7138741946
 20
226.1987598255
 30
0.0
 40
2.3151041667
 41
0.0
 71
     1
 72
     1
  1
A
  7
SLDTEXTSTYLE1
 73
     1
 44
1.0
  0
MTEXT
  5
9F
330
1F
100
AcDbEntity
  8
DIM
 62
     7
100
AcDbMText
 10
360.7138741946
 20
163.6987598255
 30
0.0
 40
2.3151041667
 41
0.0
 71
     1
 72
     1
  1
B
  7
SLDTEXTSTYLE1
 73
     1
 44
1.0
  0
MTEXT
  5
A0
330
1F
100
AcDbEntity
  8
DIM
 62
     7
100
AcDbMText
 10
215.7138691946
 20
254.3237598255
 30
0.0
 40
2.3151041667
 41
0.0
 71
     1
 72
     1
  1
4
  7
SLDTEXTSTYLE1
 73
     1
 44
1.0
  0
MTEXT
  5
A1
330
1F
100
AcDbEntity
  8
DIM
 62
     7
100
AcDbMText
 10
28.7347025279
 20
254.3237598255
 30
0.0
 40
2.3151041667
 41
0.0
 71
     1
 72
     1
  1
1
  7
SLDTEXTSTYLE1
 73
     1
 44
1.0
  0
MTEXT
  5
A2
330
1F
100
AcDbEntity
  8
DIM
 62
     7
100
AcDbMText
 10
90.7138691946
 20
254.3237598255
 30
0.0
 40
2.3151041667
 41
0.0
 71
     1
 72
     1
  1
2
  7
SLDTEXTSTYLE1
 73
     1
 44
1.0
  0
MTEXT
  5
A3
330
1F
100
AcDbEntity
  8
DIM
 62
     7
100
AcDbMText
 10
153.2138691946
 20
254.3237598255
 30
0.0
 40
2.3151041667
 41
0.0
 71
     1
 72
     1
  1
3
  7
SLDTEXTSTYLE1
 73
     1
 44
1.0
  0
MTEXT
  5
A4
330
1F
100
AcDbEntity
  8
DIM
 62
     7
100
AcDbMText
 10
8.2138641946
 20
226.1987598255
 30
0.0
 40
2.3151041667
 41
0.0
 71
     1
 72
     1
  1
A
  7
SLDTEXTSTYLE1
 73
     1
 44
1.0
  0
MTEXT
  5
A5
330
1F
100
AcDbEntity
  8
DIM
 62
     7
100
AcDbMText
 10
90.7138691946
 20
10.5737598255
 30
0.0
 40
2.3151041667
 41
0.0
 71
     1
 72
     1
  1
2
  7
SLDTEXTSTYLE1
 73
     1
 44
1.0
  0
MTEXT
  5
A6
330
1F
100
AcDbEntity
  8
DIM
 62
     7
100
AcDbMText
 10
28.7347025279
 20
10.5737598255
 30
0.0
 40
2.3151041667
 41
0.0
 71
     1
 72
     1
  1
1
  7
SLDTEXTSTYLE1
 73
     1
 44
1.0
  0
MTEXT
  5
A7
330
1F
100
AcDbEntity
  8
DIM
 62
     7
100
AcDbMText
 10
8.2138641946
 20
38.6987598255
 30
0.0
 40
2.3151041667
 41
0.0
 71
     1
 72
     1
  1
D
  7
SLDTEXTSTYLE1
 73
     1
 44
1.0
  0
MTEXT
  5
A8
330
1F
100
AcDbEntity
  8
DIM
 62
     7
100
AcDbMText
 10
8.2138641946
 20
101.1987598255
 30
0.0
 40
2.3151041667
 41
0.0
 71
     1
 72
     1
  1
C
  7
SLDTEXTSTYLE1
 73
     1
 44
1.0
  0
MTEXT
  5
A9
330
1F
100
AcDbEntity
  8
DIM
 62
     7
100
AcDbMText
 10
8.2138641946
 20
163.6987598255
 30
0.0
 40
2.3151041667
 41
0.0
 71
     1
 72
     1
  1
B
  7
SLDTEXTSTYLE1
 73
     1
 44
1.0
  0
MTEXT
  5
AA
330
1F
100
AcDbEntity
  8
DIM
 62
     7
100
AcDbMText
 10
360.7463459435
 20
102.4257668853
 30
0.0
 40
2.3151041667
 41
0.0
 71
     1
 72
     1
  1
C
  7
SLDTEXTSTYLE1
 73
     1
 44
1.0
  0
MTEXT
  5
AC
330
1F
100
AcDbEntity
  8
DIM
 62
     7
100
AcDbMText
 10
320.6567072656
 20
9.6138484142
 30
0.0
 40
1.875
 41
0.0
 71
     1
 72
     1
  1
SHEET 1 OF 1
  7
SLDTEXTSTYLE2
 73
     1
 44
1.0
  0
MTEXT
  5
AD
330
1F
100
AcDbEntity
  8
DIM
 62
     7
100
AcDbMText
 10
187.9647254793
 20
9.8167093546
 30
0.0
 40
1.875
 41
0.0
 71
     1
 72
     1
  1
MATERIAL:
  7
SLDTEXTSTYLE1
 73
     1
 44
1.0
  0
MTEXT
  5
AE
330
1F
100
AcDbEntity
  8
DIM
 62
     7
100
AcDbMText
 10
340.7138691946
 20
254.3237598255
 30
0.0
 40
2.3151041667
 41
0.0
 71
     1
 72
     1
  1
6
  7
SLDTEXTSTYLE1
 73
     1
 44
1.0
  0
MTEXT
  5
AF
330
1F
100
AcDbEntity
  8
DIM
 62
     7
100
AcDbMText
 10
278.2138691946
 20
254.3237598255
 30
0.0
 40
2.3151041667
 41
0.0
 71
     1
 72
     1
  1
5
  7
SLDTEXTSTYLE1
 73
     1
 44
1.0
  0
MTEXT
  5
B0
330
1F
100
AcDbEntity
  8
DIM
 62
     7
100
AcDbMText
 10
360.7138741946
 20
226.1987598255
 30
0.0
 40
2.3151041667
 41
0.0
 71
     1
 72
     1
  1
A
  7
SLDTEXTSTYLE1
 73
     1
 44
1.0
  0
MTEXT
  5
B1
330
1F
100
AcDbEntity
  8
DIM
 62
     7
100
AcDbMText
 10
360.7138741946
 20
163.6987598255
 30
0.0
 40
2.3151041667
 41
0.0
 71
     1
 72
     1
  1
B
  7
SLDTEXTSTYLE1
 73
     1
 44
1.0
  0
MTEXT
  5
B2
330
1F
100
AcDbEntity
  8
DIM
 62
     7
100
AcDbMText
 10
215.7138691946
 20
254.3237598255
 30
0.0
 40
2.3151041667
 41
0.0
 71
     1
 72
     1
  1
4
  7
SLDTEXTSTYLE1
 73
     1
 44
1.0
  0
MTEXT
  5
B3
330
1F
100
AcDbEntity
  8
DIM
 62
     7
100
AcDbMText
 10
28.7347025279
 20
254.3237598255
 30
0.0
 40
2.3151041667
 41
0.0
 71
     1
 72
     1
  1
1
  7
SLDTEXTSTYLE1
 73
     1
 44
1.0
  0
MTEXT
  5
B4
330
1F
100
AcDbEntity
  8
DIM
 62
     7
100
AcDbMText
 10
90.7138691946
 20
254.3237598255
 30
0.0
 40
2.3151041667
 41
0.0
 71
     1
 72
     1
  1
2
  7
SLDTEXTSTYLE1
 73
     1
 44
1.0
  0
MTEXT
  5
B5
330
1F
100
AcDbEntity
  8
DIM
 62
     7
100
AcDbMText
 10
153.2138691946
 20
254.3237598255
 30
0.0
 40
2.3151041667
 41
0.0
 71
     1
 72
     1
  1
3
  7
SLDTEXTSTYLE1
 73
     1
 44
1.0
  0
MTEXT
  5
B6
330
1F
100
AcDbEntity
  8
DIM
 62
     7
100
AcDbMText
 10
8.2138641946
 20
226.1987598255
 30
0.0
 40
2.3151041667
 41
0.0
 71
     1
 72
     1
  1
A
  7
SLDTEXTSTYLE1
 73
     1
 44
1.0
  0
MTEXT
  5
B7
330
1F
100
AcDbEntity
  8
DIM
 62
     7
100
AcDbMText
 10
90.7138691946
 20
10.5737598255
 30
0.0
 40
2.3151041667
 41
0.0
 71
     1
 72
     1
  1
2
  7
SLDTEXTSTYLE1
 73
     1
 44
1.0
  0
MTEXT
  5
B8
330
1F
100
AcDbEntity
  8
DIM
 62
     7
100
AcDbMText
 10
28.7347025279
 20
10.5737598255
 30
0.0
 40
2.3151041667
 41
0.0
 71
     1
 72
     1
  1
1
  7
SLDTEXTSTYLE1
 73
     1
 44
1.0
  0
MTEXT
  5
B9
330
1F
100
AcDbEntity
  8
DIM
 62
     7
100
AcDbMText
 10
8.2138641946
 20
38.6987598255
 30
0.0
 40
2.3151041667
 41
0.0
 71
     1
 72
     1
  1
D
  7
SLDTEXTSTYLE1
 73
     1
 44
1.0
  0
MTEXT
  5
BA
330
1F
100
AcDbEntity
  8
DIM
 62
     7
100
AcDbMText
 10
8.2138641946
 20
101.1987598255
 30
0.0
 40
2.3151041667
 41
0.0
 71
     1
 72
     1
  1
C
  7
SLDTEXTSTYLE1
 73
     1
 44
1.0
  0
MTEXT
  5
BB
330
1F
100
AcDbEntity
  8
DIM
 62
     7
100
AcDbMText
 10
8.2138641946
 20
163.6987598255
 30
0.0
 40
2.3151041667
 41
0.0
 71
     1
 72
     1
  1
B
  7
SLDTEXTSTYLE1
 73
     1
 44
1.0
  0
SPLINE
  5
BC
330
1F
100
AcDbEntity
  8
0
  6
Continuous
 62
     7
370
    15
100
AcDbSpline
210
0.0
220
0.0
230
1.0
 70
     8
 71
     3
 72
    38
 73
    34
 74
     0
 42
0.000000001
 43
0.00000001
 40
0.0
 40
0.0
 40
0.0
 40
0.0
 40
0.0624999999999999
 40
0.0624999999999999
 40
0.1249999999999999
 40
0.1249999999999999
 40
0.1874999999999999
 40
0.1874999999999999
 40
0.2499999999999999
 40
0.2499999999999999
 40
0.3124999999999999
 40
0.3124999999999999
 40
0.3749999999999999
 40
0.3749999999999999
 40
0.4374999999999999
 40
0.4374999999999999
 40
0.4999999999999999
 40
0.4999999999999999
 40
0.5624999999999999
 40
0.5624999999999999
 40
0.6249999999999999
 40
0.6249999999999999
 40
0.6874999999999999
 40
0.6874999999999999
 40
0.7499999999999999
 40
0.7499999999999999
 40
0.8125
 40
0.8125
 40
0.875
 40
0.875
 40
0.9375
 40
0.9375
 40
1.0
 40
1.0
 40
1.0
 40
1.0
 10
81.81827836237747
 20
136.4488542150812
 30
0.0
 10
81.81827836237747
 20
135.9744724405187
 30
0.0
 10
81.78885472971734
 20
135.470146918576
 30
0.0
 10
81.64619469257742
 20
134.404951974551
 30
0.0
 10
81.5328902868132
 20
133.8439290146036
 30
0.0
 10
81.19285343082174
 20
132.6780883654388
 30
0.0
 10
80.9659363076777
 20
132.0731150436843
 30
0.0
 10
80.3680032642458
 20
130.8465857237702
 30
0.0
 10
79.99665234813747
 20
130.2249653328212
 30
0.0
 10
79.08583934101748
 20
129.0105479899412
 30
0.0
 10
78.54594320903695
 20
128.4179241768131
 30
0.0
 10
77.29255694790979
 20
127.3240598034178
 30
0.0
 10
76.5787398698619
 20
126.8233361319169
 30
0.0
 10
75.00293881948129
 20
125.9829089050103
 30
0.0
 10
74.14104091478907
 20
125.6439531666319
 30
0.0
 10
72.33019375270433
 20
125.1840554746536
 30
0.0
 10
71.3818793224608
 20
125.0636916255812
 30
0.0
 10
69.48435222429414
 20
125.0636916255812
 30
0.0
 10
68.5360377940506
 20
125.1840554746536
 30
0.0
 10
66.72519063196587
 20
125.6439531666319
 30
0.0
 10
65.86329272727366
 20
125.9829089050103
 30
0.0
 10
64.28749167689304
 20
126.8233361319169
 30
0.0
 10
63.57367459884516
 20
127.3240598034178
 30
0.0
 10
62.320288337718
 20
128.4179241768131
 30
0.0
 10
61.78039220573746
 20
129.0105479899412
 30
0.0
 10
60.86957919861747
 20
130.2249653328212
 30
0.0
 10
60.49822828250915
 20
130.8465857237702
 30
0.0
 10
59.90029523907725
 20
132.0731150436843
 30
0.0
 10
59.6733781159332
 20
132.6780883654388
 30
0.0
 10
59.33334125994173
 20
133.8439290146036
 30
0.0
 10
59.22003685417752
 20
134.404951974551
 30
0.0
 10
59.07737681703758
 20
135.470146918576
 30
0.0
 10
59.04795318437747
 20
135.9744724405187
 30
0.0
 10
59.04795318437747
 20
136.4488542150812
 30
0.0
  0
SPLINE
  5
BD
330
1F
100
AcDbEntity
  8
0
  6
Continuous
 62
     7
370
    15
100
AcDbSpline
210
0.0
220
0.0
230
1.0
 70
     8
 71
     3
 72
    38
 73
    34
 74
     0
 42
0.000000001
 43
0.00000001
 40
0.0
 40
0.0
 40
0.0
 40
0.0
 40
0.0625
 40
0.0625
 40
0.125
 40
0.125
 40
0.1874999999999999
 40
0.1874999999999999
 40
0.2499999999999999
 40
0.2499999999999999
 40
0.3124999999999999
 40
0.3124999999999999
 40
0.3749999999999999
 40
0.3749999999999999
 40
0.4374999999999999
 40
0.4374999999999999
 40
0.5
 40
0.5
 40
0.5625
 40
0.5625
 40
0.625
 40
0.625
 40
0.6875000000000001
 40
0.6875000000000001
 40
0.7500000000000001
 40
0.7500000000000001
 40
0.8125000000000001
 40
0.8125000000000001
 40
0.875
 40
0.875
 40
0.9375
 40
0.9375
 40
1.0
 40
1.0
 40
1.0
 40
1.0
 10
59.04795318437747
 20
136.4488542150812
 30
0.0
 10
59.04795318437747
 20
136.9232359896437
 30
0.0
 10
59.07737681703758
 20
137.4275615115864
 30
0.0
 10
59.22003685417754
 20
138.4927564556114
 30
0.0
 10
59.33334125994173
 20
139.0537794155588
 30
0.0
 10
59.67337811593321
 20
140.2196200647236
 30
0.0
 10
59.90029523907725
 20
140.8245933864781
 30
0.0
 10
60.49822828250914
 20
142.0511227063922
 30
0.0
 10
60.86957919861747
 20
142.6727430973412
 30
0.0
 10
61.78039220573746
 20
143.8871604402212
 30
0.0
 10
62.320288337718
 20
144.4797842533493
 30
0.0
 10
63.57367459884517
 20
145.5736486267447
 30
0.0
 10
64.28749167689304
 20
146.0743722982456
 30
0.0
 10
65.86329272727367
 20
146.9147995251521
 30
0.0
 10
66.72519063196587
 20
147.2537552635306
 30
0.0
 10
68.53603779405061
 20
147.7136529555088
 30
0.0
 10
69.48435222429414
 20
147.8340168045812
 30
0.0
 10
71.3818793224608
 20
147.8340168045812
 30
0.0
 10
72.33019375270433
 20
147.7136529555088
 30
0.0
 10
74.14104091478907
 20
147.2537552635306
 30
0.0
 10
75.00293881948127
 20
146.9147995251521
 30
0.0
 10
76.57873986986189
 20
146.0743722982456
 30
0.0
 10
77.29255694790977
 20
145.5736486267447
 30
0.0
 10
78.54594320903695
 20
144.4797842533493
 30
0.0
 10
79.08583934101748
 20
143.8871604402212
 30
0.0
 10
79.99665234813747
 20
142.6727430973412
 30
0.0
 10
80.3680032642458
 20
142.0511227063922
 30
0.0
 10
80.9659363076777
 20
140.8245933864781
 30
0.0
 10
81.19285343082174
 20
140.2196200647236
 30
0.0
 10
81.5328902868132
 20
139.0537794155588
 30
0.0
 10
81.6461946925774
 20
138.4927564556114
 30
0.0
 10
81.78885472971734
 20
137.4275615115864
 30
0.0
 10
81.81827836237747
 20
136.9232359896437
 30
0.0
 10
81.81827836237747
 20
136.4488542150812
 30
0.0
  0
SPLINE
  5
BE
330
1F
100
AcDbEntity
  8
0
  6
Continuous
 62
     7
370
    15
100
AcDbSpline
210
0.0
220
0.0
230
1.0
 70
    24
 71
     3
 72
    14
 73
    10
 74
     0
 42
0.000000001
 43
0.00000001
 40
0.0
 40
0.0
 40
0.0
 40
0.0
 40
0.25
 40
0.25
 40
0.5
 40
0.5
 40
0.75
 40
0.75
 40
1.0
 40
1.0
 40
1.0
 40
1.0
 10
58.05842039737746
 20
136.4488542150812
 30
0.0
 10
58.074152382319
 20
136.4488542150812
 30
0.0
 10
58.10901597964514
 20
136.4488542150812
 30
0.0
 10
58.22186193922792
 20
136.4488542150812
 30
0.0
 10
58.29995653498401
 20
136.4488542150812
 30
0.0
 10
58.48775124552121
 20
136.4488542150812
 30
0.0
 10
58.5970296049871
 20
136.4488542150812
 30
0.0
 10
58.8228586439724
 20
136.4488542150812
 30
0.0
 10
58.93893663543034
 20
136.4488542150812
 30
0.0
 10
59.04795318437747
 20
136.4488542150812
 30
0.0
  0
ARC
  5
BF
330
1F
100
AcDbEntity
  8
0
  6
Continuous
 62
     7
370
    15
100
AcDbCircle
 10
70.4331157734
 20
136.4488542151
 30
0.0
 40
12.37469537600001
100
AcDbArc
 50
359.9999999965
 51
180.0
  0
SPLINE
  5
C0
330
1F
100
AcDbEntity
  8
0
  6
Continuous
 62
     7
370
    15
100
AcDbSpline
210
0.0
220
0.0
230
1.0
 70
    24
 71
     3
 72
    14
 73
    10
 74
     0
 42
0.000000001
 43
0.00000001
 40
0.0
 40
0.0
 40
0.0
 40
0.0
 40
0.25
 40
0.25
 40
0.5
 40
0.5
 40
0.75
 40
0.75
 40
1.0
 40
1.0
 40
1.0
 40
1.0
 10
81.81827836237747
 20
136.4488542150812
 30
0.0
 10
81.92729491132458
 20
136.4488542150812
 30
0.0
 10
82.04337290278254
 20
136.4488542150812
 30
0.0
 10
82.26920194176785
 20
136.4488542150812
 30
0.0
 10
82.37848030123374
 20
136.4488542150812
 30
0.0
 10
82.56627501177091
 20
136.4488542150812
 30
0.0
 10
82.64436960752701
 20
136.4488542150812
 30
0.0
 10
82.7572155671098
 20
136.4488542150812
 30
0.0
 10
82.79207916443595
 20
136.4488542150812
 30
0.0
 10
82.80781114937747
 20
136.4488542150812
 30
0.0
  0
ARC
  5
C1
330
1F
100
AcDbEntity
  8
0
  6
Continuous
 62
     7
370
    15
100
AcDbCircle
 10
70.4331157734
 20
136.4488542151
 30
0.0
 40
12.37469537600001
100
AcDbArc
 50
180.0
 51
359.9999999965
  0
CIRCLE
  5
C2
330
1F
100
AcDbEntity
  8
0
  6
Continuous
 62
     7
370
    15
100
AcDbCircle
 10
70.4331157734
 20
136.4488542151
 30
0.0
 40
22.22499999999999
  0
SPLINE
  5
C3
330
1F
100
AcDbEntity
  8
0
  6
Continuous
 62
     7
370
    15
100
AcDbSpline
210
0.0
220
0.0
230
1.0
 70
     8
 71
     3
 72
    46
 73
    42
 74
     0
 42
0.000000001
 43
0.00000001
 40
0.0
 40
0.0
 40
0.0
 40
0.0
 40
0.006060509738736
 40
0.012116063002841
 40
0.0181688504487787
 40
0.0242210657363553
 40
0.0302749031473563
 40
0.0363325552008075
 40
0.0423962102777983
 40
0.0663723762752013
 40
0.0903614245259086
 40
0.1173835313961692
 40
0.1444187375184246
 40
0.1746377134611347
 40
0.2048704270524354
 40
0.2382459271759561
 40
0.2716357371868479
 40
0.307846057408608
 40
0.3440707643473241
 40
0.3824528172843601
 40
0.4208496145247257
 40
0.4604174444221711
 40
0.5000006351371646
 40
0.5395683786452921
 40
0.5791516575954981
 40
0.6175334667211793
 40
0.6559305126791313
 40
0.692140447212708
 40
0.728365538217382
 40
0.7617405441714814
 40
0.7951308492353167
 40
0.8253489820918097
 40
0.8555825399621454
 40
0.8826032238187791
 40
0.9096398523464996
 40
0.9336143211338713
 40
0.9576050666785983
 40
0.9682066401032497
 40
0.9787984729660737
 40
0.9893923377067513
 40
1.0
 40
1.0
 40
1.0
 40
1.0
 10
47.93311576455878
 20
136.4488542142812
 30
0.0
 10
47.93389701935517
 20
136.591592454218
 30
0.0
 10
47.93545889001332
 20
136.8769521982897
 30
0.0
 10
47.94810849972209
 20
137.304714023094
 30
0.0
 10
47.96830591801749
 20
137.7319711482873
 30
0.0
 10
47.99678951893283
 20
138.1587238459758
 30
0.0
 10
48.0333607627162
 20
138.5849703534089
 30
0.0
 10
48.07807573233212
 20
139.010716446637
 30
0.0
 10
48.18290245909822
 20
139.8544125370708
 30
0.0
 10
48.39922274526808
 20
141.1097727544066
 30
0.0
 10
48.83018243026131
 20
142.8240860041825
 30
0.0
 10
49.41960892927192
 20
144.5675719024847
 30
0.0
 10
50.2142135700101
 20
146.3889561922223
 30
0.0
 10
51.20494630941235
 20
148.1992476242653
 30
0.0
 10
52.447828325769
 20
150.0302993269207
 30
0.0
 10
53.91441938628762
 20
151.7874608537681
 30
0.0
 10
55.65942118222944
 20
153.4780143884392
 30
0.0
 10
57.6308801155222
 20
155.0118574571904
 30
0.0
 10
59.86567980253758
 20
156.3706949289377
 30
0.0
 10
62.29046102505408
 20
157.4836340815511
 30
0.0
 10
64.90765656880974
 20
158.3173110918145
 30
0.0
 10
67.63479388734211
 20
158.8340322135011
 30
0.0
 10
70.43275233953447
 20
159.0062531893135
 30
0.0
 10
73.2310711441471
 20
158.8340800537046
 30
0.0
 10
75.95788051244496
 20
158.3174856605623
 30
0.0
 10
78.57543798570916
 20
157.4837680973972
 30
0.0
 10
80.99993322004728
 20
156.3710229272127
 30
0.0
 10
83.2350603516523
 20
155.0120565818867
 30
0.0
 10
85.20628502234466
 20
153.4784708079646
 30
0.0
 10
86.95157298333457
 20
151.787719984579
 30
0.0
 10
88.41798655722171
 20
150.0308513317097
 30
0.0
 10
89.66110599204704
 20
148.1995441501822
 30
0.0
 10
90.65171538824241
 20
146.3895713922235
 30
0.0
 10
91.44650054387706
 20
144.5678921910759
 30
0.0
 10
92.03584567653898
 20
142.8247463571613
 30
0.0
 10
92.4669705789709
 20
141.1101003834369
 30
0.0
 10
92.70136296262974
 20
139.7493444139296
 30
0.0
 10
92.82530937184515
 20
138.6922541335705
 30
0.0
 10
92.887196619999
 20
137.9460505396524
 30
0.0
 10
92.92594658200797
 20
137.1980541057258
 30
0.0
 10
92.93072500355342
 20
136.6986958357334
 30
0.0
 10
92.93311576917928
 20
136.4488542142812
 30
0.0
  0
SPLINE
  5
C4
330
1F
100
AcDbEntity
  8
0
  6
Continuous
 62
     7
370
    15
100
AcDbSpline
210
0.0
220
0.0
230
1.0
 70
     8
 71
     3
 72
    46
 73
    42
 74
     0
 42
0.000000001
 43
0.00000001
 40
0.0
 40
0.0
 40
0.0
 40
0.0
 40
0.0060605090578789
 40
0.0121160618652316
 40
0.0181688490798695
 40
0.0242210643627036
 40
0.0302749019963787
 40
0.0363325545005319
 40
0.0423962102566156
 40
0.0663723762557772
 40
0.0903614245065992
 40
0.1173835313789998
 40
0.1444187375012122
 40
0.1746377134462246
 40
0.20487042703758
 40
0.2382459271647412
 40
0.2716357371745998
 40
0.3078460573984574
 40
0.3440707643378661
 40
0.3824528172762049
 40
0.4208496145182827
 40
0.4604174444176503
 40
0.5000006351337953
 40
0.5395683786438665
 40
0.5791516575952307
 40
0.6175334667239435
 40
0.6559305126818602
 40
0.6921404472187197
 40
0.7283655382229329
 40
0.7617405441792563
 40
0.795130849243458
 40
0.8253489821014625
 40
0.8555825399726453
 40
0.8826032238318968
 40
0.9096398523591116
 40
0.9336143211498046
 40
0.9576050666930713
 40
0.9682066398587207
 40
0.9787984726342449
 40
0.9893923374572966
 40
1.0
 40
1.0
 40
1.0
 40
1.0
 10
92.93311576917928
 20
136.4488542142812
 30
0.0
 10
92.93233451781447
 20
136.3061159903638
 30
0.0
 10
92.93077265398783
 20
136.0207562730528
 30
0.0
 10
92.91812305111003
 20
135.592994480291
 30
0.0
 10
92.89792563723653
 20
135.1657373712318
 30
0.0
 10
92.86944203800405
 20
134.7389846737516
 30
0.0
 10
92.83287079329392
 20
134.3127381506019
 30
0.0
 10
92.78815581999777
 20
133.8869920257455
 30
0.0
 10
92.68332908979805
 20
133.0432959089188
 30
0.0
 10
92.46700880171292
 20
131.7879356757067
 30
0.0
 10
92.03604911641156
 20
130.0736224259454
 30
0.0
 10
91.44662261748961
 20
128.3301365276523
 30
0.0
 10
90.65201797671594
 20
126.5087522378943
 30
0.0
 10
89.66128523733498
 20
124.6984608058713
 30
0.0
 10
88.41840322093495
 20
122.867409103178
 30
0.0
 10
86.95181216043608
 20
121.1102475763485
 30
0.0
 10
85.20681036447324
 20
119.4196940416742
 30
0.0
 10
83.23535143120134
 20
117.8858509729884
 30
0.0
 10
81.00055174420898
 20
116.5270135012171
 30
0.0
 10
78.57577052171206
 20
115.4140743485956
 30
0.0
 10
75.95857497794076
 20
114.5803973383481
 30
0.0
 10
73.23143765940227
 20
114.0636762166714
 30
0.0
 10
70.43347920720215
 20
113.8914552408494
 30
0.0
 10
67.63516040259626
 20
114.0636283764459
 30
0.0
 10
64.90835103426613
 20
114.580222769614
 30
0.0
 10
62.29079356100954
 20
115.4139403327744
 30
0.0
 10
59.86629832663647
 20
116.5266855029883
 30
0.0
 10
57.63117119506511
 20
117.8856518483007
 30
0.0
 10
55.65994652435843
 20
119.41923762224
 30
0.0
 10
53.91465856341418
 20
121.109988445609
 30
0.0
 10
52.44824498951441
 20
122.8668570984764
 30
0.0
 10
51.20512555469893
 20
124.6981642799851
 30
0.0
 10
50.21451615849445
 20
126.5081370379806
 30
0.0
 10
49.41973100285674
 20
128.3298162391186
 30
0.0
 10
48.83038587018928
 20
130.072962073092
 30
0.0
 10
48.39926096777604
 20
131.7876080467795
 30
0.0
 10
48.16486858514322
 20
133.1483640102669
 30
0.0
 10
48.04092217649426
 20
134.2054542823817
 30
0.0
 10
47.97903492684679
 20
134.9516578698944
 30
0.0
 10
47.94028496039103
 20
135.699654309276
 30
0.0
 10
47.93550653308542
 20
136.199012586997
 30
0.0
 10
47.93311576455878
 20
136.4488542142812
 30
0.0
  0
ARC
  5
C5
330
1F
100
AcDbEntity
  8
0
  6
Continuous
 62
     7
370
    15
100
AcDbCircle
 10
70.4331157734
 20
136.4488542151
 30
0.0
 40
30.86715728670555
100
AcDbArc
 50
73.7590550431
 51
106.2409449546
  0
SPLINE
  5
C6
330
1F
100
AcDbEntity
  8
0
  6
Continuous
 62
     7
370
    15
100
AcDbSpline
210
0.0
220
0.0
230
1.0
 70
     8
 71
     3
 72
    10
 73
     6
 74
     0
 42
0.000000001
 43
0.00000001
 40
0.0
 40
0.0
 40
0.0
 40
0.0
 40
0.5
 40
0.5
 40
1.0
 40
1.0
 40
1.0
 40
1.0
 10
79.06595848593373
 20
166.0842287822404
 30
0.0
 10
79.09858633046409
 20
166.0407402183887
 30
0.0
 10
79.1267283591926
 20
165.991902592953
 30
0.0
 10
79.16938078763003
 20
165.8801857019694
 30
0.0
 10
79.18311577518583
 20
165.8185366795657
 30
0.0
 10
79.18311577320442
 20
165.7547887219415
 30
0.0
  0
ARC
  5
C7
330
1F
100
AcDbEntity
  8
0
  6
Continuous
 62
     7
370
    15
100
AcDbCircle
 10
70.4331157734
 20
136.4488542151
 30
0.0
 40
30.5843145696248
100
AcDbArc
 50
73.3757249371
 51
106.6242750308
  0
SPLINE
  5
C8
330
1F
100
AcDbEntity
  8
0
  6
Continuous
 62
     7
370
    15
100
AcDbSpline
210
0.0
220
0.0
230
1.0
 70
     8
 71
     3
 72
     8
 73
     4
 74
     0
 42
0.000000001
 43
0.00000001
 40
0.0
 40
0.0
 40
0.0
 40
0.0
 40
1.0
 40
1.0
 40
1.0
 40
1.0
 10
61.68311577353363
 20
165.7547887200157
 30
0.0
 10
61.68311577350018
 20
165.7556441955723
 30
0.0
 10
61.68311829317985
 20
165.7564991220119
 30
0.0
 10
61.68312330994262
 20
165.7573535042662
 30
0.0
  0
SPLINE
  5
C9
330
1F
100
AcDbEntity
  8
0
  6
Continuous
 62
     7
370
    15
100
AcDbSpline
210
0.0
220
0.0
230
1.0
 70
     8
 71
     3
 72
    10
 73
     6
 74
     0
 42
0.000000001
 43
0.00000001
 40
0.0
 40
0.0
 40
0.0
 40
0.0
 40
0.5
 40
0.5
 40
1.0
 40
1.0
 40
1.0
 40
1.0
 10
61.80027306004223
 20
166.0842287807761
 30
0.0
 10
61.76781951194732
 20
166.0409725313807
 30
0.0
 10
61.73998289520596
 20
165.9927324752128
 30
0.0
 10
61.69742200375627
 20
165.8820980742328
 30
0.0
 10
61.68349133924308
 20
165.8200308664805
 30
0.0
 10
61.68312330994263
 20
165.7573535042662
 30
0.0
  0
ARC
  5
CA
330
1F
100
AcDbEntity
  8
0
  6
Continuous
 62
     7
370
    15
100
AcDbCircle
 10
70.4331157734
 20
136.4488542151
 30
0.0
 40
30.58431456962478
100
AcDbArc
 50
217.2205831722
 51
232.7794168425
  0
SPLINE
  5
CB
330
1F
100
AcDbEntity
  8
0
  6
Continuous
 62
     7
370
    15
100
AcDbSpline
210
0.0
220
0.0
230
1.0
 70
    24
 71
     3
 72
     8
 73
     4
 74
     0
 42
0.000000001
 43
0.00000001
 40
0.0
 40
0.0
 40
0.0
 40
0.0
 40
1.0
 40
1.0
 40
1.0
 40
1.0
 10
51.93311577337748
 20
112.0941770883889
 30
0.0
 10
51.93311577337748
 20
111.966787669034
 30
0.0
 10
51.93311577337747
 20
111.8396091877702
 30
0.0
 10
51.93311577337747
 20
111.7399206268903
 30
0.0
  0
ARC
  5
CC
330
1F
100
AcDbEntity
  8
0
  6
Continuous
 62
     7
370
    15
100
AcDbCircle
 10
70.4331157734
 20
136.4488542151
 30
0.0
 40
30.86715728670555
100
AcDbArc
 50
216.8228239938
 51
233.1771760094
  0
SPLINE
  5
CD
330
1F
100
AcDbEntity
  8
0
  6
Continuous
 62
     7
370
    15
100
AcDbSpline
210
0.0
220
0.0
230
1.0
 70
    24
 71
     3
 72
     8
 73
     4
 74
     0
 42
0.000000001
 43
0.00000001
 40
0.0
 40
0.0
 40
0.0
 40
0.0
 40
1.0
 40
1.0
 40
1.0
 40
1.0
 10
45.72418218338686
 20
117.9488542150812
 30
0.0
 10
45.82306430568403
 20
117.9488542150812
 30
0.0
 10
45.94927773369967
 20
117.9488542150812
 30
0.0
 10
46.07565952073307
 20
117.9488542150812
 30
0.0
  0
SPLINE
  5
CE
330
1F
100
AcDbEntity
  8
0
  6
Continuous
 62
     7
370
    15
100
AcDbSpline
210
0.0
220
0.0
230
1.0
 70
    24
 71
     3
 72
     8
 73
     4
 74
     0
 42
0.000000001
 43
0.00000001
 40
0.0
 40
0.0
 40
0.0
 40
0.0
 40
1.0
 40
1.0
 40
1.0
 40
1.0
 10
46.07565952073308
 20
117.9488542150812
 30
0.0
 10
46.07658561103516
 20
117.9488542150812
 30
0.0
 10
46.07751198791352
 20
117.9488542150812
 30
0.0
 10
46.07843865185186
 20
117.9488542150812
 30
0.0
  0
ARC
  5
CF
330
1F
100
AcDbEntity
  8
0
  6
Continuous
 62
     7
370
    15
100
AcDbCircle
 10
70.4331157734
 20
136.4488542151
 30
0.0
 40
30.5843145696248
100
AcDbArc
 50
253.3757249638
 51
286.6242750534
  0
SPLINE
  5
D0
330
1F
100
AcDbEntity
  8
0
  6
Continuous
 62
     7
370
    15
100
AcDbSpline
210
0.0
220
0.0
230
1.0
 70
     8
 71
     3
 72
    10
 73
     6
 74
     0
 42
0.000000001
 43
0.00000001
 40
0.0
 40
0.0
 40
0.0
 40
0.0
 40
0.5
 40
0.5
 40
1.0
 40
1.0
 40
1.0
 40
1.0
 10
79.18311577320442
 20
107.1429197070501
 30
0.0
 10
79.18311577491048
 20
107.0791741600191
 30
0.0
 10
79.1692844323973
 20
107.0173786528276
 30
0.0
 10
79.127092728772
 20
106.9066525919274
 30
0.0
 10
79.09858399505501
 20
106.8569650999072
 30
0.0
 10
79.0659584889956
 20
106.8134796527117
 30
0.0
  0
ARC
  5
D1
330
1F
100
AcDbEntity
  8
0
  6
Continuous
 62
     7
370
    15
100
AcDbCircle
 10
70.4331157734
 20
136.4488542151
 30
0.0
 40
30.86715728670556
100
AcDbArc
 50
253.7590550431
 51
286.24094496
  0
SPLINE
  5
D2
330
1F
100
AcDbEntity
  8
0
  6
Continuous
 62
     7
370
    15
100
AcDbSpline
210
0.0
220
0.0
230
1.0
 70
     8
 71
     3
 72
    10
 73
     6
 74
     0
 42
0.000000001
 43
0.00000001
 40
0.0
 40
0.0
 40
0.0
 40
0.0
 40
0.5
 40
0.5
 40
1.0
 40
1.0
 40
1.0
 40
1.0
 10
61.80027306581226
 20
106.8134796418087
 30
0.0
 10
61.76761753344429
 20
106.8570051081534
 30
0.0
 10
61.73963853608273
 20
106.9055658042771
 30
0.0
 10
61.69699725805943
 20
107.0170252904202
 30
0.0
 10
61.68311577219441
 20
107.0790111435782
 30
0.0
 10
61.68311577356109
 20
107.1429197048324
 30
0.0
  0
SPLINE
  5
D3
330
1F
100
AcDbEntity
  8
0
  6
Continuous
 62
     7
370
    15
100
AcDbSpline
210
0.0
220
0.0
230
1.0
 70
     8
 71
     3
 72
    31
 73
    27
 74
     0
 42
0.000000001
 43
0.00000001
 40
0.0
 40
0.0
 40
0.0
 40
0.0
 40
0.0132547820110218
 40
0.0264968712740911
 40
0.0397300666999617
 40
0.0529581748619113
 40
0.066185006725438
 40
0.0794143743590231
 40
0.0926500876401384
 40
0.1058959509707041
 40
0.1191557600161219
 40
0.1810884463781594
 40
0.2430471624419451
 40
0.3066892812093266
 40
0.3703583835969223
 40
0.4993829935695762
 40
0.6284926043660414
 40
0.6922587072412882
 40
0.7560526562379403
 40
0.8181812942482416
 40
0.8803373241551902
 40
0.9042880502387945
 40
0.9282071646243898
 40
0.9521171770662894
 40
0.9760406230110876
 40
1.0
 40
1.0
 40
1.0
 40
1.0
 10
101.0174303433946
 20
136.4488542144145
 30
0.0
 10
101.0165876090978
 20
136.6218343790316
 30
0.0
 10
101.0149029475044
 20
136.9676290628686
 30
0.0
 10
101.0012575736045
 20
137.4859740245331
 30
0.0
 10
100.9794697334916
 20
138.0036738247364
 30
0.0
 10
100.9487434251374
 20
138.5207283860073
 30
0.0
 10
100.9092918235278
 20
139.0371374414181
 30
0.0
 10
100.8610575787252
 20
139.5529013631628
 30
0.0
 10
100.8040570742871
 20
140.068018157612
 30
0.0
 10
100.7382822375383
 20
140.5824946699074
 30
0.0
 10
100.5725946775682
 20
141.7246980515546
 30
0.0
 10
100.2306299073862
 20
143.4837883486975
 30
0.0
 10
99.5732327916709
 20
145.8437160957454
 30
0.0
 10
98.72124052035323
 20
148.165225501315
 30
0.0
 10
97.31470119262508
 20
151.2037914367695
 30
0.0
 10
95.08499985744751
 20
154.7867041636917
 30
0.0
 10
92.29373171929153
 20
157.9535072879913
 30
0.0
 10
89.78444385486797
 20
160.1770201314894
 30
0.0
 10
87.80118951396732
 20
161.6633329566118
 30
0.0
 10
85.72330744884334
 20
162.9744203559801
 30
0.0
 10
84.00799898008373
 20
163.8738159373369
 30
0.0
 10
82.70156719263714
 20
164.4699443482895
 30
0.0
 10
81.83772746266636
 20
164.8327009759919
 30
0.0
 10
80.96334942322089
 20
165.168102237818
 30
0.0
 10
80.07915988225777
 20
165.4786422499383
 30
0.0
 10
79.48194653513288
 20
165.6626938607873
 30
0.0
 10
79.18311578853333
 20
165.7547887219414
 30
0.0
  0
SPLINE
  5
D4
330
1F
100
AcDbEntity
  8
0
  6
Continuous
 62
     7
370
    15
100
AcDbSpline
210
0.0
220
0.0
230
1.0
 70
     8
 71
     3
 72
    31
 73
    27
 74
     0
 42
0.000000001
 43
0.00000001
 40
0.0
 40
0.0
 40
0.0
 40
0.0
 40
0.0133116724878399
 40
0.026610482979202
 40
0.0399002793442512
 40
0.0531849172859283
 40
0.0664682569991215
 40
0.0797541598103126
 40
0.0930464848122974
 40
0.1063490855086292
 40
0.1196658064823286
 40
0.1817950735652574
 40
0.2439504667220279
 40
0.3077169628183483
 40
0.3715105117133563
 40
0.5006201173304463
 40
0.6296447221270317
 40
0.6932864260143646
 40
0.756955940040429
 40
0.8188879793483971
 40
0.8808473402561018
 40
0.9046957897998805
 40
0.928513051309268
 40
0.9523213477010868
 40
0.9761429269825835
 40
1.0
 40
1.0
 40
1.0
 40
1.0
 10
79.18311578835707
 20
107.1429197071939
 30
0.0
 10
79.34933390308545
 20
107.1934351885535
 30
0.0
 10
79.68160952937173
 20
107.2944173422335
 30
0.0
 10
80.176477877665
 20
107.4565348530424
 30
0.0
 10
80.66837038482565
 20
107.6263343115936
 30
0.0
 10
81.15705729860409
 20
107.8045849375598
 30
0.0
 10
81.64259986757868
 20
107.9910806459989
 30
0.0
 10
82.12498190312036
 20
108.1858769669771
 30
0.0
 10
82.60420620206207
 20
108.3889574842067
 30
0.0
 10
83.0802770572691
 20
108.6003320018037
 30
0.0
 10
84.13070810204073
 20
109.0882234102947
 30
0.0
 10
85.72301205171927
 20
109.9231315398791
 30
0.0
 10
87.80060464009034
 20
111.233969274708
 30
0.0
 10
89.78416414596299
 20
112.720462863864
 30
0.0
 10
92.29349444850536
 20
114.9439301498006
 30
0.0
 10
95.08500000493903
 20
118.1110044323938
 30
0.0
 10
97.31451019086425
 20
121.6936124321481
 30
0.0
 10
98.72110531699313
 20
124.7321508391859
 30
0.0
 10
99.57301220926166
 20
127.0533171797425
 30
0.0
 10
100.2305649435522
 20
129.4135930871377
 30
0.0
 10
100.5989116864645
 20
131.308434410666
 30
0.0
 10
100.7948066940707
 20
132.7257410444377
 30
0.0
 10
100.8944075256828
 20
133.6533314468217
 30
0.0
 10
100.9650298559173
 20
134.5831652813549
 30
0.0
 10
101.0092494473764
 20
135.5152595165014
 30
0.0
 10
101.0147020250223
 20
136.1375015751801
 30
0.0
 10
101.0174303433946
 20
136.4488542144145
 30
0.0
  0
SPLINE
  5
D5
330
1F
100
AcDbEntity
  8
0
  6
Continuous
 62
     7
370
    15
100
AcDbSpline
210
0.0
220
0.0
230
1.0
 70
     8
 71
     3
 72
    22
 73
    18
 74
     0
 42
0.000000001
 43
0.00000001
 40
0.0
 40
0.0
 40
0.0
 40
0.0
 40
0.0500818597985269
 40
0.1001009742715042
 40
0.1500734574801852
 40
0.2000154686233392
 40
0.2499431964867576
 40
0.2998728437495211
 40
0.3498206112227944
 40
0.3998026820976996
 40
0.4498352062787137
 40
0.4999342848780562
 40
0.600061787062943
 40
0.7000024557062985
 40
0.7998858839341666
 40
0.8998418875097212
 40
0.9999999999999999
 40
0.9999999999999999
 40
0.9999999999999999
 40
0.9999999999999999
 10
51.93311577610205
 20
112.0941770883889
 30
0.0
 10
52.07983918561081
 20
111.9839134783471
 30
0.0
 10
52.37310218142103
 20
111.7635244026164
 30
0.0
 10
52.82018460372928
 20
111.4431674943712
 30
0.0
 10
53.2721114678135
 20
111.1306200596682
 30
0.0
 10
53.72942312750365
 20
110.8265937077571
 30
0.0
 10
54.19197481879927
 20
110.5308981445704
 30
0.0
 10
54.6598050655422
 20
110.2435844186742
 30
0.0
 10
55.13290356582637
 20
109.9646390674426
 30
0.0
 10
55.61127211050695
 20
109.694065421051
 30
0.0
 10
56.09491290724586
 20
109.4318640726993
 30
0.0
 10
56.74626566723453
 20
109.0936860372486
 30
0.0
 10
57.57114409861914
 20
108.6931481429679
 30
0.0
 10
58.5767346642362
 20
108.2486071183772
 30
0.0
 10
59.5973340245901
 20
107.8415698371562
 30
0.0
 10
60.63190862387943
 20
107.4686224023782
 30
0.0
 10
61.33247753957493
 20
107.2515603459475
 30
0.0
 10
61.68311577362305
 20
107.1429197048334
 30
0.0
  0
SPLINE
  5
D6
330
1F
100
AcDbEntity
  8
0
  6
Continuous
 62
     7
370
    15
100
AcDbSpline
210
0.0
220
0.0
230
1.0
 70
     8
 71
     3
 72
    39
 73
    35
 74
     0
 42
0.000000001
 43
0.00000001
 40
0.0
 40
0.0
 40
0.0
 40
0.0
 40
0.0093873620978245
 40
0.0187596701110582
 40
0.0281199648213022
 40
0.0374712987292935
 40
0.0468167331163786
 40
0.0561593350631763
 40
0.0655021744398191
 40
0.0748483208824773
 40
0.0842008407710379
 40
0.093562794222784
 40
0.1029372321167506
 40
0.1123271931630728
 40
0.1736200408833544
 40
0.2349299482880957
 40
0.2671836518292324
 40
0.2994546245565271
 40
0.3655428527619826
 40
0.4327326147454686
 40
0.5004775807824706
 40
0.568203717187048
 40
0.6353379408755266
 40
0.7013366565068315
 40
0.7335302740254973
 40
0.7657418651793169
 40
0.8268808735563975
 40
0.8880378864401905
 40
0.9067361963477586
 40
0.9253869598267788
 40
0.9440144096437172
 40
0.9626428695477476
 40
0.9812966593367122
 40
1.0
 40
1.0
 40
1.0
 40
1.0
 10
61.68311576761155
 20
165.7547887200156
 30
0.0
 10
61.5064561332243
 20
165.7010466156512
 30
0.0
 10
61.1534201654509
 20
165.5936485906847
 30
0.0
 10
60.62801022278333
 20
165.4206388978568
 30
0.0
 10
60.10626295899802
 20
165.2390902247698
 30
0.0
 10
59.5884361142327
 20
165.0481398532435
 30
0.0
 10
59.07446096619662
 20
164.8480185830916
 30
0.0
 10
58.5643561347832
 20
164.6386647252664
 30
0.0
 10
58.05811680186814
 20
164.4200948273589
 30
0.0
 10
57.55574463347943
 20
164.1923047244351
 30
0.0
 10
57.05723875030327
 20
163.9552949879857
 30
0.0
 10
56.56260193862665
 20
163.7090680240688
 30
0.0
 10
56.07182480556516
 20
163.4536142066094
 30
0.0
 10
54.68828236037904
 20
162.7015917874507
 30
0.0
 10
52.49024411061474
 20
161.3069086738933
 30
0.0
 10
50.12554406788904
 20
159.3751441751051
 30
0.0
 10
48.35544996569504
 20
157.6430323420908
 30
0.0
 10
46.63394780346776
 20
155.7340541662393
 30
0.0
 10
44.68620609430753
 20
153.1124946787593
 30
0.0
 10
42.74977415229343
 20
149.6525361148284
 30
0.0
 10
41.26689806087665
 20
145.9399762822122
 30
0.0
 10
40.28120665647141
 20
142.0667834162111
 30
0.0
 10
39.8107004200203
 20
138.1330898816793
 30
0.0
 10
39.84190246734468
 20
134.871727848053
 30
0.0
 10
40.10889814301601
 20
132.3192143332205
 30
0.0
 10
40.51851264462737
 20
129.8825506230148
 30
0.0
 10
41.28970317315888
 20
126.9351875106978
 30
0.0
 10
42.30869372168324
 20
124.348154881988
 30
0.0
 10
43.15403985469099
 20
122.6044109304823
 30
0.0
 10
43.66984385219107
 20
121.6313588330947
 30
0.0
 10
44.21959989170885
 20
120.6786703602525
 30
0.0
 10
44.80407965813019
 20
119.7468872893512
 30
0.0
 10
45.4204345712658
 20
118.8338660650303
 30
0.0
 10
45.85891008174018
 20
118.2441189226925
 30
0.0
 10
46.07843863614543
 20
117.948854228247
 30
0.0
  0
ARC
  5
D7
330
1F
100
AcDbEntity
  8
0
  6
Continuous
 62
     7
370
    15
100
AcDbCircle
 10
70.433115774
 20
136.4488542146
 30
0.0
 40
30.86715728926742
100
AcDbArc
 50
106.2409449555
 51
216.822823989
  0
ARC
  5
D8
330
1F
100
AcDbEntity
  8
0
  6
Continuous
 62
     7
370
    15
100
AcDbCircle
 10
70.4331157664
 20
136.4488542129
 30
0.0
 40
30.86715728315937
100
AcDbArc
 50
233.1771760173
 51
253.7590550635
  0
SPLINE
  5
D9
330
1F
100
AcDbEntity
  8
0
  6
Continuous
 62
     7
370
    15
100
AcDbSpline
210
0.0
220
0.0
230
1.0
 70
    24
 71
     3
 72
    10
 73
     6
 74
     0
 42
0.000000001
 43
0.00000001
 40
0.0
 40
0.0
 40
0.0
 40
0.0
 40
0.5
 40
0.5
 40
1.0
 40
1.0
 40
1.0
 40
1.0
 10
101.0174303434043
 20
136.4488542150812
 30
0.0
 10
101.0684548020415
 20
136.4488542150812
 30
0.0
 10
101.121498101096
 20
136.4488542150812
 30
0.0
 10
101.219509337458
 20
136.4488542150812
 30
0.0
 10
101.2641933202393
 20
136.4488542150812
 30
0.0
 10
101.3002730603775
 20
136.4488542150812
 30
0.0
  0
ARC
  5
DA
330
1F
100
AcDbEntity
  8
0
  6
Continuous
 62
     7
370
    15
100
AcDbCircle
 10
70.4331157734
 20
136.4488542151
 30
0.0
 40
30.86715728709902
100
AcDbArc
 50
286.24094496
 51
359.9999999961
  0
ARC
  5
DB
330
1F
100
AcDbEntity
  8
0
  6
Continuous
 62
     7
370
    15
100
AcDbCircle
 10
70.4331157734
 20
136.4488542151
 30
0.0
 40
30.86715728757234
100
AcDbArc
 50
359.9999999961
 51
73.7590550456
  0
SPLINE
  5
DC
330
1F
100
AcDbEntity
  8
0
  6
Continuous
 62
     7
370
    15
100
AcDbSpline
210
0.0
220
0.0
230
1.0
 70
     8
 71
     3
 72
     9
 73
     5
 74
     0
 42
0.000000001
 43
0.00000001
 40
0.0
 40
0.0
 40
0.0
 40
0.0
 40
0.5013664788243524
 40
1.0
 40
1.0
 40
1.0
 40
1.0
 10
78.65228622478583
 20
166.6305628203499
 30
0.0
 10
78.72164044505695
 20
166.5395920769209
 30
0.0
 10
78.8599708345033
 20
166.3581464732134
 30
0.0
 10
78.99742115049075
 20
166.1753681706318
 30
0.0
 10
79.0659584855383
 20
166.084228782021
 30
0.0
  0
SPLINE
  5
DD
330
1F
100
AcDbEntity
  8
0
  6
Continuous
 62
     7
370
    15
100
AcDbSpline
210
0.0
220
0.0
230
1.0
 70
    24
 71
     3
 72
     8
 73
     4
 74
     0
 42
0.000000001
 43
0.00000001
 40
0.0
 40
0.0
 40
0.0
 40
0.0
 40
0.0005364352012432
 40
0.0005364352012432
 40
0.0005364352012432
 40
0.0005364352012432
 10
78.93851132684668
 20
166.9167879245504
 30
0.0
 10
78.84317663989052
 20
166.8214532375943
 30
0.0
 10
78.74776916694587
 20
166.7260457646496
 30
0.0
 10
78.65228630383567
 20
166.6305629015394
 30
0.0
  0
ARC
  5
DE
330
1F
100
AcDbEntity
  8
0
  6
Continuous
 62
     7
370
    15
100
AcDbCircle
 10
70.4331157734
 20
136.4488542151
 30
0.0
 40
31.63284271208674
100
AcDbArc
 50
359.9999999956
 51
74.4024500298
  0
ARC
  5
DF
330
1F
100
AcDbEntity
  8
0
  6
Continuous
 62
     7
370
    15
100
AcDbCircle
 10
70.4331157734
 20
136.4488542151
 30
0.0
 40
31.63284271391236
100
AcDbArc
 50
285.7334817396
 51
359.9999999956
  0
SPLINE
  5
E0
330
1F
100
AcDbEntity
  8
0
  6
Continuous
 62
     7
370
    15
100
AcDbSpline
210
0.0
220
0.0
230
1.0
 70
     8
 71
     3
 72
     8
 73
     4
 74
     0
 42
0.000000001
 43
0.00000001
 40
0.0
 40
0.0
 40
0.0
 40
0.0
 40
0.0005532767344487
 40
0.0005532767344487
 40
0.0005532767344487
 40
0.0005532767344487
 10
78.62249975405987
 20
106.2281880064395
 30
0.0
 10
78.75213776586807
 20
106.1523950753258
 30
0.0
 10
78.88155937592785
 20
106.0767286653574
 30
0.0
 10
79.01077118360783
 20
106.0011849147092
 30
0.0
  0
SPLINE
  5
E1
330
1F
100
AcDbEntity
  8
0
  6
Continuous
 62
     7
370
    15
100
AcDbSpline
210
0.0
220
0.0
230
1.0
 70
     8
 71
     3
 72
     9
 73
     5
 74
     0
 42
0.000000001
 43
0.00000001
 40
0.0
 40
0.0
 40
0.0
 40
0.0
 40
0.501306738790161
 40
1.0
 40
1.0
 40
1.0
 40
1.0
 10
78.62249975413337
 20
106.2281880055481
 30
0.0
 10
78.69685547568554
 20
106.3256085250659
 30
0.0
 10
78.84517927785829
 20
106.5199416787612
 30
0.0
 10
78.99249375369948
 20
106.7158042882853
 30
0.0
 10
79.06595849008012
 20
106.813479651778
 30
0.0
  0
ARC
  5
E2
330
1F
100
AcDbEntity
  8
0
  6
Continuous
 62
     7
370
    15
100
AcDbCircle
 10
70.4331157734
 20
136.4488542151
 30
0.0
 40
31.63284271251189
100
AcDbArc
 50
74.4024500298
 51
105.7334817355
  0
SPLINE
  5
E3
330
1F
100
AcDbEntity
  8
0
  6
Continuous
 62
     7
370
    15
100
AcDbSpline
210
0.0
220
0.0
230
1.0
 70
     8
 71
     3
 72
     9
 73
     5
 74
     0
 42
0.000000001
 43
0.00000001
 40
0.0
 40
0.0
 40
0.0
 40
0.0
 40
0.5013065652865845
 40
1.0
 40
1.0
 40
1.0
 40
1.0
 10
62.24373179586949
 20
166.6695204200504
 30
0.0
 10
62.1693760999205
 20
166.5720999361133
 30
0.0
 10
62.02105229748536
 20
166.3777667861349
 30
0.0
 10
61.87373782225379
 20
166.1819041789829
 30
0.0
 10
61.80027306061755
 20
166.0842287826904
 30
0.0
  0
SPLINE
  5
E4
330
1F
100
AcDbEntity
  8
0
  6
Continuous
 62
     7
370
    15
100
AcDbSpline
210
0.0
220
0.0
230
1.0
 70
    24
 71
     3
 72
     8
 73
     4
 74
     0
 42
0.000000001
 43
0.00000001
 40
0.0
 40
0.0
 40
0.0
 40
0.0
 40
0.0005532767357167
 40
0.0005532767357167
 40
0.0005532767357167
 40
0.0005532767357167
 10
62.24373179595145
 20
166.6695204198631
 30
0.0
 10
62.11409378385339
 20
166.7453133511612
 30
0.0
 10
61.98467217378899
 20
166.8209797627038
 30
0.0
 10
61.85546036582026
 20
166.8965235135356
 30
0.0
  0
SPLINE
  5
E5
330
1F
100
AcDbEntity
  8
0
  6
Continuous
 62
     7
370
    15
100
AcDbSpline
210
0.0
220
0.0
230
1.0
 70
     8
 71
     3
 72
     9
 73
     5
 74
     0
 42
0.000000001
 43
0.00000001
 40
0.0
 40
0.0
 40
0.0
 40
0.0
 40
0.5013664800998029
 40
1.0
 40
1.0
 40
1.0
 40
1.0
 10
62.21394532722895
 20
106.2671456039967
 30
0.0
 10
62.14459110686031
 20
106.3581163476262
 30
0.0
 10
62.00626071757133
 20
106.539561951272
 30
0.0
 10
61.86881040142067
 20
106.7223402536892
 30
0.0
 10
61.80027306646706
 20
106.8134796419849
 30
0.0
  0
SPLINE
  5
E6
330
1F
100
AcDbEntity
  8
0
  6
Continuous
 62
     7
370
    15
100
AcDbSpline
210
0.0
220
0.0
230
1.0
 70
    24
 71
     3
 72
     8
 73
     4
 74
     0
 42
0.000000001
 43
0.00000001
 40
0.0
 40
0.0
 40
0.0
 40
0.0
 40
0.0005364351986017
 40
0.0005364351986017
 40
0.0005364351986017
 40
0.0005364351986017
 10
61.927720219681
 20
105.9809205053847
 30
0.0
 10
62.0230549061676
 20
106.0762551918713
 30
0.0
 10
62.11846237864194
 20
106.1716626643457
 30
0.0
 10
62.2139452412811
 20
106.2671455269848
 30
0.0
  0
ARC
  5
E7
330
1F
100
AcDbEntity
  8
0
  6
Continuous
 62
     7
370
    15
100
AcDbCircle
 10
70.4331157734
 20
136.4488542151
 30
0.0
 40
31.63284270956344
100
AcDbArc
 50
234.2086512586
 51
254.4024500297
  0
SPLINE
  5
E8
330
1F
100
AcDbEntity
  8
0
  6
Continuous
 62
     7
370
    15
100
AcDbSpline
210
0.0
220
0.0
230
1.0
 70
     8
 71
     3
 72
     9
 73
     5
 74
     0
 42
0.000000001
 43
0.00000001
 40
0.0
 40
0.0
 40
0.0
 40
0.0
 40
0.4967202194677732
 40
0.9999999999999999
 40
0.9999999999999999
 40
0.9999999999999999
 40
0.9999999999999999
 10
51.93311577387552
 20
111.7399206268376
 30
0.0
 10
51.93311569479005
 20
111.5822991061981
 30
0.0
 10
51.93311553557474
 20
111.2649745551491
 30
0.0
 10
51.93311569347782
 20
110.9488868769795
 30
0.0
 10
51.93311577294725
 20
110.7898063396813
 30
0.0
  0
ARC
  5
E9
330
1F
100
AcDbEntity
  8
0
  6
Continuous
 62
     7
370
    15
100
AcDbCircle
 10
70.4331157734
 20
136.4488542151
 30
0.0
 40
31.63284271251192
100
AcDbArc
 50
254.4024500297
 51
285.7334817362
  0
SPLINE
  5
EA
330
1F
100
AcDbEntity
  8
0
  6
Continuous
 62
     7
370
    15
100
AcDbSpline
210
0.0
220
0.0
230
1.0
 70
     8
 71
     3
 72
     9
 73
     5
 74
     0
 42
0.000000001
 43
0.00000001
 40
0.0
 40
0.0
 40
0.0
 40
0.0
 40
0.5032797811378933
 40
1.0
 40
1.0
 40
1.0
 40
1.0
 10
44.77406789519788
 20
117.9488542147153
 30
0.0
 10
44.93314843277548
 20
117.9488541350264
 30
0.0
 10
45.24923611111997
 20
117.9488539766874
 30
0.0
 10
45.56656066215731
 20
117.9488541361161
 30
0.0
 10
45.72418218259891
 20
117.9488542153076
 30
0.0
  0
ARC
  5
EB
330
1F
100
AcDbEntity
  8
0
  6
Continuous
 62
     7
370
    15
100
AcDbCircle
 10
70.4331157734
 20
136.4488542151
 30
0.0
 40
31.63284271185184
100
AcDbArc
 50
105.7334817355
 51
215.7913487382
  0
ARC
  5
EC
330
1F
100
AcDbEntity
  8
0
  6
Continuous
 62
     7
370
    15
100
AcDbCircle
 10
70.4331157734
 20
136.4488542151
 30
0.0
 40
31.63284271251191
100
AcDbArc
 50
215.7913487369
 51
234.2086512631
  0
SPLINE
  5
ED
330
1F
100
AcDbEntity
  8
0
  6
Continuous
 62
     7
370
    15
100
AcDbSpline
210
0.0
220
0.0
230
1.0
 70
    24
 71
     3
 72
    10
 73
     6
 74
     0
 42
0.000000001
 43
0.00000001
 40
0.0
 40
0.0
 40
0.0
 40
0.0
 40
0.5
 40
0.5
 40
1.0
 40
1.0
 40
1.0
 40
1.0
 10
79.0107711836704
 20
106.0011849146726
 30
0.0
 10
79.05056384979018
 20
105.9779201117034
 30
0.0
 10
79.08532595996836
 20
105.9575964258851
 30
0.0
 10
79.13597549849183
 20
105.9279841468112
 30
0.0
 10
79.15102281150806
 20
105.9191867274202
 30
0.0
 10
79.15102281150806
 20
105.9191867274202
 30
0.0
  0
ARC
  5
EE
330
1F
100
AcDbEntity
  8
0
  6
Continuous
 62
     7
370
    15
100
AcDbCircle
 10
70.4331157734
 20
136.4488542151
 30
0.0
 40
31.75000000000002
100
AcDbArc
 50
254.2833781166
 51
285.9369715325
  0
SPLINE
  5
EF
330
1F
100
AcDbEntity
  8
0
  6
Continuous
 62
     7
370
    15
100
AcDbSpline
210
0.0
220
0.0
230
1.0
 70
    24
 71
     3
 72
     8
 73
     4
 74
     0
 42
0.000000001
 43
0.00000001
 40
0.0
 40
0.0
 40
0.0
 40
0.0
 40
1.0
 40
1.0
 40
1.0
 40
1.0
 10
61.83268473529071
 20
105.8858850209945
 30
0.0
 10
61.83268473511491
 20
105.8858850208186
 30
0.0
 10
61.86996433156778
 20
105.9231646172755
 30
0.0
 10
61.92772021986803
 20
105.9809205055758
 30
0.0
  0
SPLINE
  5
F0
330
1F
100
AcDbEntity
  8
0
  6
Continuous
 62
     7
370
    15
100
AcDbSpline
210
0.0
220
0.0
230
1.0
 70
    24
 71
     3
 72
     8
 73
     4
 74
     0
 42
0.000000001
 43
0.00000001
 40
0.0
 40
0.0
 40
0.0
 40
0.0
 40
1.0
 40
1.0
 40
1.0
 40
1.0
 10
51.93311577337747
 20
110.7898063395328
 30
0.0
 10
51.93311577337747
 20
110.7041470873785
 30
0.0
 10
51.93311577337778
 20
110.6455114085112
 30
0.0
 10
51.93311577337778
 20
110.6455114084715
 30
0.0
  0
ARC
  5
F1
330
1F
100
AcDbEntity
  8
0
  6
Continuous
 62
     7
370
    15
100
AcDbCircle
 10
70.4331157734
 20
136.4488542151
 30
0.0
 40
31.75
100
AcDbArc
 50
215.6390613326
 51
234.3609386674
  0
SPLINE
  5
F2
330
1F
100
AcDbEntity
  8
0
  6
Continuous
 62
     7
370
    15
100
AcDbSpline
210
0.0
220
0.0
230
1.0
 70
    24
 71
     3
 72
     8
 73
     4
 74
     0
 42
0.000000001
 43
0.00000001
 40
0.0
 40
0.0
 40
0.0
 40
0.0
 40
1.0
 40
1.0
 40
1.0
 40
1.0
 10
44.62977296691454
 20
117.9488542150812
 30
0.0
 10
44.62977296690268
 20
117.9488542150812
 30
0.0
 10
44.68854675645071
 20
117.9488542150813
 30
0.0
 10
44.77406789475844
 20
117.9488542150813
 30
0.0
  0
ARC
  5
F3
330
1F
100
AcDbEntity
  8
0
  6
Continuous
 62
     7
370
    15
100
AcDbCircle
 10
70.4331157734
 20
136.4488542151
 30
0.0
 40
31.75
100
AcDbArc
 50
74.2833781209
 51
105.9369715333
  0
SPLINE
  5
F4
330
1F
100
AcDbEntity
  8
0
  6
Continuous
 62
     7
370
    15
100
AcDbSpline
210
0.0
220
0.0
230
1.0
 70
    24
 71
     3
 72
     8
 73
     4
 74
     0
 42
0.000000001
 43
0.00000001
 40
0.0
 40
0.0
 40
0.0
 40
0.0
 40
1.0
 40
1.0
 40
1.0
 40
1.0
 10
79.03354681160253
 20
167.0118234093063
 30
0.0
 10
79.03354681160553
 20
167.0118234093093
 30
0.0
 10
78.99626455342107
 20
166.974541151123
 30
0.0
 10
78.93851132684692
 20
166.9167879245488
 30
0.0
  0
SPLINE
  5
F5
330
1F
100
AcDbEntity
  8
0
  6
Continuous
 62
     7
370
    15
100
AcDbSpline
210
0.0
220
0.0
230
1.0
 70
    24
 71
     3
 72
    10
 73
     6
 74
     0
 42
0.000000001
 43
0.00000001
 40
0.0
 40
0.0
 40
0.0
 40
0.0
 40
0.5
 40
0.5
 40
1.0
 40
1.0
 40
1.0
 40
1.0
 10
61.85546036595398
 20
166.8965235134574
 30
0.0
 10
61.81560678226131
 20
166.919823931922
 30
0.0
 10
61.78055911420758
 20
166.9403145693049
 30
0.0
 10
61.73024568729606
 20
166.9697303405557
 30
0.0
 10
61.71520873555187
 20
166.9785217022253
 30
0.0
 10
61.71520873552046
 20
166.9785217022437
 30
0.0
  0
ARC
  5
F6
330
1F
100
AcDbEntity
  8
0
  6
Continuous
 62
     7
370
    15
100
AcDbCircle
 10
70.4331157734
 20
136.4488542151
 30
0.0
 40
31.75000000000001
100
AcDbArc
 50
0.0
 51
74.2833781209
  0
SPLINE
  5
F7
330
1F
100
AcDbEntity
  8
0
  6
Continuous
 62
     7
370
    15
100
AcDbSpline
210
0.0
220
0.0
230
1.0
 70
    24
 71
     3
 72
    10
 73
     6
 74
     0
 42
0.000000001
 43
0.00000001
 40
0.0
 40
0.0
 40
0.0
 40
0.0
 40
0.5
 40
0.5
 40
1.0
 40
1.0
 40
1.0
 40
1.0
 10
102.0659584853775
 20
136.4488542150812
 30
0.0
 10
102.1020382253213
 20
136.4488542150812
 30
0.0
 10
102.1323687946349
 20
136.4488542150812
 30
0.0
 10
102.1729663775732
 20
136.4488542150812
 30
0.0
 10
102.1831157733773
 20
136.4488542150812
 30
0.0
 10
102.1831157733775
 20
136.4488542150812
 30
0.0
  0
ARC
  5
F8
330
1F
100
AcDbEntity
  8
0
  6
Continuous
 62
     7
370
    15
100
AcDbCircle
 10
70.4331157734
 20
136.4488542151
 30
0.0
 40
31.75000000000001
100
AcDbArc
 50
285.9369715325
 51
0.0
  0
ARC
  5
F9
330
1F
100
AcDbEntity
  8
0
  6
Continuous
 62
     7
370
    15
100
AcDbCircle
 10
70.4331157734
 20
136.4488542151
 30
0.0
 40
31.75
100
AcDbArc
 50
234.3609386674
 51
254.2833781166
  0
ARC
  5
FA
330
1F
100
AcDbEntity
  8
0
  6
Continuous
 62
     7
370
    15
100
AcDbCircle
 10
70.4331157734
 20
136.4488542151
 30
0.0
 40
31.75
100
AcDbArc
 50
105.9369715333
 51
215.6390613326
  0
SPLINE
  5
FB
330
1F
100
AcDbEntity
  8
0
  6
Continuous
 62
     8
370
    15
100
AcDbSpline
210
0.0
220
0.0
230
1.0
 70
    24
 71
     3
 72
     9
 73
     5
 74
     0
 42
0.000000001
 43
0.00000001
 40
0.0
 40
0.0
 40
0.0
 40
0.0
 40
0.5634001873711906
 40
1.0
 40
1.0
 40
1.0
 40
1.0
 10
92.93311666744714
 20
136.4488542150812
 30
0.0
 10
92.86076967430141
 20
136.4488542150812
 30
0.0
 10
92.7323582985734
 20
136.4488542150812
 30
0.0
 10
92.63843943999896
 20
136.4488542150812
 30
0.0
 10
92.59743448394303
 20
136.4488542150812
 30
0.0
  0
SPLINE
  5
FC
330
1F
100
AcDbEntity
  8
0
  6
Continuous
 62
     8
370
    15
100
AcDbSpline
210
0.0
220
0.0
230
1.0
 70
    24
 71
     3
 72
     9
 73
     5
 74
     0
 42
0.000000001
 43
0.00000001
 40
0.0
 40
0.0
 40
0.0
 40
0.0
 40
0.4412697676001843
 40
1.0
 40
1.0
 40
1.0
 40
1.0
 10
48.20811580914025
 20
136.4488542150812
 30
0.0
 10
48.17145674483639
 20
136.4488542150812
 30
0.0
 10
48.08838043416313
 20
136.4488542150812
 30
0.0
 10
47.98877015418781
 20
136.4488542150812
 30
0.0
 10
47.93311487930779
 20
136.4488542150812
 30
0.0
  0
INSERT
  5
108
330
1F
100
AcDbEntity
  8
DIM
100
AcDbBlockReference
  2
SW_CENTERMARKSYMBOL_0
 10
70.4331157734
 20
136.4488542151
 30
0.0
  0
LINE
  5
109
330
1F
100
AcDbEntity
  8
0
  6
Continuous
 62
     7
370
    15
100
AcDbLine
 10
225.8520394487
 20
104.6988532018
 30
0.0
 11
229.1645172906
 21
104.6988532018
 31
0.0
  0
LINE
  5
10A
330
1F
100
AcDbEntity
  8
0
  6
Continuous
 62
     7
370
    15
100
AcDbLine
 10
229.1645172906
 20
168.1988552284
 30
0.0
 11
225.8520394487
 21
168.1988552284
 31
0.0
  0
LINE
  5
10B
330
1F
100
AcDbEntity
  8
0
  6
Continuous
 62
     7
370
    15
100
AcDbLine
 10
215.5958877799
 20
104.6988532018
 30
0.0
 11
218.8083657918
 21
104.6988532018
 31
0.0
  0
LINE
  5
10C
330
1F
100
AcDbEntity
  8
0
  6
Continuous
 62
     7
370
    15
100
AcDbLine
 10
218.8083657918
 20
168.1988552284
 30
0.0
 11
215.5958877799
 21
168.1988552284
 31
0.0
  0
LINE
  5
10D
330
1F
100
AcDbEntity
  8
0
  6
Continuous
 62
     7
370
    15
100
AcDbLine
 10
225.8520394487
 20
168.1988552284
 30
0.0
 11
224.2302026523
 21
165.38975165
 31
0.0
  0
LINE
  5
10E
330
1F
100
AcDbEntity
  8
0
  6
Continuous
 62
     7
370
    15
100
AcDbLine
 10
224.2302026523
 20
107.5079567801
 30
0.0
 11
225.8520394487
 21
104.6988532018
 31
0.0
  0
LINE
  5
10F
330
1F
100
AcDbEntity
  8
0
  6
Continuous
 62
     7
370
    15
100
AcDbLine
 10
220.4302025882
 20
108.4488533508
 30
0.0
 11
224.2302026523
 21
108.4488533508
 31
0.0
  0
LINE
  5
110
330
1F
100
AcDbEntity
  8
0
  6
Continuous
 62
     7
370
    15
100
AcDbLine
 10
224.2302026523
 20
164.4488550793
 30
0.0
 11
220.4302025882
 21
164.4488550793
 31
0.0
  0
SPLINE
  5
111
330
1F
100
AcDbEntity
  8
0
  6
Continuous
 62
     7
370
    15
100
AcDbSpline
210
0.0
220
0.0
230
1.0
 70
     8
 71
     3
 72
    13
 73
     9
 74
     0
 42
0.000000001
 43
0.00000001
 40
0.0
 40
0.0
 40
0.0
 40
0.0
 40
0.2396666638789084
 40
0.368707961073432
 40
0.5004544382489503
 40
0.6321342041513328
 40
0.7609795617663282
 40
1.0
 40
1.0
 40
1.0
 40
1.0
 10
213.9302024540858
 20
114.4488543342905
 30
0.0
 10
213.9934988330261
 20
114.4420884540726
 30
0.0
 10
214.0908752409282
 20
114.4316796894175
 30
0.0
 10
214.2078376020754
 20
114.3685652834225
 30
0.0
 10
214.2881540470536
 20
114.3032894994045
 30
0.0
 10
214.352600612723
 20
114.2223716059902
 30
0.0
 10
214.4144604803216
 20
114.1050217883005
 30
0.0
 10
214.4240024304933
 20
114.0077889917315
 30
0.0
 10
214.4302023032116
 20
113.9446120780067
 30
0.0
  0
SPLINE
  5
112
330
1F
100
AcDbEntity
  8
0
  6
Continuous
 62
     7
370
    15
100
AcDbSpline
210
0.0
220
0.0
230
1.0
 70
     8
 71
     3
 72
    13
 73
     9
 74
     0
 42
0.000000001
 43
0.00000001
 40
0.0
 40
0.0
 40
0.0
 40
0.0
 40
0.2394572558906999
 40
0.3683612563795835
 40
0.5000003702401864
 40
0.6316398593342333
 40
0.7605437324899833
 40
1.0
 40
1.0
 40
1.0
 40
1.0
 10
214.4302023032116
 20
158.9488551091509
 30
0.0
 10
214.4235233431082
 20
158.885956760985
 30
0.0
 10
214.4132489827601
 20
158.7891991393861
 30
0.0
 10
214.3509003417392
 20
158.6727906607598
 30
0.0
 10
214.2863691261958
 20
158.5926873722608
 30
0.0
 10
214.2062660899549
 20
158.5281559220663
 30
0.0
 10
214.0898580067309
 20
158.465806854588
 30
0.0
 10
213.9931005960402
 20
158.4555328302258
 30
0.0
 10
213.9302024540858
 20
158.4488540958719
 30
0.0
  0
LINE
  5
113
330
1F
100
AcDbEntity
  8
0
  6
Continuous
 62
     7
370
    15
100
AcDbLine
 10
211.2302023841
 20
114.2238542508
 30
0.0
 11
211.7127164481
 21
114.4488543343
 31
0.0
  0
LINE
  5
114
330
1F
100
AcDbEntity
  8
0
  6
Continuous
 62
     7
370
    15
100
AcDbLine
 10
211.7127164481
 20
158.4488540959
 30
0.0
 11
211.2302023841
 21
158.6738541793
 31
0.0
  0
LINE
  5
115
330
1F
100
AcDbEntity
  8
0
  6
Continuous
 62
     7
370
    15
100
AcDbLine
 10
211.2302023841
 20
158.6738541793
 30
0.0
 11
143.685891099
 21
148.8235496055
 31
0.0
  0
LINE
  5
116
330
1F
100
AcDbEntity
  8
0
  6
Continuous
 62
     7
370
    15
100
AcDbLine
 10
143.685891099
 20
124.0741588246
 30
0.0
 11
211.2302023841
 21
114.2238542508
 31
0.0
  0
LINE
  5
117
330
1F
100
AcDbEntity
  8
0
  6
Continuous
 62
     7
370
    15
100
AcDbLine
 10
211.7127164481
 20
114.4488543343
 30
0.0
 11
213.9302024541
 21
114.4488543343
 31
0.0
  0
LINE
  5
118
330
1F
100
AcDbEntity
  8
0
  6
Continuous
 62
     7
370
    15
100
AcDbLine
 10
213.9302024541
 20
158.4488540959
 30
0.0
 11
211.7127164481
 21
158.4488540959
 31
0.0
  0
SPLINE
  5
119
330
1F
100
AcDbEntity
  8
0
  6
Continuous
 62
     7
370
    15
100
AcDbSpline
210
0.0
220
0.0
230
1.0
 70
     8
 71
     3
 72
    11
 73
     7
 74
     0
 42
0.000000001
 43
0.00000001
 40
0.0
 40
0.0
 40
0.0
 40
0.0
 40
0.2695107610838574
 40
0.5617367093826601
 40
0.7894228192339617
 40
1.0
 40
1.0
 40
1.0
 40
1.0
 10
230.3302016032295
 20
120.4205691885309
 30
0.0
 10
230.3619540855709
 20
120.7061939592538
 30
0.0
 10
230.4281352461057
 20
121.3015168256907
 30
0.0
 10
230.9677488437438
 20
121.9837030563522
 30
0.0
 10
231.6454854560791
 20
122.3819484739494
 30
0.0
 10
232.1079814141735
 20
122.4271400767771
 30
0.0
 10
232.3302019310551
 20
122.4488537829475
 30
0.0
  0
SPLINE
  5
11A
330
1F
100
AcDbEntity
  8
0
  6
Continuous
 62
     7
370
    15
100
AcDbSpline
210
0.0
220
0.0
230
1.0
 70
     8
 71
     3
 72
    11
 73
     7
 74
     0
 42
0.000000001
 43
0.00000001
 40
0.0
 40
0.0
 40
0.0
 40
0.0
 40
0.2706712763619339
 40
0.5632117910333656
 40
0.790389024327412
 40
1.0
 40
1.0
 40
1.0
 40
1.0
 10
232.3302019310551
 20
150.4488546472149
 30
0.0
 10
232.043795656245
 20
150.4848748840756
 30
0.0
 10
231.4478425386217
 20
150.5598256597489
 30
0.0
 10
230.7736045512356
 20
151.1113432609423
 30
0.0
 10
230.3871422992527
 20
151.7942066613881
 30
0.0
 10
230.3486660368683
 20
152.2556814058774
 30
0.0
 10
230.3302016032295
 20
152.4771392416315
 30
0.0
  0
LINE
  5
11B
330
1F
100
AcDbEntity
  8
0
  6
Continuous
 62
     7
370
    15
100
AcDbLine
 10
309.2094797564
 20
120.4488534551
 30
0.0
 11
311.2302038742
 21
123.9488540288
 31
0.0
  0
LINE
  5
11C
330
1F
100
AcDbEntity
  8
0
  6
Continuous
 62
     7
370
    15
100
AcDbLine
 10
311.2302038742
 20
148.9488544013
 30
0.0
 11
309.2094797564
 21
152.448854975
 31
0.0
  0
LINE
  5
11D
330
1F
100
AcDbEntity
  8
0
  6
Continuous
 62
     7
370
    15
100
AcDbLine
 10
295.2302012516
 20
120.4488534551
 30
0.0
 11
309.2094797564
 21
120.4488534551
 31
0.0
  0
LINE
  5
11E
330
1F
100
AcDbEntity
  8
0
  6
Continuous
 62
     7
370
    15
100
AcDbLine
 10
309.2094797564
 20
152.448854975
 30
0.0
 11
295.2302012516
 21
152.448854975
 31
0.0
  0
LINE
  5
11F
330
1F
100
AcDbEntity
  8
0
  6
Continuous
 62
     7
370
    15
100
AcDbLine
 10
295.2302012516
 20
152.448854975
 30
0.0
 11
293.7302056623
 21
150.9488537978
 31
0.0
  0
LINE
  5
120
330
1F
100
AcDbEntity
  8
0
  6
Continuous
 62
     7
370
    15
100
AcDbLine
 10
293.7302056623
 20
121.9488546323
 30
0.0
 11
295.2302012516
 21
120.4488534551
 31
0.0
  0
LINE
  5
121
330
1F
100
AcDbEntity
  8
0
  6
Continuous
 62
     7
370
    15
100
AcDbLine
 10
232.3302019311
 20
122.4488537829
 30
0.0
 11
276.8102053476
 21
122.4488537829
 31
0.0
  0
LINE
  5
122
330
1F
100
AcDbEntity
  8
0
  6
Continuous
 62
     7
370
    15
100
AcDbLine
 10
276.8102053476
 20
150.4488546472
 30
0.0
 11
232.3302019311
 21
150.4488546472
 31
0.0
  0
LINE
  5
123
330
1F
100
AcDbEntity
  8
0
  6
Continuous
 62
     7
370
    15
100
AcDbLine
 10
276.8102053476
 20
122.4488537829
 30
0.0
 11
279.8602048231
 21
125.4988541897
 31
0.0
  0
LINE
  5
124
330
1F
100
AcDbEntity
  8
0
  6
Continuous
 62
     7
370
    15
100
AcDbLine
 10
279.8602048231
 20
147.3988542404
 30
0.0
 11
276.8102053476
 21
150.4488546472
 31
0.0
  0
SPLINE
  5
125
330
1F
100
AcDbEntity
  8
0
  6
Continuous
 62
     7
370
    15
100
AcDbSpline
210
0.0
220
0.0
230
1.0
 70
     8
 71
     3
 72
    11
 73
     7
 74
     0
 42
0.000000001
 43
0.00000001
 40
0.0
 40
0.0
 40
0.0
 40
0.0
 40
0.2418865760438377
 40
0.5000022153993059
 40
0.7581139104075142
 40
1.0
 40
1.0
 40
1.0
 40
1.0
 10
142.8301993680554
 20
125.063691854115
 30
0.0
 10
142.8417772170975
 20
124.9486646321479
 30
0.0
 10
142.8657097158136
 20
124.7108925872687
 30
0.0
 10
143.0583002449191
 20
124.3961951280675
 30
0.0
 10
143.3419100624747
 20
124.1602050245681
 30
0.0
 10
143.573738468787
 20
124.1022135910773
 30
0.0
 10
143.6858910990314
 20
124.0741588246183
 30
0.0
  0
SPLINE
  5
126
330
1F
100
AcDbEntity
  8
0
  6
Continuous
 62
     7
370
    15
100
AcDbSpline
210
0.0
220
0.0
230
1.0
 70
     8
 71
     3
 72
    11
 73
     7
 74
     0
 42
0.000000001
 43
0.00000001
 40
0.0
 40
0.0
 40
0.0
 40
0.0
 40
0.2418860895924856
 40
0.4999977846006939
 40
0.7581134239561622
 40
1.0
 40
1.0
 40
1.0
 40
1.0
 10
143.6858910990315
 20
148.8235496055441
 30
0.0
 10
143.573738468787
 20
148.7954948390851
 30
0.0
 10
143.3419100624747
 20
148.7375034055943
 30
0.0
 10
143.0583002449191
 20
148.5015133020949
 30
0.0
 10
142.8657097158136
 20
148.1868158428937
 30
0.0
 10
142.8417772170975
 20
147.9490437980145
 30
0.0
 10
142.8301993680554
 20
147.8340165760474
 30
0.0
  0
LINE
  5
127
330
1F
100
AcDbEntity
  8
0
  6
Continuous
 62
     7
370
    15
100
AcDbLine
 10
279.8602048231
 20
125.4988541897
 30
0.0
 11
293.7302056623
 21
125.4988541897
 31
0.0
  0
LINE
  5
128
330
1F
100
AcDbEntity
  8
0
  6
Continuous
 62
     7
370
    15
100
AcDbLine
 10
293.7302056623
 20
147.3988542404
 30
0.0
 11
279.8602048231
 21
147.3988542404
 31
0.0
  0
ARC
  5
129
330
1F
100
AcDbEntity
  8
0
  6
Continuous
 62
     7
370
    15
100
AcDbCircle
 10
214.8302023824
 20
167.0331687911
 30
0.0
 40
0.3999999982177371
100
AcDbArc
 50
135.0000000969
 51
180.0000004552
  0
ARC
  5
12A
330
1F
100
AcDbEntity
  8
0
  6
Continuous
 62
     7
370
    15
100
AcDbCircle
 10
214.8302023824
 20
105.8645396391
 30
0.0
 40
0.3999999982177371
100
AcDbArc
 50
179.9999995448
 51
224.9999999031
  0
LINE
  5
12B
330
1F
100
AcDbEntity
  8
0
  6
Continuous
 62
     7
370
    15
100
AcDbLine
 10
215.313045114
 20
168.0816985738
 30
0.0
 11
214.5473596563
 21
167.316011719
 31
0.0
  0
ARC
  5
12C
330
1F
100
AcDbEntity
  8
0
  6
Continuous
 62
     7
370
    15
100
AcDbCircle
 10
215.5958878097
 20
105.0988542168
 30
0.0
 40
0.4000000016910974
100
AcDbArc
 50
225.0000001079
 51
269.9999999152
  0
ARC
  5
12D
330
1F
100
AcDbEntity
  8
0
  6
Continuous
 62
     7
370
    15
100
AcDbCircle
 10
229.1645169601
 20
105.0988542102
 30
0.0
 40
0.399999995354907
100
AcDbArc
 50
269.9999998446
 51
315.0000005595
  0
LINE
  5
12E
330
1F
100
AcDbEntity
  8
0
  6
Continuous
 62
     7
370
    15
100
AcDbLine
 10
218.8083657918
 20
104.6988532018
 30
0.0
 11
220.4302025882
 21
107.5079567801
 31
0.0
  0
LINE
  5
12F
330
1F
100
AcDbEntity
  8
0
  6
Continuous
 62
     7
370
    15
100
AcDbLine
 10
214.5473596563
 20
105.5816967111
 30
0.0
 11
215.313045114
 21
104.8160098564
 31
0.0
  0
ARC
  5
130
330
1F
100
AcDbEntity
  8
0
  6
Continuous
 62
     7
370
    15
100
AcDbCircle
 10
229.1645169601
 20
167.79885422
 30
0.0
 40
0.3999999953549171
100
AcDbArc
 50
44.9999994405
 51
90.0000001554
  0
ARC
  5
131
330
1F
100
AcDbEntity
  8
0
  6
Continuous
 62
     7
370
    15
100
AcDbCircle
 10
215.5958878097
 20
167.7988542134
 30
0.0
 40
0.4000000016910767
100
AcDbArc
 50
90.0000000848
 51
134.9999998921
  0
LINE
  5
132
330
1F
100
AcDbEntity
  8
0
  6
Continuous
 62
     7
370
    15
100
AcDbLine
 10
220.4302025882
 20
165.38975165
 30
0.0
 11
218.8083657918
 21
168.1988552284
 31
0.0
  0
LINE
  5
133
330
1F
100
AcDbEntity
  8
0
  6
Continuous
 62
     7
370
    15
100
AcDbLine
 10
229.4473599566
 20
104.8160098564
 30
0.0
 11
230.2130449486
 21
105.5816967111
 31
0.0
  0
LINE
  5
134
330
1F
100
AcDbEntity
  8
0
  6
Continuous
 62
     7
370
    15
100
AcDbLine
 10
230.2130449486
 20
167.316011719
 30
0.0
 11
229.4473599566
 21
168.0816985738
 31
0.0
  0
ARC
  5
135
330
1F
100
AcDbEntity
  8
0
  6
Continuous
 62
     7
370
    15
100
AcDbCircle
 10
229.9302023857
 20
167.0331687911
 30
0.0
 40
0.3999999982049474
100
AcDbArc
 50
359.9999995081
 51
44.9999999822
  0
ARC
  5
136
330
1F
100
AcDbEntity
  8
0
  6
Continuous
 62
     7
370
    15
100
AcDbCircle
 10
229.9302023857
 20
105.8645396391
 30
0.0
 40
0.3999999982049474
100
AcDbArc
 50
315.0000000178
 51
0.0000004919
  0
LINE
  5
137
330
1F
100
AcDbEntity
  8
0
  6
Continuous
 62
     7
370
    15
100
AcDbLine
 10
225.8520394487
 20
104.6988532018
 30
0.0
 11
225.8520394487
 21
168.1988552284
 31
0.0
  0
LINE
  5
138
330
1F
100
AcDbEntity
  8
0
  6
Continuous
 62
     7
370
    15
100
AcDbLine
 10
229.1645172906
 20
136.4488542151
 30
0.0
 11
229.1645172906
 21
167.0118231397
 31
0.0
  0
LINE
  5
139
330
1F
100
AcDbEntity
  8
0
  6
Continuous
 62
     7
370
    15
100
AcDbLine
 10
229.1645172906
 20
105.9191875231
 30
0.0
 11
229.1645172906
 21
136.4488542151
 31
0.0
  0
LINE
  5
13A
330
1F
100
AcDbEntity
  8
0
  6
Continuous
 62
     7
370
    15
100
AcDbLine
 10
215.5958877799
 20
105.9191875231
 30
0.0
 11
215.5958877799
 21
136.4488542151
 31
0.0
  0
LINE
  5
13B
330
1F
100
AcDbEntity
  8
0
  6
Continuous
 62
     7
370
    15
100
AcDbLine
 10
215.5958877799
 20
136.4488542151
 30
0.0
 11
215.5958877799
 21
167.0118231397
 31
0.0
  0
LINE
  5
13C
330
1F
100
AcDbEntity
  8
0
  6
Continuous
 62
     7
370
    15
100
AcDbLine
 10
218.8083657918
 20
167.0118231397
 30
0.0
 11
218.8083657918
 21
136.4488542151
 31
0.0
  0
LINE
  5
13D
330
1F
100
AcDbEntity
  8
0
  6
Continuous
 62
     7
370
    15
100
AcDbLine
 10
218.8083657918
 20
136.4488542151
 30
0.0
 11
218.8083657918
 21
105.9191875231
 31
0.0
  0
LINE
  5
13E
330
1F
100
AcDbEntity
  8
0
  6
Continuous
 62
     7
370
    15
100
AcDbLine
 10
218.8083657918
 20
104.6988532018
 30
0.0
 11
218.8083657918
 21
105.9191875231
 31
0.0
  0
LINE
  5
13F
330
1F
100
AcDbEntity
  8
0
  6
Continuous
 62
     7
370
    15
100
AcDbLine
 10
218.8083657918
 20
167.0118231397
 30
0.0
 11
218.8083657918
 21
168.1988552284
 31
0.0
  0
SPLINE
  5
140
330
1F
100
AcDbEntity
  8
0
  6
Continuous
 62
     7
370
    15
100
AcDbSpline
210
0.0
220
0.0
230
1.0
 70
    24
 71
     3
 72
    10
 73
     6
 74
     0
 42
0.000000001
 43
0.00000001
 40
0.0
 40
0.0
 40
0.0
 40
0.0
 40
0.5
 40
0.5
 40
1.0
 40
1.0
 40
1.0
 40
1.0
 10
229.1645169590504
 20
136.4488542150812
 30
0.0
 10
229.2155414171311
 20
136.4488542150812
 30
0.0
 10
229.2685847154305
 20
136.4488542150812
 30
0.0
 10
229.3665959501928
 20
136.4488542150812
 30
0.0
 10
229.411279932146
 20
136.4488542150812
 30
0.0
 10
229.4473596715892
 20
136.4488542150812
 30
0.0
  0
LINE
  5
141
330
1F
100
AcDbEntity
  8
0
  6
Continuous
 62
     7
370
    15
100
AcDbLine
 10
229.4473599566
 20
136.4488542117
 30
0.0
 11
229.4473599566
 21
106.0011848878
 31
0.0
  0
SPLINE
  5
142
330
1F
100
AcDbEntity
  8
0
  6
Continuous
 62
     7
370
    15
100
AcDbSpline
210
0.0
220
0.0
230
1.0
 70
     8
 71
     3
 72
    10
 73
     6
 74
     0
 42
0.000000001
 43
0.00000001
 40
0.0
 40
0.0
 40
0.0
 40
0.0
 40
0.5
 40
0.5
 40
1.0
 40
1.0
 40
1.0
 40
1.0
 10
229.1645169588988
 20
105.9191867278462
 30
0.0
 10
229.2215965228771
 20
105.9191867277467
 30
0.0
 10
229.2771637140682
 20
105.9279856369501
 30
0.0
 10
229.3735435479259
 20
105.9575879794695
 30
0.0
 10
229.4141760145463
 20
105.9779199665443
 30
0.0
 10
229.4473596746308
 20
106.0011849179491
 30
0.0
  0
LINE
  5
143
330
1F
100
AcDbEntity
  8
0
  6
Continuous
 62
     7
370
    15
100
AcDbLine
 10
229.4473599566
 20
166.9167872589
 30
0.0
 11
229.4473599566
 21
136.4488542117
 31
0.0
  0
SPLINE
  5
144
330
1F
100
AcDbEntity
  8
0
  6
Continuous
 62
     7
370
    15
100
AcDbSpline
210
0.0
220
0.0
230
1.0
 70
     8
 71
     3
 72
     8
 73
     4
 74
     0
 42
0.000000001
 43
0.00000001
 40
0.0
 40
0.0
 40
0.0
 40
0.0
 40
1.0
 40
1.0
 40
1.0
 40
1.0
 10
229.4473596733275
 20
166.9167879234633
 30
0.0
 10
229.3761707671923
 20
166.9745686554344
 30
0.0
 10
229.2730634478108
 20
167.0118234093085
 30
0.0
 10
229.1645169588983
 20
167.011823409091
 30
0.0
  0
SPLINE
  5
145
330
1F
100
AcDbEntity
  8
0
  6
Continuous
 62
     7
370
    15
100
AcDbSpline
210
0.0
220
0.0
230
1.0
 70
    24
 71
     3
 72
    10
 73
     6
 74
     0
 42
0.000000001
 43
0.00000001
 40
0.0
 40
0.0
 40
0.0
 40
0.0
 40
0.5
 40
0.5
 40
1.0
 40
1.0
 40
1.0
 40
1.0
 10
215.3130450960504
 20
136.4488542150812
 30
0.0
 10
215.3491248359942
 20
136.4488542150812
 30
0.0
 10
215.3938088182766
 20
136.4488542150812
 30
0.0
 10
215.4918200532168
 20
136.4488542150812
 30
0.0
 10
215.5448633513631
 20
136.4488542150812
 30
0.0
 10
215.5958878090877
 20
136.4488542150812
 30
0.0
  0
SPLINE
  5
146
330
1F
100
AcDbEntity
  8
0
  6
Continuous
 62
     7
370
    15
100
AcDbSpline
210
0.0
220
0.0
230
1.0
 70
     8
 71
     3
 72
    10
 73
     6
 74
     0
 42
0.000000001
 43
0.00000001
 40
0.0
 40
0.0
 40
0.0
 40
0.0
 40
0.5
 40
0.5
 40
1.0
 40
1.0
 40
1.0
 40
1.0
 10
215.313045097836
 20
106.0011849146726
 30
0.0
 10
215.3462285466151
 20
105.9779201117034
 30
0.0
 10
215.3868377756301
 20
105.9575964258851
 30
0.0
 10
215.4832418502063
 20
105.9279841468112
 30
0.0
 10
215.5388074910177
 20
105.9191867274202
 30
0.0
 10
215.595887809263
 20
105.9191867274202
 30
0.0
  0
LINE
  5
147
330
1F
100
AcDbEntity
  8
0
  6
Continuous
 62
     7
370
    15
100
AcDbLine
 10
215.313045114
 20
106.0011848878
 30
0.0
 11
215.313045114
 21
136.4488542126
 31
0.0
  0
LINE
  5
148
330
1F
100
AcDbEntity
  8
0
  6
Continuous
 62
     7
370
    15
100
AcDbLine
 10
215.313045114
 20
136.4488542126
 30
0.0
 11
215.313045114
 21
166.9167872589
 31
0.0
  0
SPLINE
  5
149
330
1F
100
AcDbEntity
  8
0
  6
Continuous
 62
     7
370
    15
100
AcDbSpline
210
0.0
220
0.0
230
1.0
 70
     8
 71
     3
 72
     8
 73
     4
 74
     0
 42
0.000000001
 43
0.00000001
 40
0.0
 40
0.0
 40
0.0
 40
0.0
 40
1.0
 40
1.0
 40
1.0
 40
1.0
 10
215.5958878090443
 20
167.0118234093063
 30
0.0
 10
215.4873873930498
 20
167.0118234093093
 30
0.0
 10
215.3842001151134
 20
166.974541151123
 30
0.0
 10
215.3130450961073
 20
166.9167879245488
 30
0.0
  0
LINE
  5
14A
330
1F
100
AcDbEntity
  8
0
  6
Continuous
 62
     7
370
    15
100
AcDbLine
 10
224.2302026523
 20
165.38975165
 30
0.0
 11
224.2302026523
 21
107.5079567801
 31
0.0
  0
SPLINE
  5
14B
330
1F
100
AcDbEntity
  8
0
  6
Continuous
 62
     7
370
    15
100
AcDbSpline
210
0.0
220
0.0
230
1.0
 70
     8
 71
     3
 72
     8
 73
     4
 74
     0
 42
0.000000001
 43
0.00000001
 40
0.0
 40
0.0
 40
0.0
 40
0.0
 40
0.000837255004582
 40
0.000837255004582
 40
0.000837255004582
 40
0.000837255004582
 10
218.8083657439938
 20
105.919186729529
 30
0.0
 10
218.9157913172892
 20
106.0491930124832
 30
0.0
 10
219.0224804506757
 20
106.1793550167435
 30
0.0
 10
219.1283846005341
 20
106.3096788968665
 30
0.0
  0
LINE
  5
14C
330
1F
100
AcDbEntity
  8
0
  6
Continuous
 62
     7
370
    15
100
AcDbLine
 10
218.8083657918
 20
136.4488542151
 30
0.0
 11
220.4302025882
 21
136.4488542151
 31
0.0
  0
LINE
  5
14D
330
1F
100
AcDbEntity
  8
0
  6
Continuous
 62
     7
370
    15
100
AcDbLine
 10
220.4302025882
 20
108.6500600051
 30
0.0
 11
220.4302025882
 21
136.4488542151
 31
0.0
  0
SPLINE
  5
14E
330
1F
100
AcDbEntity
  8
0
  6
Continuous
 62
     7
370
    15
100
AcDbSpline
210
0.0
220
0.0
230
1.0
 70
     8
 71
     3
 72
     8
 73
     4
 74
     0
 42
0.000000001
 43
0.00000001
 40
0.0000000000192562
 40
0.0000000000192562
 40
0.0000000000192562
 40
0.0000000000192562
 40
0.0026780796350986
 40
0.0026780796350986
 40
0.0026780796350986
 40
0.0026780796350986
 10
219.1283846231479
 20
106.3096788824597
 30
0.0
 10
219.5632492070031
 20
107.0892903010029
 30
0.0
 10
219.9972625969082
 20
107.8693774651367
 30
0.0
 10
220.4302023840504
 20
108.6500594176139
 30
0.0
  0
SPLINE
  5
14F
330
1F
100
AcDbEntity
  8
0
  6
Continuous
 62
     7
370
    15
100
AcDbSpline
210
0.0
220
0.0
230
1.0
 70
     8
 71
     3
 72
     8
 73
     4
 74
     0
 42
0.000000001
 43
0.00000001
 40
0.0000000000565945
 40
0.0000000000565945
 40
0.0000000000565945
 40
0.0000000000565945
 40
0.0008709498345046
 40
0.0008709498345046
 40
0.0008709498345046
 40
0.0008709498345046
 10
219.1990124883975
 20
166.4613923352838
 30
0.0
 10
219.0691637370317
 20
166.6449993023163
 30
0.0
 10
218.9389395830871
 20
166.8284737335775
 30
0.0
 10
218.8083657421498
 20
167.0118234090338
 30
0.0
  0
SPLINE
  5
150
330
1F
100
AcDbEntity
  8
0
  6
Continuous
 62
     7
370
    15
100
AcDbSpline
210
0.0
220
0.0
230
1.0
 70
     8
 71
     3
 72
     8
 73
     4
 74
     0
 42
0.000000001
 43
0.00000001
 40
0.0
 40
0.0
 40
0.0
 40
0.0
 40
0.0025330787421051
 40
0.0025330787421051
 40
0.0025330787421051
 40
0.0025330787421051
 10
219.1990124983913
 20
166.4613923077605
 30
0.0
 10
219.6102436448157
 20
165.7239426144992
 30
0.0
 10
220.0207035215581
 20
164.9860620228196
 30
0.0
 10
220.4302023879706
 20
164.2476490054048
 30
0.0
  0
LINE
  5
151
330
1F
100
AcDbEntity
  8
0
  6
Continuous
 62
     7
370
    15
100
AcDbLine
 10
220.4302025882
 20
136.4488542151
 30
0.0
 11
220.4302025882
 21
164.247648425
 31
0.0
  0
LINE
  5
152
330
1F
100
AcDbEntity
  8
0
  6
Continuous
 62
     7
370
    15
100
AcDbLine
 10
214.5473596563
 20
106.8134788495
 30
0.0
 11
214.5473596563
 21
136.448854213
 31
0.0
  0
LINE
  5
153
330
1F
100
AcDbEntity
  8
0
  6
Continuous
 62
     7
370
    15
100
AcDbLine
 10
214.5473596563
 20
136.448854213
 30
0.0
 11
214.5473596563
 21
166.0842295807
 31
0.0
  0
SPLINE
  5
154
330
1F
100
AcDbEntity
  8
0
  6
Continuous
 62
     7
370
    15
100
AcDbSpline
210
0.0
220
0.0
230
1.0
 70
     8
 71
     3
 72
     9
 73
     5
 74
     0
 42
0.000000001
 43
0.00000001
 40
0.0
 40
0.0
 40
0.0
 40
0.0
 40
0.5013664788243524
 40
1.0
 40
1.0
 40
1.0
 40
1.0
 10
214.9610319325558
 20
166.6305628203499
 30
0.0
 10
214.8916777220081
 20
166.5395920769209
 30
0.0
 10
214.7533473519555
 20
166.3581464732134
 30
0.0
 10
214.6158970164184
 20
166.1753681706318
 30
0.0
 10
214.5473596716227
 20
166.084228782021
 30
0.0
  0
SPLINE
  5
155
330
1F
100
AcDbEntity
  8
0
  6
Continuous
 62
     7
370
    15
100
AcDbSpline
210
0.0
220
0.0
230
1.0
 70
     8
 71
     3
 72
     8
 73
     4
 74
     0
 42
0.000000001
 43
0.00000001
 40
0.0
 40
0.0
 40
0.0
 40
0.0
 40
0.0005364352012432
 40
0.0005364352012432
 40
0.0005364352012432
 40
0.0005364352012432
 10
215.3130450961049
 20
166.9167879245504
 30
0.0
 10
215.1955877376645
 20
166.8214532375943
 30
0.0
 10
215.078248420579
 20
166.7260457646496
 30
0.0
 10
214.9610320316633
 20
166.6305629015394
 30
0.0
  0
SPLINE
  5
156
330
1F
100
AcDbEntity
  8
0
  6
Continuous
 62
     7
370
    15
100
AcDbSpline
210
0.0
220
0.0
230
1.0
 70
     8
 71
     3
 72
     8
 73
     4
 74
     0
 42
0.000000001
 43
0.00000001
 40
0.0
 40
0.0
 40
0.0
 40
0.0
 40
0.0005532767344487
 40
0.0005532767344487
 40
0.0005532767344487
 40
0.0005532767344487
 10
214.9908184103021
 20
106.2281880064395
 30
0.0
 10
215.0978801278459
 20
106.1523950753258
 30
0.0
 10
215.2052942539962
 20
106.0767286653574
 30
0.0
 10
215.3130450979367
 20
106.0011849147092
 30
0.0
  0
SPLINE
  5
157
330
1F
100
AcDbEntity
  8
0
  6
Continuous
 62
     7
370
    15
100
AcDbSpline
210
0.0
220
0.0
230
1.0
 70
     8
 71
     3
 72
     9
 73
     5
 74
     0
 42
0.000000001
 43
0.00000001
 40
0.0
 40
0.0
 40
0.0
 40
0.0
 40
0.501306738790161
 40
1.0
 40
1.0
 40
1.0
 40
1.0
 10
214.9908184032945
 20
106.2281880055481
 30
0.0
 10
214.9164626817423
 20
106.3256085250659
 30
0.0
 10
214.7681388795696
 20
106.5199416787612
 30
0.0
 10
214.6208244037284
 20
106.7158042882853
 30
0.0
 10
214.5473596673477
 20
106.813479651778
 30
0.0
  0
SPLINE
  5
158
330
1F
100
AcDbEntity
  8
0
  6
Continuous
 62
     7
370
    15
100
AcDbSpline
210
0.0
220
0.0
230
1.0
 70
     8
 71
     3
 72
     8
 73
     4
 74
     0
 42
0.000000001
 43
0.00000001
 40
0.0
 40
0.0
 40
0.0
 40
0.0
 40
0.0008530937296102
 40
0.0008530937296102
 40
0.0008530937296102
 40
0.0008530937296102
 10
230.0068224309062
 20
166.4613923073323
 30
0.0
 10
229.8206465343894
 20
166.6133820239993
 30
0.0
 10
229.6341522919915
 20
166.7651770234567
 30
0.0
 10
229.4473596733319
 20
166.916787923466
 30
0.0
  0
LINE
  5
159
330
1F
100
AcDbEntity
  8
0
  6
Continuous
 62
     7
370
    15
100
AcDbLine
 10
230.2130449486
 20
166.2478294294
 30
0.0
 11
230.0068221909
 21
166.4613928717
 31
0.0
  0
LINE
  5
15A
330
1F
100
AcDbEntity
  8
0
  6
Continuous
 62
     7
370
    15
100
AcDbLine
 10
230.2130449486
 20
166.2478294294
 30
0.0
 11
230.2130449486
 21
136.4488542135
 31
0.0
  0
LINE
  5
15B
330
1F
100
AcDbEntity
  8
0
  6
Continuous
 62
     7
370
    15
100
AcDbLine
 10
230.2130449486
 20
136.4488542135
 30
0.0
 11
230.2130449486
 21
106.6498790007
 31
0.0
  0
SPLINE
  5
15C
330
1F
100
AcDbEntity
  8
0
  6
Continuous
 62
     7
370
    15
100
AcDbSpline
210
0.0
220
0.0
230
1.0
 70
     8
 71
     3
 72
     8
 73
     4
 74
     0
 42
0.000000001
 43
0.00000001
 40
0.0
 40
0.0
 40
0.0
 40
0.0
 40
0.0004729524062039
 40
0.0004729524062039
 40
0.0004729524062039
 40
0.0004729524062039
 10
229.8844913305372
 20
106.309678886506
 30
0.0
 10
229.9940307812307
 20
106.4230582679404
 30
0.0
 10
230.1035489370033
 20
106.5364582271998
 30
0.0
 10
230.2130450968165
 20
106.6498794173665
 30
0.0
  0
SPLINE
  5
15D
330
1F
100
AcDbEntity
  8
0
  6
Continuous
 62
     7
370
    15
100
AcDbSpline
210
0.0
220
0.0
230
1.0
 70
     8
 71
     3
 72
     8
 73
     4
 74
     0
 42
0.000000001
 43
0.00000001
 40
0.0
 40
0.0
 40
0.0
 40
0.0
 40
0.000751447134276
 40
0.000751447134276
 40
0.000751447134276
 40
0.000751447134276
 10
229.4473596751945
 20
106.0011849167548
 30
0.0
 10
229.5937042760546
 20
106.1037866192584
 30
0.0
 10
229.7394280590846
 20
106.2066147076337
 30
0.0
 10
229.8844913146725
 20
106.3096789027305
 30
0.0
  0
SPLINE
  5
15E
330
1F
100
AcDbEntity
  8
0
  6
Continuous
 62
     7
370
    15
100
AcDbSpline
210
0.0
220
0.0
230
1.0
 70
    24
 71
     3
 72
    10
 73
     6
 74
     0
 42
0.000000001
 43
0.00000001
 40
0.0
 40
0.0
 40
0.0
 40
0.0
 40
0.5
 40
0.5
 40
1.0
 40
1.0
 40
1.0
 40
1.0
 10
214.4302023842234
 20
136.4488542150812
 30
0.0
 10
214.4302023834306
 20
136.4488542150812
 30
0.0
 10
214.4403517787892
 20
136.4488542150812
 30
0.0
 10
214.4809493614422
 20
136.4488542150812
 30
0.0
 10
214.5112799309123
 20
136.4488542150812
 30
0.0
 10
214.5473596710504
 20
136.4488542150812
 30
0.0
  0
SPLINE
  5
15F
330
1F
100
AcDbEntity
  8
0
  6
Continuous
 62
     7
370
    15
100
AcDbSpline
210
0.0
220
0.0
230
1.0
 70
     8
 71
     3
 72
    10
 73
     6
 74
     0
 42
0.000000001
 43
0.00000001
 40
0.0
 40
0.0
 40
0.0
 40
0.0
 40
0.5
 40
0.5
 40
1.0
 40
1.0
 40
1.0
 40
1.0
 10
214.4302023842234
 20
107.1429197070501
 30
0.0
 10
214.4302023825174
 20
107.0791741600191
 30
0.0
 10
214.4440337250309
 20
107.0173786528276
 30
0.0
 10
214.4862254286563
 20
106.9066525919274
 30
0.0
 10
214.514734162373
 20
106.8569650999072
 30
0.0
 10
214.5473596684324
 20
106.8134796527117
 30
0.0
  0
SPLINE
  5
160
330
1F
100
AcDbEntity
  8
0
  6
Continuous
 62
     7
370
    15
100
AcDbSpline
210
0.0
220
0.0
230
1.0
 70
    24
 71
     3
 72
    31
 73
    27
 74
     0
 42
0.000000001
 43
0.00000001
 40
0.0
 40
0.0
 40
0.0
 40
0.0
 40
0.0133116724878399
 40
0.026610482979202
 40
0.0399002793442512
 40
0.0531849172859283
 40
0.0664682569991215
 40
0.0797541598103126
 40
0.0930464848122974
 40
0.1063490855086292
 40
0.1196658064823286
 40
0.1817950735652574
 40
0.2439504667220279
 40
0.3077169628183483
 40
0.3715105117133563
 40
0.5006201173304463
 40
0.6296447221270317
 40
0.6932864260143646
 40
0.756955940040429
 40
0.8188879793483971
 40
0.8808473402561018
 40
0.9046957897998805
 40
0.928513051309268
 40
0.9523213477010868
 40
0.9761429269825835
 40
1.0
 40
1.0
 40
1.0
 40
1.0
 10
214.4302023840504
 20
107.1429197071939
 30
0.0
 10
214.4302023840504
 20
107.1934351885535
 30
0.0
 10
214.4302023840504
 20
107.2944173422335
 30
0.0
 10
214.4302023840504
 20
107.4565348530424
 30
0.0
 10
214.4302023840504
 20
107.6263343115936
 30
0.0
 10
214.4302023840504
 20
107.8045849375598
 30
0.0
 10
214.4302023840504
 20
107.9910806459989
 30
0.0
 10
214.4302023840504
 20
108.1858769669771
 30
0.0
 10
214.4302023840504
 20
108.3889574842067
 30
0.0
 10
214.4302023840504
 20
108.6003320018037
 30
0.0
 10
214.4302023840504
 20
109.0882234102947
 30
0.0
 10
214.4302023840504
 20
109.9231315398791
 30
0.0
 10
214.4302023840504
 20
111.233969274708
 30
0.0
 10
214.4302023840504
 20
112.720462863864
 30
0.0
 10
214.4302023840504
 20
114.9439301498006
 30
0.0
 10
214.4302023840504
 20
118.1110044323938
 30
0.0
 10
214.4302023840504
 20
121.6936124321481
 30
0.0
 10
214.4302023840504
 20
124.7321508391859
 30
0.0
 10
214.4302023840504
 20
127.0533171797425
 30
0.0
 10
214.4302023840504
 20
129.4135930871377
 30
0.0
 10
214.4302023840504
 20
131.308434410666
 30
0.0
 10
214.4302023840504
 20
132.7257410444377
 30
0.0
 10
214.4302023840504
 20
133.6533314468217
 30
0.0
 10
214.4302023840504
 20
134.5831652813549
 30
0.0
 10
214.4302023840504
 20
135.5152595165014
 30
0.0
 10
214.4302023840504
 20
136.1375015751801
 30
0.0
 10
214.4302023840504
 20
136.4488542144145
 30
0.0
  0
SPLINE
  5
161
330
1F
100
AcDbEntity
  8
0
  6
Continuous
 62
     7
370
    15
100
AcDbSpline
210
0.0
220
0.0
230
1.0
 70
    24
 71
     3
 72
    31
 73
    27
 74
     0
 42
0.000000001
 43
0.00000001
 40
0.0
 40
0.0
 40
0.0
 40
0.0
 40
0.0132547820110218
 40
0.0264968712740911
 40
0.0397300666999617
 40
0.0529581748619113
 40
0.066185006725438
 40
0.0794143743590231
 40
0.0926500876401384
 40
0.1058959509707041
 40
0.1191557600161219
 40
0.1810884463781594
 40
0.2430471624419451
 40
0.3066892812093266
 40
0.3703583835969223
 40
0.4993829935695762
 40
0.6284926043660414
 40
0.6922587072412882
 40
0.7560526562379403
 40
0.8181812942482416
 40
0.8803373241551902
 40
0.9042880502387945
 40
0.9282071646243898
 40
0.9521171770662894
 40
0.9760406230110876
 40
1.0
 40
1.0
 40
1.0
 40
1.0
 10
214.4302023840504
 20
136.4488542144145
 30
0.0
 10
214.4302023840504
 20
136.6218343790316
 30
0.0
 10
214.4302023840504
 20
136.9676290628686
 30
0.0
 10
214.4302023840504
 20
137.4859740245331
 30
0.0
 10
214.4302023840504
 20
138.0036738247364
 30
0.0
 10
214.4302023840504
 20
138.5207283860073
 30
0.0
 10
214.4302023840504
 20
139.0371374414181
 30
0.0
 10
214.4302023840504
 20
139.5529013631628
 30
0.0
 10
214.4302023840504
 20
140.068018157612
 30
0.0
 10
214.4302023840504
 20
140.5824946699074
 30
0.0
 10
214.4302023840504
 20
141.7246980515546
 30
0.0
 10
214.4302023840504
 20
143.4837883486975
 30
0.0
 10
214.4302023840504
 20
145.8437160957454
 30
0.0
 10
214.4302023840504
 20
148.165225501315
 30
0.0
 10
214.4302023840504
 20
151.2037914367695
 30
0.0
 10
214.4302023840504
 20
154.7867041636917
 30
0.0
 10
214.4302023840504
 20
157.9535072879913
 30
0.0
 10
214.4302023840504
 20
160.1770201314894
 30
0.0
 10
214.4302023840504
 20
161.6633329566118
 30
0.0
 10
214.4302023840504
 20
162.9744203559801
 30
0.0
 10
214.4302023840504
 20
163.8738159373369
 30
0.0
 10
214.4302023840504
 20
164.4699443482895
 30
0.0
 10
214.4302023840504
 20
164.8327009759919
 30
0.0
 10
214.4302023840504
 20
165.168102237818
 30
0.0
 10
214.4302023840504
 20
165.4786422499383
 30
0.0
 10
214.4302023840504
 20
165.6626938607873
 30
0.0
 10
214.4302023840504
 20
165.7547887219414
 30
0.0
  0
SPLINE
  5
162
330
1F
100
AcDbEntity
  8
0
  6
Continuous
 62
     7
370
    15
100
AcDbSpline
210
0.0
220
0.0
230
1.0
 70
     8
 71
     3
 72
    10
 73
     6
 74
     0
 42
0.000000001
 43
0.00000001
 40
0.0
 40
0.0
 40
0.0
 40
0.0
 40
0.5
 40
0.5
 40
1.0
 40
1.0
 40
1.0
 40
1.0
 10
214.5473596714941
 20
166.0842287822404
 30
0.0
 10
214.5147318269638
 20
166.0407402183887
 30
0.0
 10
214.4865897982352
 20
165.991902592953
 30
0.0
 10
214.4439373697978
 20
165.8801857019694
 30
0.0
 10
214.430202382242
 20
165.8185366795657
 30
0.0
 10
214.4302023842234
 20
165.7547887219415
 30
0.0
  0
SPLINE
  5
163
330
1F
100
AcDbEntity
  8
0
  6
Continuous
 62
     7
370
    15
100
AcDbSpline
210
0.0
220
0.0
230
1.0
 70
    24
 71
     3
 72
    31
 73
    27
 74
     0
 42
0.000000001
 43
0.00000001
 40
0.0
 40
0.0
 40
0.0
 40
0.0
 40
0.0132812016276926
 40
0.0265491186919267
 40
0.0398077152385838
 40
0.053060963676847
 40
0.0663128412253784
 40
0.0795673263369126
 40
0.0928283951172993
 40
0.106100017755096
 40
0.1193861549776922
 40
0.1814697477025651
 40
0.2435789043856598
 40
0.3073751402709176
 40
0.3711978865606937
 40
0.5004548220512559
 40
0.6296492533733385
 40
0.6933536988963068
 40
0.7570854423686716
 40
0.8190239570172848
 40
0.8809898899669507
 40
0.9048104694842793
 40
0.9285987886313996
 40
0.9523778222354777
 40
0.9761705720226982
 40
1.0
 40
1.0
 40
1.0
 40
1.0
 10
230.3302023840504
 20
165.9547485003795
 30
0.0
 10
230.3302023840504
 20
165.9074343777272
 30
0.0
 10
230.3302023840504
 20
165.8128534585218
 30
0.0
 10
230.3302023840504
 20
165.6599087399435
 30
0.0
 10
230.3302023840504
 20
165.4989640409127
 30
0.0
 10
230.3302023840504
 20
165.3292197425488
 30
0.0
 10
230.3302023840504
 20
165.1508900634628
 30
0.0
 10
230.3302023840504
 20
164.9639172880177
 30
0.0
 10
230.3302023840504
 20
164.7683184545359
 30
0.0
 10
230.3302023840504
 20
164.5640834671654
 30
0.0
 10
230.3302023840504
 20
164.0907778522813
 30
0.0
 10
230.3302023840504
 20
163.2746870933002
 30
0.0
 10
230.3302023840504
 20
161.9807336806185
 30
0.0
 10
230.3302023840504
 20
160.5025060546722
 30
0.0
 10
230.3302023840504
 20
158.2774490370733
 30
0.0
 10
230.3302023840504
 20
155.086917228005
 30
0.0
 10
230.3302023840504
 20
151.4567018286016
 30
0.0
 10
230.3302023840504
 20
148.3696588481176
 30
0.0
 10
230.3302023840504
 20
146.0092429196516
 30
0.0
 10
230.3302023840504
 20
143.6073817411717
 30
0.0
 10
230.3302023840504
 20
141.6787399485307
 30
0.0
 10
230.3302023840504
 20
140.2362515226237
 30
0.0
 10
230.3302023840504
 20
139.2927580648142
 30
0.0
 10
230.3302023840504
 20
138.3469029313931
 30
0.0
 10
230.3302023840504
 20
137.398668282193
 30
0.0
 10
230.3302023840504
 20
136.7656214265257
 30
0.0
 10
230.3302023840504
 20
136.4488542150812
 30
0.0
  0
SPLINE
  5
164
330
1F
100
AcDbEntity
  8
0
  6
Continuous
 62
     7
370
    15
100
AcDbSpline
210
0.0
220
0.0
230
1.0
 70
    24
 71
     3
 72
    10
 73
     6
 74
     0
 42
0.000000001
 43
0.00000001
 40
0.0
 40
0.0
 40
0.0
 40
0.0
 40
0.5
 40
0.5
 40
1.0
 40
1.0
 40
1.0
 40
1.0
 10
230.3302023838773
 20
136.4488542150812
 30
0.0
 10
230.3302023847135
 20
136.4488542150812
 30
0.0
 10
230.3200529893782
 20
136.4488542150812
 30
0.0
 10
230.2794554067247
 20
136.4488542150812
 30
0.0
 10
230.2491248372309
 20
136.4488542150812
 30
0.0
 10
230.2130450970504
 20
136.4488542150812
 30
0.0
  0
SPLINE
  5
165
330
1F
100
AcDbEntity
  8
0
  6
Continuous
 62
     7
370
    15
100
AcDbSpline
210
0.0
220
0.0
230
1.0
 70
     8
 71
     3
 72
     8
 73
     4
 74
     0
 42
0.000000001
 43
0.00000001
 40
0.0
 40
0.0
 40
0.0
 40
0.0
 40
1.0
 40
1.0
 40
1.0
 40
1.0
 10
230.3302023838773
 20
165.9547485011003
 30
0.0
 10
230.3302023861922
 20
166.0632572431127
 30
0.0
 10
230.2884368931179
 20
166.1697346996255
 30
0.0
 10
230.2130450971596
 20
166.2478290123837
 30
0.0
  0
SPLINE
  5
166
330
1F
100
AcDbEntity
  8
0
  6
Continuous
 62
     7
370
    15
100
AcDbSpline
210
0.0
220
0.0
230
1.0
 70
    24
 71
     3
 72
    31
 73
    27
 74
     0
 42
0.000000001
 43
0.00000001
 40
0.0
 40
0.0
 40
0.0
 40
0.0
 40
0.0132396092829651
 40
0.0264660619749989
 40
0.0396832851243741
 40
0.0528952140093957
 40
0.0661057886396717
 40
0.0793189502362784
 40
0.0925386377065146
 40
0.1057687841289894
 40
0.1190133132646836
 40
0.1809527911301388
 40
0.2429177637800338
 40
0.3066226289496453
 40
0.3703539547299943
 40
0.4995483900206427
 40
0.628805329481684
 40
0.6926011615669297
 40
0.7564243174596635
 40
0.8185072677955773
 40
0.8806170735308714
 40
0.9045126188426981
 40
0.9283754862329857
 40
0.9522288665536466
 40
0.9760959783113874
 40
1.0
 40
1.0
 40
1.0
 40
1.0
 10
230.3302023840504
 20
136.4488542150812
 30
0.0
 10
230.3302023840504
 20
136.2728635265233
 30
0.0
 10
230.3302023840504
 20
135.9210570365545
 30
0.0
 10
230.3302023840504
 20
135.3937134244316
 30
0.0
 10
230.3302023840504
 20
134.8670505230953
 30
0.0
 10
230.3302023840504
 20
134.3410684181892
 30
0.0
 10
230.3302023840504
 20
133.8157673960656
 30
0.0
 10
230.3302023840504
 20
133.2911470682573
 30
0.0
 10
230.3302023840504
 20
132.76720954349
 30
0.0
 10
230.3302023840504
 20
132.2439476004128
 30
0.0
 10
230.3302023840504
 20
131.0812778492391
 30
0.0
 10
230.3302023840504
 20
129.2906557201276
 30
0.0
 10
230.3302023840504
 20
126.8891428667156
 30
0.0
 10
230.3302023840504
 20
124.5283804831892
 30
0.0
 10
230.3302023840504
 20
121.4413090223053
 30
0.0
 10
230.3302023840504
 20
117.8107910132648
 30
0.0
 10
230.3302023840504
 20
114.6205268871643
 30
0.0
 10
230.3302023840504
 20
112.3954227186708
 30
0.0
 10
230.3302023840504
 20
110.9173695518122
 30
0.0
 10
230.3302023840504
 20
109.6231710445316
 30
0.0
 10
230.3302023840504
 20
108.7441371134668
 30
0.0
 10
230.3302023840504
 20
108.166606589768
 30
0.0
 10
230.3302023840504
 20
107.8174317393842
 30
0.0
 10
230.3302023840504
 20
107.4967464588017
 30
0.0
 10
230.3302023840504
 20
107.2019582280133
 30
0.0
 10
230.3302023840504
 20
107.0293371536466
 30
0.0
 10
230.3302023840504
 20
106.9429599294133
 30
0.0
  0
SPLINE
  5
167
330
1F
100
AcDbEntity
  8
0
  6
Continuous
 62
     7
370
    15
100
AcDbSpline
210
0.0
220
0.0
230
1.0
 70
     8
 71
     3
 72
     8
 73
     4
 74
     0
 42
0.000000001
 43
0.00000001
 40
0.0
 40
0.0
 40
0.0
 40
0.0
 40
1.0
 40
1.0
 40
1.0
 40
1.0
 10
230.2130450967877
 20
106.6498794173942
 30
0.0
 10
230.2884312208052
 20
106.7279678548331
 30
0.0
 10
230.3302023862802
 20
106.8344588563078
 30
0.0
 10
230.3302023838773
 20
106.9429599294115
 30
0.0
  0
SPLINE
  5
168
330
1F
100
AcDbEntity
  8
0
  6
Continuous
 62
     7
370
    15
100
AcDbSpline
210
0.0
220
0.0
230
1.0
 70
    24
 71
     3
 72
    14
 73
    10
 74
     0
 42
0.000000001
 43
0.00000001
 40
0.0
 40
0.0
 40
0.0
 40
0.0
 40
0.25
 40
0.25
 40
0.5
 40
0.5
 40
0.75
 40
0.75
 40
1.0
 40
1.0
 40
1.0
 40
1.0
 10
214.4302023840504
 20
136.4488542150812
 30
0.0
 10
214.4302023838492
 20
136.4488542150812
 30
0.0
 10
214.4194630166003
 20
136.4488542150812
 30
0.0
 10
214.3707300579578
 20
136.4488542150812
 30
0.0
 10
214.3325713150057
 20
136.4488542150812
 30
0.0
 10
214.2349402421374
 20
136.4488542150812
 30
0.0
 10
214.175798217608
 20
136.4488542150812
 30
0.0
 10
214.0527012660675
 20
136.4488542150812
 30
0.0
 10
213.9891279508248
 20
136.4488542150812
 30
0.0
 10
213.9302023850504
 20
136.4488542150812
 30
0.0
  0
LINE
  5
169
330
1F
100
AcDbEntity
  8
0
  6
Continuous
 62
     7
370
    15
100
AcDbLine
 10
211.7127164481
 20
136.4488542151
 30
0.0
 11
211.7127164481
 21
158.4488540959
 31
0.0
  0
LINE
  5
16A
330
1F
100
AcDbEntity
  8
0
  6
Continuous
 62
     7
370
    15
100
AcDbLine
 10
211.7127164481
 20
114.4488543343
 30
0.0
 11
211.7127164481
 21
136.4488542151
 31
0.0
  0
LINE
  5
16B
330
1F
100
AcDbEntity
  8
0
  6
Continuous
 62
     7
370
    15
100
AcDbLine
 10
211.2302023841
 20
114.2238542508
 30
0.0
 11
211.2302023841
 21
158.6738541793
 31
0.0
  0
SPLINE
  5
16C
330
1F
100
AcDbEntity
  8
0
  6
Continuous
 62
     7
370
    15
100
AcDbSpline
210
0.0
220
0.0
230
1.0
 70
    24
 71
     3
 72
    14
 73
    10
 74
     0
 42
0.000000001
 43
0.00000001
 40
0.0
 40
0.0
 40
0.0
 40
0.0
 40
0.25
 40
0.25
 40
0.5
 40
0.5
 40
0.75
 40
0.75
 40
1.0
 40
1.0
 40
1.0
 40
1.0
 10
230.3302023840504
 20
136.4488542150812
 30
0.0
 10
230.3302023842516
 20
136.4488542150812
 30
0.0
 10
230.3731598598877
 20
136.4488542150812
 30
0.0
 10
230.568091699227
 20
136.4488542150812
 30
0.0
 10
230.7207266725962
 20
136.4488542150812
 30
0.0
 10
231.1112509645916
 20
136.4488542150812
 30
0.0
 10
231.3478190616897
 20
136.4488542150812
 30
0.0
 10
231.8402068644436
 20
136.4488542150812
 30
0.0
 10
232.0945001231054
 20
136.4488542150812
 30
0.0
 10
232.3302023840504
 20
136.4488542150812
 30
0.0
  0
LINE
  5
16D
330
1F
100
AcDbEntity
  8
0
  6
Continuous
 62
     7
370
    15
100
AcDbLine
 10
309.2094797564
 20
136.4488542151
 30
0.0
 11
309.2094797564
 21
152.448854975
 31
0.0
  0
LINE
  5
16E
330
1F
100
AcDbEntity
  8
0
  6
Continuous
 62
     7
370
    15
100
AcDbLine
 10
309.2094797564
 20
120.4488534551
 30
0.0
 11
309.2094797564
 21
136.4488542151
 31
0.0
  0
LINE
  5
16F
330
1F
100
AcDbEntity
  8
0
  6
Continuous
 62
     7
370
    15
100
AcDbLine
 10
311.2302038742
 20
136.4488542151
 30
0.0
 11
311.2302038742
 21
148.9488544013
 31
0.0
  0
LINE
  5
170
330
1F
100
AcDbEntity
  8
0
  6
Continuous
 62
     7
370
    15
100
AcDbLine
 10
311.2302038742
 20
123.9488540288
 30
0.0
 11
311.2302038742
 21
136.4488542151
 31
0.0
  0
LINE
  5
171
330
1F
100
AcDbEntity
  8
0
  6
Continuous
 62
     7
370
    15
100
AcDbLine
 10
295.2302012516
 20
120.4488534551
 30
0.0
 11
295.2302012516
 21
152.448854975
 31
0.0
  0
LINE
  5
172
330
1F
100
AcDbEntity
  8
0
  6
Continuous
 62
     7
370
    15
100
AcDbLine
 10
293.7302056623
 20
150.9488537978
 30
0.0
 11
293.7302056623
 21
121.9488546323
 31
0.0
  0
LINE
  5
173
330
1F
100
AcDbEntity
  8
0
  6
Continuous
 62
     7
370
    15
100
AcDbLine
 10
276.8102053476
 20
136.4488542151
 30
0.0
 11
276.8102053476
 21
150.4488546472
 31
0.0
  0
LINE
  5
174
330
1F
100
AcDbEntity
  8
0
  6
Continuous
 62
     7
370
    15
100
AcDbLine
 10
276.8102053476
 20
122.4488537829
 30
0.0
 11
276.8102053476
 21
136.4488542151
 31
0.0
  0
LINE
  5
175
330
1F
100
AcDbEntity
  8
0
  6
Continuous
 62
     7
370
    15
100
AcDbLine
 10
279.8602048231
 20
136.4488542151
 30
0.0
 11
279.8602048231
 21
147.3988542404
 31
0.0
  0
LINE
  5
176
330
1F
100
AcDbEntity
  8
0
  6
Continuous
 62
     7
370
    15
100
AcDbLine
 10
279.8602048231
 20
125.4988541897
 30
0.0
 11
279.8602048231
 21
136.4488542151
 31
0.0
  0
SPLINE
  5
177
330
1F
100
AcDbEntity
  8
0
  6
Continuous
 62
     7
370
    15
100
AcDbSpline
210
0.0
220
0.0
230
1.0
 70
    24
 71
     3
 72
    22
 73
    18
 74
     0
 42
0.000000001
 43
0.00000001
 40
0.0
 40
0.0
 40
0.0
 40
0.0
 40
0.125
 40
0.125
 40
0.25
 40
0.25
 40
0.375
 40
0.375
 40
0.5
 40
0.5
 40
0.625
 40
0.625
 40
0.75
 40
0.75
 40
0.875
 40
0.875
 40
1.0
 40
1.0
 40
1.0
 40
1.0
 10
142.8302023840504
 20
136.4488542150812
 30
0.0
 10
142.8302023840504
 20
135.9744724405162
 30
0.0
 10
142.8302023840504
 20
135.4701469185706
 30
0.0
 10
142.8302023840504
 20
134.4049519745392
 30
0.0
 10
142.8302023840504
 20
133.8439290145884
 30
0.0
 10
142.8302023840504
 20
132.6780883654165
 30
0.0
 10
142.8302023840504
 20
132.0731150436583
 30
0.0
 10
142.8302023840504
 20
130.846585723737
 30
0.0
 10
142.8302023840504
 20
130.2249653327847
 30
0.0
 10
142.8302023840504
 20
129.0105479898995
 30
0.0
 10
142.8302023840504
 20
128.4179241767696
 30
0.0
 10
142.8302023840504
 20
127.3240598033733
 30
0.0
 10
142.8302023840504
 20
126.8233361318733
 30
0.0
 10
142.8302023840504
 20
125.9829089049726
 30
0.0
 10
142.8302023840504
 20
125.6439531665991
 30
0.0
 10
142.8302023840504
 20
125.1840554746346
 30
0.0
 10
142.8302023840504
 20
125.063691625571
 30
0.0
 10
142.8302023840504
 20
125.0636916255812
 30
0.0
  0
SPLINE
  5
178
330
1F
100
AcDbEntity
  8
0
  6
Continuous
 62
     7
370
    15
100
AcDbSpline
210
0.0
220
0.0
230
1.0
 70
    24
 71
     3
 72
    14
 73
    10
 74
     0
 42
0.000000001
 43
0.00000001
 40
0.0
 40
0.0
 40
0.0
 40
0.0
 40
0.25
 40
0.25
 40
0.5
 40
0.5
 40
0.75
 40
0.75
 40
1.0
 40
1.0
 40
1.0
 40
1.0
 10
142.8302023840504
 20
136.4488542150812
 30
0.0
 10
142.8302023840503
 20
136.4488542150812
 30
0.0
 10
142.8485065659056
 20
136.4488542150812
 30
0.0
 10
142.9296124900341
 20
136.4488542150812
 30
0.0
 10
142.9925965873338
 20
136.4488542150812
 30
0.0
 10
143.1549907907452
 20
136.4488542150812
 30
0.0
 10
143.254036186808
 20
136.4488542150812
 30
0.0
 10
143.465797172957
 20
136.4488542150812
 30
0.0
 10
143.5780187073786
 20
136.4488542150812
 30
0.0
 10
143.6858941570504
 20
136.4488542150812
 30
0.0
  0
SPLINE
  5
179
330
1F
100
AcDbEntity
  8
0
  6
Continuous
 62
     7
370
    15
100
AcDbSpline
210
0.0
220
0.0
230
1.0
 70
    24
 71
     3
 72
    22
 73
    18
 74
     0
 42
0.000000001
 43
0.00000001
 40
0.0
 40
0.0
 40
0.0
 40
0.0
 40
0.125
 40
0.125
 40
0.2500000000000001
 40
0.2500000000000001
 40
0.3750000000000001
 40
0.3750000000000001
 40
0.5
 40
0.5
 40
0.625
 40
0.625
 40
0.75
 40
0.75
 40
0.875
 40
0.875
 40
1.0
 40
1.0
 40
1.0
 40
1.0
 10
142.8302023840504
 20
147.8340168045812
 30
0.0
 10
142.8302023840504
 20
147.834016804571
 30
0.0
 10
142.8302023840504
 20
147.7136529554897
 30
0.0
 10
142.8302023840504
 20
147.2537552634978
 30
0.0
 10
142.8302023840504
 20
146.9147995251145
 30
0.0
 10
142.8302023840504
 20
146.0743722982021
 30
0.0
 10
142.8302023840504
 20
145.5736486267002
 30
0.0
 10
142.8302023840504
 20
144.4797842533057
 30
0.0
 10
142.8302023840504
 20
143.8871604401795
 30
0.0
 10
142.8302023840504
 20
142.6727430973047
 30
0.0
 10
142.8302023840504
 20
142.0511227063591
 30
0.0
 10
142.8302023840504
 20
140.824593386452
 30
0.0
 10
142.8302023840504
 20
140.2196200647012
 30
0.0
 10
142.8302023840504
 20
139.0537794155436
 30
0.0
 10
142.8302023840504
 20
138.4927564555997
 30
0.0
 10
142.8302023840504
 20
137.427561511581
 30
0.0
 10
142.8302023840504
 20
136.9232359896411
 30
0.0
 10
142.8302023840504
 20
136.4488542150812
 30
0.0
  0
LINE
  5
17A
330
1F
100
AcDbEntity
  8
0
  6
Continuous
 62
     7
370
    15
100
AcDbLine
 10
214.4302023032
 20
165.7547891211
 30
0.0
 11
214.4302023032
 21
167.0331690531
 31
0.0
  0
LINE
  5
17B
330
1F
100
AcDbEntity
  8
0
  6
Continuous
 62
     7
370
    15
100
AcDbLine
 10
214.4302023032
 20
105.864539377
 30
0.0
 11
214.4302023032
 21
107.1429193091
 31
0.0
  0
LINE
  5
17C
330
1F
100
AcDbEntity
  8
0
  6
Continuous
 62
     7
370
    15
100
AcDbLine
 10
220.4302025882
 20
107.5079567801
 30
0.0
 11
220.4302025882
 21
108.6500600051
 31
0.0
  0
LINE
  5
17D
330
1F
100
AcDbEntity
  8
0
  6
Continuous
 62
     7
370
    15
100
AcDbLine
 10
220.4302025882
 20
164.247648425
 30
0.0
 11
220.4302025882
 21
165.38975165
 31
0.0
  0
LINE
  5
17E
330
1F
100
AcDbEntity
  8
0
  6
Continuous
 62
     7
370
    15
100
AcDbLine
 10
230.3302016032
 20
165.9547478031
 30
0.0
 11
230.3302016032
 21
167.0331690531
 31
0.0
  0
LINE
  5
17F
330
1F
100
AcDbEntity
  8
0
  6
Continuous
 62
     7
370
    15
100
AcDbLine
 10
230.3302016032
 20
105.864539377
 30
0.0
 11
230.3302016032
 21
106.942960627
 31
0.0
  0
LINE
  5
180
330
1F
100
AcDbEntity
  8
0
  6
Continuous
 62
     8
370
    15
100
AcDbLine
 10
229.1645172906
 20
104.6988532018
 30
0.0
 11
229.1645172906
 21
105.9191875231
 31
0.0
  0
LINE
  5
181
330
1F
100
AcDbEntity
  8
0
  6
Continuous
 62
     8
370
    15
100
AcDbLine
 10
229.1645172906
 20
167.0118231397
 30
0.0
 11
229.1645172906
 21
168.1988552284
 31
0.0
  0
LINE
  5
182
330
1F
100
AcDbEntity
  8
0
  6
Continuous
 62
     8
370
    15
100
AcDbLine
 10
215.5958877799
 20
104.6988532018
 30
0.0
 11
215.5958877799
 21
105.9191875231
 31
0.0
  0
LINE
  5
183
330
1F
100
AcDbEntity
  8
0
  6
Continuous
 62
     8
370
    15
100
AcDbLine
 10
215.5958877799
 20
167.0118231397
 30
0.0
 11
215.5958877799
 21
168.1988552284
 31
0.0
  0
LINE
  5
184
330
1F
100
AcDbEntity
  8
0
  6
Continuous
 62
     8
370
    15
100
AcDbLine
 10
213.9302024541
 20
136.4488542151
 30
0.0
 11
213.9302024541
 21
114.4488543343
 31
0.0
  0
LINE
  5
185
330
1F
100
AcDbEntity
  8
0
  6
Continuous
 62
     8
370
    15
100
AcDbLine
 10
213.9302024541
 20
136.4488542151
 30
0.0
 11
213.9302024541
 21
158.4488540959
 31
0.0
  0
LINE
  5
186
330
1F
100
AcDbEntity
  8
0
  6
Continuous
 62
     8
370
    15
100
AcDbLine
 10
143.685891099
 20
136.4488542143
 30
0.0
 11
143.685891099
 21
124.0741588246
 31
0.0
  0
LINE
  5
187
330
1F
100
AcDbEntity
  8
0
  6
Continuous
 62
     8
370
    15
100
AcDbLine
 10
143.685891099
 20
148.8235496055
 30
0.0
 11
143.685891099
 21
136.4488542143
 31
0.0
  0
LINE
  5
188
330
1F
100
AcDbEntity
  8
0
  6
Continuous
 62
     8
370
    15
100
AcDbLine
 10
232.3302019311
 20
136.4488542151
 30
0.0
 11
232.3302019311
 21
122.4488547143
 31
0.0
  0
LINE
  5
189
330
1F
100
AcDbEntity
  8
0
  6
Continuous
 62
     8
370
    15
100
AcDbLine
 10
232.3302019311
 20
136.4488542151
 30
0.0
 11
232.3302019311
 21
150.4488546472
 31
0.0
  0
LINE
  5
18A
330
1F
100
AcDbEntity
  8
0
  6
Continuous
 62
     8
370
    15
100
AcDbLine
 10
214.5473596563
 20
166.0842295807
 30
0.0
 11
214.5473596563
 21
167.316011719
 31
0.0
  0
LINE
  5
18B
330
1F
100
AcDbEntity
  8
0
  6
Continuous
 62
     8
370
    15
100
AcDbLine
 10
214.5473596563
 20
105.5816967111
 30
0.0
 11
214.5473596563
 21
106.8134788495
 31
0.0
  0
LINE
  5
18C
330
1F
100
AcDbEntity
  8
0
  6
Continuous
 62
     8
370
    15
100
AcDbLine
 10
215.313045114
 20
166.9167872589
 30
0.0
 11
215.313045114
 21
168.0816985738
 31
0.0
  0
LINE
  5
18D
330
1F
100
AcDbEntity
  8
0
  6
Continuous
 62
     8
370
    15
100
AcDbLine
 10
215.313045114
 20
104.8160098564
 30
0.0
 11
215.313045114
 21
106.0011848878
 31
0.0
  0
LINE
  5
18E
330
1F
100
AcDbEntity
  8
0
  6
Continuous
 62
     8
370
    15
100
AcDbLine
 10
229.4473599566
 20
104.8160098564
 30
0.0
 11
229.4473599566
 21
106.0011848878
 31
0.0
  0
LINE
  5
18F
330
1F
100
AcDbEntity
  8
0
  6
Continuous
 62
     8
370
    15
100
AcDbLine
 10
229.4473599566
 20
166.9167872589
 30
0.0
 11
229.4473599566
 21
168.0816985738
 31
0.0
  0
LINE
  5
190
330
1F
100
AcDbEntity
  8
0
  6
Continuous
 62
     8
370
    15
100
AcDbLine
 10
230.2130449486
 20
105.5816967111
 30
0.0
 11
230.2130449486
 21
106.6498790007
 31
0.0
  0
LINE
  5
191
330
1F
100
AcDbEntity
  8
0
  6
Continuous
 62
     8
370
    15
100
AcDbLine
 10
230.2130449486
 20
166.2478294294
 30
0.0
 11
230.2130449486
 21
167.316011719
 31
0.0
  0
DIMENSION
  5
192
330
1F
100
AcDbEntity
  8
DIM
100
AcDbDimension
  2
_D
 10
311.2302023841
 20
87.2736115666
 30
0.0
 11
227.0302023841
 21
87.2736115666
 31
0.0
 70
   160
  1
<>
 71
     2
 42
-1.0
  3
SLDDIMSTYLE0
100
AcDbAlignedDimension
 13
142.8302023841
 23
136.4488542151
 33
0.0
 14
311.2302023841
 24
123.9488542151
 34
0.0
100
AcDbRotatedDimension
  0
DIMENSION
  5
19D
330
1F
100
AcDbEntity
  8
DIM
100
AcDbDimension
  2
_D_1
 10
311.2302023841
 20
96.2567936668
 30
0.0
 11
261.2302023841
 21
96.2567936668
 31
0.0
 70
   160
  1
<>
 71
     2
 42
-1.0
  3
SLDDIMSTYLE1
100
AcDbAlignedDimension
 13
211.2302023841
 23
114.2238542151
 33
0.0
 14
311.2302023841
 24
123.9488542151
 34
0.0
100
AcDbRotatedDimension
  0
DIMENSION
  5
1A8
330
1F
100
AcDbEntity
  8
DIM
100
AcDbDimension
  2
_D_2
 10
327.171628935
 20
120.4488542151
 30
0.0
 11
327.171628935
 21
136.4488542151
 31
0.0
 70
   160
  1
%%c<>
 71
     2
 42
-1.0
  3
SLDDIMSTYLE1
100
AcDbAlignedDimension
 13
309.2094764421
 23
152.4488542151
 33
0.0
 14
309.2094764421
 24
120.4488542151
 34
0.0
 50
90.0
100
AcDbRotatedDimension
  0
DIMENSION
  5
1B3
330
1F
100
AcDbEntity
  8
DIM
100
AcDbDimension
  2
_D_3
 10
134.5405551772
 20
104.6988542151
 30
0.0
 11
134.5405551772
 21
136.4488542151
 31
0.0
 70
   160
  1
%%c<>
 71
     2
 42
-1.0
  3
SLDDIMSTYLE0
100
AcDbAlignedDimension
 13
215.5958878091
 23
168.1988542151
 33
0.0
 14
215.5958878091
 24
104.6988542151
 34
0.0
 50
90.0
100
AcDbRotatedDimension
  0
DIMENSION
  5
1BE
330
1F
100
AcDbEntity
  8
DIM
100
AcDbDimension
  2
_D_4
 10
320.9113380463
 20
122.4488542151
 30
0.0
 11
320.9113380463
 21
136.4488542151
 31
0.0
 70
   160
  1
%%c<>
 71
     2
 42
-1.0
  3
SLDDIMSTYLE1
100
AcDbAlignedDimension
 13
276.8102023841
 23
150.4488542151
 33
0.0
 14
276.8102023841
 24
122.4488542151
 34
0.0
 50
90.0
100
AcDbRotatedDimension
  0
LINE
  5
1C9
330
1F
100
AcDbEntity
  8
DIM
  6
CENTERX2
 48
1.6
370
     0
100
AcDbLine
 10
313.7302023841
 20
136.4488542151
 30
0.0
 11
141.1858941571
 21
136.4488542151
 31
0.0
  0
ENDSEC
  0
SECTION
  2
OBJECTS
  0
DICTIONARY
  5
C
330
0
100
AcDbDictionary
281
     1
  3
ACAD_GROUP
350
D
  3
ACAD_LAYOUT
350
1A
  3
ACAD_MLINESTYLE
350
17
  3
ACAD_PLOTSETTINGS
350
19
  3
ACAD_PLOTSTYLENAME
350
E
  3
ACAD_SCALELIST
350
47
  0
DICTIONARY
  5
D
102
{ACAD_REACTORS
330
C
102
}
330
C
100
AcDbDictionary
281
     1
  0
DICTIONARY
  5
1A
102
{ACAD_REACTORS
330
C
102
}
330
C
100
AcDbDictionary
281
     1
  3
Layout1
350
1E
  3
Layout2
350
26
  3
Model
350
22
  0
DICTIONARY
  5
17
102
{ACAD_REACTORS
330
C
102
}
330
C
100
AcDbDictionary
281
     1
  3
Standard
350
18
  0
DICTIONARY
  5
19
102
{ACAD_REACTORS
330
C
102
}
330
C
100
AcDbDictionary
281
     1
  0
ACDBDICTIONARYWDFLT
  5
E
102
{ACAD_REACTORS
330
C
102
}
330
C
100
AcDbDictionary
281
     1
  3
Normal
350
F
100
AcDbDictionaryWithDefault
340
F
  0
DICTIONARY
  5
47
102
{ACAD_REACTORS
330
C
102
}
330
C
100
AcDbDictionary
281
     1
  3
A0
350
48
  3
A1
350
49
  3
A2
350
4A
  3
A3
350
4B
  3
A4
350
4C
  3
A5
350
4D
  3
A6
350
4E
  3
A7
350
4F
  3
A8
350
50
  3
A9
350
51
  3
B0
350
52
  3
B1
350
53
  3
B2
350
54
  3
B3
350
55
  3
B4
350
56
  3
B5
350
57
  3
B6
350
58
  3
B7
350
59
  3
B8
350
5A
  3
B9
350
5B
  3
C0
350
5C
  3
C1
350
5D
  3
C2
350
5E
  3
C3
350
5F
  3
C4
350
60
  3
C5
350
61
  3
C6
350
62
  3
C7
350
63
  3
C8
350
64
  3
C9
350
65
  3
D0
350
66
  3
D1
350
67
  3
D2
350
68
  0
LAYOUT
  5
1E
102
{ACAD_REACTORS
330
1A
102
}
330
1A
100
AcDbPlotSettings
  1

  2
none_device
  4

  6

 40
0.0
 41
0.0
 42
0.0
 43
0.0
 44
0.0
 45
0.0
 46
0.0
 47
0.0
 48
0.0
 49
0.0
140
0.0
141
0.0
142
1.0
143
1.0
 70
   688
 72
     1
 73
     0
 74
     5
  7

 75
    16
147
1.0
148
0.0
149
0.0
100
AcDbLayout
  1
Layout1
 70
     1
 71
     1
 10
0.0
 20
0.0
 11
420.0
 21
297.0
 12
0.0
 22
0.0
 32
0.0
 14
1.0000000000E+20
 24
1.0000000000E+20
 34
1.0000000000E+20
 15
-1.0000000000E+20
 25
-1.0000000000E+20
 35
-1.0000000000E+20
146
0.0
 13
0.0
 23
0.0
 33
0.0
 16
1.0
 26
0.0
 36
0.0
 17
0.0
 27
1.0
 37
0.0
 76
     0
330
1B
  0
LAYOUT
  5
26
102
{ACAD_REACTORS
330
1A
102
}
330
1A
100
AcDbPlotSettings
  1

  2
none_device
  4

  6

 40
0.0
 41
0.0
 42
0.0
 43
0.0
 44
0.0
 45
0.0
 46
0.0
 47
0.0
 48
0.0
 49
0.0
140
0.0
141
0.0
142
1.0
143
1.0
 70
   688
 72
     1
 73
     0
 74
     5
  7

 75
    16
147
1.0
148
0.0
149
0.0
100
AcDbLayout
  1
Layout2
 70
     1
 71
     2
 10
0.0
 20
0.0
 11
0.0
 21
0.0
 12
0.0
 22
0.0
 32
0.0
 14
0.0
 24
0.0
 34
0.0
 15
0.0
 25
0.0
 35
0.0
146
0.0
 13
0.0
 23
0.0
 33
0.0
 16
1.0
 26
0.0
 36
0.0
 17
0.0
 27
1.0
 37
0.0
 76
     0
330
23
  0
LAYOUT
  5
22
102
{ACAD_REACTORS
330
1A
102
}
330
1A
100
AcDbPlotSettings
  1

  2
none_device
  4
Letter_(8.50_x_11.00_Inches)
  6

 40
6.35
 41
6.35
 42
6.35000508
 43
6.35000508
 44
215.9
 45
279.4
 46
0.0
 47
0.0
 48
0.0
 49
0.0
140
0.0
141
0.0
142
1.0
143
1.0
 70
  1712
 72
     1
 73
     0
 74
     0
  7

 75
     0
147
1.0
148
0.0
149
0.0
100
AcDbLayout
  1
Model
 70
     1
 71
     0
 10
0.0
 20
0.0
 11
371.25
 21
262.5
 12
0.0
 22
0.0
 32
0.0
 14
0.0
 24
0.0
 34
0.0
 15
371.25
 25
262.5
 35
0.0
146
0.0
 13
0.0
 23
0.0
 33
0.0
 16
1.0
 26
0.0
 36
0.0
 17
0.0
 27
1.0
 37
0.0
 76
     0
330
1F
331
29
  0
MLINESTYLE
  5
18
102
{ACAD_REACTORS
330
17
102
}
330
17
100
AcDbMlineStyle
  2
Standard
 70
     0
  3

 62
   256
 51
90.0
 52
90.0
 71
     2
 49
0.5
 62
   256
  6
BYLAYER
 49
-0.5
 62
   256
  6
BYLAYER
  0
ACDBPLACEHOLDER
  5
F
102
{ACAD_REACTORS
330
E
102
}
330
E
  0
SCALE
  5
48
102
{ACAD_REACTORS
330
47
102
}
330
47
100
AcDbScale
 70
     0
300
1:1
140
1.0
141
1.0
290
     1
  0
SCALE
  5
49
102
{ACAD_REACTORS
330
47
102
}
330
47
100
AcDbScale
 70
     0
300
1:2
140
1.0
141
2.0
290
     0
  0
SCALE
  5
4A
102
{ACAD_REACTORS
330
47
102
}
330
47
100
AcDbScale
 70
     0
300
1:4
140
1.0
141
4.0
290
     0
  0
SCALE
  5
4B
102
{ACAD_REACTORS
330
47
102
}
330
47
100
AcDbScale
 70
     0
300
1:5
140
1.0
141
5.0
290
     0
  0
SCALE
  5
4C
102
{ACAD_REACTORS
330
47
102
}
330
47
100
AcDbScale
 70
     0
300
1:8
140
1.0
141
8.0
290
     0
  0
SCALE
  5
4D
102
{ACAD_REACTORS
330
47
102
}
330
47
100
AcDbScale
 70
     0
300
1:10
140
1.0
141
10.0
290
     0
  0
SCALE
  5
4E
102
{ACAD_REACTORS
330
47
102
}
330
47
100
AcDbScale
 70
     0
300
1:16
140
1.0
141
16.0
290
     0
  0
SCALE
  5
4F
102
{ACAD_REACTORS
330
47
102
}
330
47
100
AcDbScale
 70
     0
300
1:20
140
1.0
141
20.0
290
     0
  0
SCALE
  5
50
102
{ACAD_REACTORS
330
47
102
}
330
47
100
AcDbScale
 70
     0
300
1:30
140
1.0
141
30.0
290
     0
  0
SCALE
  5
51
102
{ACAD_REACTORS
330
47
102
}
330
47
100
AcDbScale
 70
     0
300
1:40
140
1.0
141
40.0
290
     0
  0
SCALE
  5
52
102
{ACAD_REACTORS
330
47
102
}
330
47
100
AcDbScale
 70
     0
300
1:50
140
1.0
141
50.0
290
     0
  0
SCALE
  5
53
102
{ACAD_REACTORS
330
47
102
}
330
47
100
AcDbScale
 70
     0
300
1:100
140
1.0
141
100.0
290
     0
  0
SCALE
  5
54
102
{ACAD_REACTORS
330
47
102
}
330
47
100
AcDbScale
 70
     0
300
2:1
140
2.0
141
1.0
290
     0
  0
SCALE
  5
55
102
{ACAD_REACTORS
330
47
102
}
330
47
100
AcDbScale
 70
     0
300
4:1
140
4.0
141
1.0
290
     0
  0
SCALE
  5
56
102
{ACAD_REACTORS
330
47
102
}
330
47
100
AcDbScale
 70
     0
300
8:1
140
8.0
141
1.0
290
     0
  0
SCALE
  5
57
102
{ACAD_REACTORS
330
47
102
}
330
47
100
AcDbScale
 70
     0
300
10:1
140
10.0
141
1.0
290
     0
  0
SCALE
  5
58
102
{ACAD_REACTORS
330
47
102
}
330
47
100
AcDbScale
 70
     0
300
100:1
140
100.0
141
1.0
290
     0
  0
SCALE
  5
59
102
{ACAD_REACTORS
330
47
102
}
330
47
100
AcDbScale
 70
     0
300
1/128" = 1'-0"
140
0.0078125
141
12.0
290
     0
  0
SCALE
  5
5A
102
{ACAD_REACTORS
330
47
102
}
330
47
100
AcDbScale
 70
     0
300
1/64" = 1'-0"
140
0.015625
141
12.0
290
     0
  0
SCALE
  5
5B
102
{ACAD_REACTORS
330
47
102
}
330
47
100
AcDbScale
 70
     0
300
1/32" = 1'-0"
140
0.03125
141
12.0
290
     0
  0
SCALE
  5
5C
102
{ACAD_REACTORS
330
47
102
}
330
47
100
AcDbScale
 70
     0
300
1/16" = 1'-0"
140
0.0625
141
12.0
290
     0
  0
SCALE
  5
5D
102
{ACAD_REACTORS
330
47
102
}
330
47
100
AcDbScale
 70
     0
300
3/32" = 1'-0"
140
0.09375
141
12.0
290
     0
  0
SCALE
  5
5E
102
{ACAD_REACTORS
330
47
102
}
330
47
100
AcDbScale
 70
     0
300
1/8" = 1'-0"
140
0.125
141
12.0
290
     0
  0
SCALE
  5
5F
102
{ACAD_REACTORS
330
47
102
}
330
47
100
AcDbScale
 70
     0
300
3/16" = 1'-0"
140
0.1875
141
12.0
290
     0
  0
SCALE
  5
60
102
{ACAD_REACTORS
330
47
102
}
330
47
100
AcDbScale
 70
     0
300
1/4" = 1'-0"
140
0.25
141
12.0
290
     0
  0
SCALE
  5
61
102
{ACAD_REACTORS
330
47
102
}
330
47
100
AcDbScale
 70
     0
300
3/8" = 1'-0"
140
0.375
141
12.0
290
     0
  0
SCALE
  5
62
102
{ACAD_REACTORS
330
47
102
}
330
47
100
AcDbScale
 70
     0
300
1/2" = 1'-0"
140
0.5
141
12.0
290
     0
  0
SCALE
  5
63
102
{ACAD_REACTORS
330
47
102
}
330
47
100
AcDbScale
 70
     0
300
3/4" = 1'-0"
140
0.75
141
12.0
290
     0
  0
SCALE
  5
64
102
{ACAD_REACTORS
330
47
102
}
330
47
100
AcDbScale
 70
     0
300
1" = 1'-0"
140
1.0
141
12.0
290
     0
  0
SCALE
  5
65
102
{ACAD_REACTORS
330
47
102
}
330
47
100
AcDbScale
 70
     0
300
1-1/2" = 1'-0"
140
1.5
141
12.0
290
     0
  0
SCALE
  5
66
102
{ACAD_REACTORS
330
47
102
}
330
47
100
AcDbScale
 70
     0
300
3" = 1'-0"
140
3.0
141
12.0
290
     0
  0
SCALE
  5
67
102
{ACAD_REACTORS
330
47
102
}
330
47
100
AcDbScale
 70
     0
300
6" = 1'-0"
140
6.0
141
12.0
290
     0
  0
SCALE
  5
68
102
{ACAD_REACTORS
330
47
102
}
330
47
100
AcDbScale
 70
     0
300
1'-0" = 1'-0"
140
12.0
141
12.0
290
     0
  0
ENDSEC
  0
EOF
