  0
SECTION
  2
HEADER
  9
$ACADVER
  1
AC1015
  9
$ACADMAINTVER
 70
     6
  9
$DWGCODEPAGE
  3
ANSI_1252
  9
$INSBASE
 10
0.0
 20
0.0
 30
0.0
  9
$EXTMIN
 10
0.0
 20
0.0
 30
0.0
  9
$EXTMAX
 10
495.0
 20
350.0
 30
0.0
  9
$LIMMIN
 10
0.0
 20
0.0
  9
$LIMMAX
 10
495.0
 20
350.0
  9
$ORTHOMODE
 70
     0
  9
$REGENMODE
 70
     1
  9
$FILLMODE
 70
     1
  9
$QTEXTMODE
 70
     0
  9
$MIRRTEXT
 70
     1
  9
$LTSCALE
 40
1.6666666667
  9
$ATTMODE
 70
     1
  9
$TEXTSIZE
 40
6.4675925926
  9
$TRACEWID
 40
1.0
  9
$TEXTSTYLE
  7
Standard
  9
$CLAYER
  8
0
  9
$CELTYPE
  6
ByLayer
  9
$CECOLOR
 62
   256
  9
$CELTSCALE
 40
1.0
  9
$DISPSILH
 70
     0
  9
$DIMSCALE
 40
1.0
  9
$DIMASZ
 40
5.5033333333
  9
$DIMEXO
 40
1.6666666667
  9
$DIMDLI
 40
3.75
  9
$DIMRND
 40
0.0
  9
$DIMDLE
 40
0.0
  9
$DIMEXE
 40
1.6666666667
  9
$DIMTP
 40
0.0
  9
$DIMTM
 40
0.0
  9
$DIMTXT
 40
6.4675925926
  9
$DIMCEN
 40
2.5
  9
$DIMTSZ
 40
0.0
  9
$DIMTOL
 70
     0
  9
$DIMLIM
 70
     0
  9
$DIMTIH
 70
     1
  9
$DIMTOH
 70
     1
  9
$DIMSE1
 70
     0
  9
$DIMSE2
 70
     0
  9
$DIMTAD
 70
     1
  9
$DIMZIN
 70
     0
  9
$DIMBLK
  1

  9
$DIMASO
 70
     1
  9
$DIMSHO
 70
     1
  9
$DIMPOST
  1

  9
$DIMAPOST
  1

  9
$DIMALT
 70
     0
  9
$DIMALTD
 70
     3
  9
$DIMALTF
 40
0.0393700787
  9
$DIMLFAC
 40
1.0
  9
$DIMTOFL
 70
     1
  9
$DIMTVP
 40
0.0
  9
$DIMTIX
 70
     0
  9
$DIMSOXD
 70
     0
  9
$DIMSAH
 70
     0
  9
$DIMBLK1
  1

  9
$DIMBLK2
  1

  9
$DIMSTYLE
  2
ISO-25
  9
$DIMCLRD
 70
     0
  9
$DIMCLRE
 70
     0
  9
$DIMCLRT
 70
     0
  9
$DIMTFAC
 40
1.0
  9
$DIMGAP
 40
2.54
  9
$DIMJUST
 70
     0
  9
$DIMSD1
 70
     0
  9
$DIMSD2
 70
     0
  9
$DIMTOLJ
 70
     0
  9
$DIMTZIN
 70
     0
  9
$DIMALTZ
 70
     0
  9
$DIMALTTZ
 70
     0
  9
$DIMUPT
 70
     0
  9
$DIMDEC
 70
     2
  9
$DIMTDEC
 70
     2
  9
$DIMALTU
 70
     2
  9
$DIMALTTD
 70
     3
  9
$DIMTXSTY
  7
Standard
  9
$DIMAUNIT
 70
     0
  9
$DIMADEC
 70
     2
  9
$DIMALTRND
 40
0.0
  9
$DIMAZIN
 70
     0
  9
$DIMDSEP
 70
    44
  9
$DIMATFIT
 70
     3
  9
$DIMFRAC
 70
     0
  9
$DIMLDRBLK
  1

  9
$DIMLUNIT
 70
     2
  9
$DIMLWD
 70
    -2
  9
$DIMLWE
 70
    -2
  9
$DIMTMOVE
 70
     0
  9
$LUNITS
 70
     2
  9
$LUPREC
 70
     2
  9
$SKETCHINC
 40
1.0
  9
$FILLETRAD
 40
10.0
  9
$AUNITS
 70
     1
  9
$AUPREC
 70
     2
  9
$MENU
  1
.
  9
$ELEVATION
 40
0.0
  9
$PELEVATION
 40
0.0
  9
$THICKNESS
 40
0.0
  9
$LIMCHECK
 70
     0
  9
$CHAMFERA
 40
0.0
  9
$CHAMFERB
 40
0.0
  9
$CHAMFERC
 40
0.0
  9
$CHAMFERD
 40
0.0
  9
$SKPOLY
 70
     0
  9
$TDCREATE
 40
2458600.670177685
  9
$TDUCREATE
 40
2458600.441011019
  9
$TDUPDATE
 40
2458600.670178611
  9
$TDUUPDATE
 40
2458600.441011944
  9
$TDINDWG
 40
0.0000000116
  9
$TDUSRTIMER
 40
0.0000000116
  9
$USRTIMER
 70
     1
  9
$ANGBASE
 50
0.0
  9
$ANGDIR
 70
     0
  9
$PDMODE
 70
     0
  9
$PDSIZE
 40
-1.0
  9
$PLINEWID
 40
0.0
  9
$SPLFRAME
 70
     0
  9
$SPLINETYPE
 70
     6
  9
$SPLINESEGS
 70
     8
  9
$HANDSEED
  5
177
  9
$SURFTAB1
 70
     6
  9
$SURFTAB2
 70
     6
  9
$SURFTYPE
 70
     6
  9
$SURFU
 70
     6
  9
$SURFV
 70
     6
  9
$UCSBASE
  2

  9
$UCSNAME
  2

  9
$UCSORG
 10
0.0
 20
0.0
 30
0.0
  9
$UCSXDIR
 10
1.0
 20
0.0
 30
0.0
  9
$UCSYDIR
 10
0.0
 20
1.0
 30
0.0
  9
$UCSORTHOREF
  2

  9
$UCSORTHOVIEW
 70
     0
  9
$UCSORGTOP
 10
0.0
 20
0.0
 30
0.0
  9
$UCSORGBOTTOM
 10
0.0
 20
0.0
 30
0.0
  9
$UCSORGLEFT
 10
0.0
 20
0.0
 30
0.0
  9
$UCSORGRIGHT
 10
0.0
 20
0.0
 30
0.0
  9
$UCSORGFRONT
 10
0.0
 20
0.0
 30
0.0
  9
$UCSORGBACK
 10
0.0
 20
0.0
 30
0.0
  9
$PUCSBASE
  2

  9
$PUCSNAME
  2

  9
$PUCSORG
 10
0.0
 20
0.0
 30
0.0
  9
$PUCSXDIR
 10
1.0
 20
0.0
 30
0.0
  9
$PUCSYDIR
 10
0.0
 20
1.0
 30
0.0
  9
$PUCSORTHOREF
  2

  9
$PUCSORTHOVIEW
 70
     0
  9
$PUCSORGTOP
 10
0.0
 20
0.0
 30
0.0
  9
$PUCSORGBOTTOM
 10
0.0
 20
0.0
 30
0.0
  9
$PUCSORGLEFT
 10
0.0
 20
0.0
 30
0.0
  9
$PUCSORGRIGHT
 10
0.0
 20
0.0
 30
0.0
  9
$PUCSORGFRONT
 10
0.0
 20
0.0
 30
0.0
  9
$PUCSORGBACK
 10
0.0
 20
0.0
 30
0.0
  9
$USERI1
 70
     0
  9
$USERI2
 70
     0
  9
$USERI3
 70
     0
  9
$USERI4
 70
     0
  9
$USERI5
 70
     0
  9
$USERR1
 40
0.0
  9
$USERR2
 40
0.0
  9
$USERR3
 40
0.0
  9
$USERR4
 40
0.0
  9
$USERR5
 40
0.0
  9
$WORLDVIEW
 70
     1
  9
$SHADEDGE
 70
     3
  9
$SHADEDIF
 70
    70
  9
$TILEMODE
 70
     1
  9
$MAXACTVP
 70
    64
  9
$PINSBASE
 10
0.0
 20
0.0
 30
0.0
  9
$PLIMCHECK
 70
     0
  9
$PEXTMIN
 10
1.0000000000E+20
 20
1.0000000000E+20
 30
1.0000000000E+20
  9
$PEXTMAX
 10
-1.0000000000E+20
 20
-1.0000000000E+20
 30
-1.0000000000E+20
  9
$PLIMMIN
 10
0.0
 20
0.0
  9
$PLIMMAX
 10
420.0
 20
297.0
  9
$UNITMODE
 70
     0
  9
$VISRETAIN
 70
     1
  9
$PLINEGEN
 70
     0
  9
$PSLTSCALE
 70
     1
  9
$TREEDEPTH
 70
  3020
  9
$CMLSTYLE
  2
Standard
  9
$CMLJUST
 70
     0
  9
$CMLSCALE
 40
20.0
  9
$PROXYGRAPHICS
 70
     1
  9
$MEASUREMENT
 70
     1
  9
$CELWEIGHT
370
    -1
  9
$ENDCAPS
280
     0
  9
$JOINSTYLE
280
     0
  9
$LWDISPLAY
290
     1
  9
$INSUNITS
 70
     4
  9
$HYPERLINKBASE
  1

  9
$STYLESHEET
  1

  9
$XEDIT
290
     1
  9
$CEPSNTYPE
380
     0
  9
$PSTYLEMODE
290
     1
  9
$FINGERPRINTGUID
  2
{D43B7454-A0C6-4A62-919B-225B0D87DD17}
  9
$VERSIONGUID
  2
{FAEB1C32-E019-11D5-929B-00C0DF256EC4}
  9
$EXTNAMES
290
     1
  9
$PSVPSCALE
 40
0.0
  9
$OLESTARTUP
290
     0
  0
ENDSEC
  0
SECTION
  2
CLASSES
  0
CLASS
  1
ACDBDICTIONARYWDFLT
  2
AcDbDictionaryWithDefault
  3
ObjectDBX Classes
 90
        0
280
     0
281
     0
  0
CLASS
  1
VISUALSTYLE
  2
AcDbVisualStyle
  3
ObjectDBX Classes
 90
     4095
280
     0
281
     0
  0
CLASS
  1
MATERIAL
  2
AcDbMaterial
  3
ObjectDBX Classes
 90
     1153
280
     0
281
     0
  0
CLASS
  1
SCALE
  2
AcDbScale
  3
ObjectDBX Classes
 90
     1153
280
     0
281
     0
  0
CLASS
  1
SUN
  2
AcDbSun
  3
SCENEOE
 90
     1153
280
     0
281
     0
  0
CLASS
  1
ACDBPLACEHOLDER
  2
AcDbPlaceHolder
  3
ObjectDBX Classes
 90
        0
280
     0
281
     0
  0
CLASS
  1
LAYOUT
  2
AcDbLayout
  3
ObjectDBX Classes
 90
        0
280
     0
281
     0
  0
ENDSEC
  0
SECTION
  2
TABLES
  0
TABLE
  2
VPORT
  5
8
330
0
100
AcDbSymbolTable
 70
     1
  0
VPORT
  5
29
330
8
100
AcDbSymbolTableRecord
100
AcDbViewportTableRecord
  2
*Active
 70
     0
 10
0.0
 20
0.0
 11
1.0
 21
1.0
 12
247.5
 22
175.0
 13
0.0
 23
0.0
 14
10.0
 24
10.0
 15
10.0
 25
10.0
 16
0.0
 26
0.0
 36
1.0
 17
0.0
 27
0.0
 37
0.0
 40
350.0
 41
1.4142857143
 42
50.0
 43
0.0
 44
0.0
 50
0.0
 51
0.0
 71
     0
 72
  2000
 73
     1
 74
     3
 75
     0
 76
     0
 77
     0
 78
     0
281
     0
 65
     1
110
0.0
120
0.0
130
0.0
111
1.0
121
0.0
131
0.0
112
0.0
122
1.0
132
0.0
 79
     0
146
0.0
  0
ENDTAB
  0
TABLE
  2
LTYPE
  5
5
330
0
100
AcDbSymbolTable
 70
     6
  0
LTYPE
  5
14
330
5
100
AcDbSymbolTableRecord
100
AcDbLinetypeTableRecord
  2
ByBlock
 70
     0
  3

 72
    65
 73
     0
 40
0.0
  0
LTYPE
  5
15
330
5
100
AcDbSymbolTableRecord
100
AcDbLinetypeTableRecord
  2
ByLayer
 70
     0
  3

 72
    65
 73
     0
 40
0.0
  0
LTYPE
  5
16
330
5
100
AcDbSymbolTableRecord
100
AcDbLinetypeTableRecord
  2
Continuous
 70
     0
  3
Solid line
 72
    65
 73
     0
 40
0.0
  0
LTYPE
  5
6A
330
5
100
AcDbSymbolTableRecord
100
AcDbLinetypeTableRecord
  2
HIDDEN
 70
     0
  3
Hidden __ __ __ __ __ __ __ __ __ __ __ __ __ __
 72
    65
 73
     2
 40
1.905
 49
1.27
 74
     0
 49
-0.635
 74
     0
  0
LTYPE
  5
6B
330
5
100
AcDbSymbolTableRecord
100
AcDbLinetypeTableRecord
  2
PHANTOM
 70
     0
  3
Phantom ______  __  __  ______  __  __  ______
 72
    65
 73
     6
 40
12.7
 49
6.35
 74
     0
 49
-1.27
 74
     0
 49
1.27
 74
     0
 49
-1.27
 74
     0
 49
1.27
 74
     0
 49
-1.27
 74
     0
  0
LTYPE
  5
6C
330
5
100
AcDbSymbolTableRecord
100
AcDbLinetypeTableRecord
  2
CENTER
 70
     0
  3
Center ____ _ ____ _ ____ _ ____ _ ____ _ ____
 72
    65
 73
     4
 40
10.16
 49
6.35
 74
     0
 49
-1.27
 74
     0
 49
1.27
 74
     0
 49
-1.27
 74
     0
  0
LTYPE
  5
6D
330
5
100
AcDbSymbolTableRecord
100
AcDbLinetypeTableRecord
  2
CENTERX2
 70
     0
  3
Center (2x) ________  __  ________  __  _____
 72
    65
 73
     4
 40
20.32
 49
12.7
 74
     0
 49
-2.54
 74
     0
 49
2.54
 74
     0
 49
-2.54
 74
     0
  0
LTYPE
  5
6E
330
5
100
AcDbSymbolTableRecord
100
AcDbLinetypeTableRecord
  2
DOT2
 70
     0
  3
Dot (.5x) ........................................
 72
    65
 73
     2
 40
0.635
 49
0.0
 74
     0
 49
-0.635
 74
     0
  0
ENDTAB
  0
TABLE
  2
LAYER
  5
2
330
0
100
AcDbSymbolTable
 70
     8
  0
LAYER
  5
10
330
2
100
AcDbSymbolTableRecord
100
AcDbLayerTableRecord
  2
0
 70
     0
 62
     7
  6
Continuous
370
    -3
390
F
  0
LAYER
  5
6F
330
2
100
AcDbSymbolTableRecord
100
AcDbLayerTableRecord
  2
FORMAT
 70
     0
 62
     7
  6
Continuous
370
    -3
390
F
  0
LAYER
  5
70
330
2
100
AcDbSymbolTableRecord
100
AcDbLayerTableRecord
  2
SLD-0
 70
     0
 62
     2
  6
Continuous
370
    -3
390
F
  0
LAYER
  5
71
330
2
100
AcDbSymbolTableRecord
100
AcDbLayerTableRecord
  2
DIM
 70
     0
 62
   179
  6
Continuous
370
    -3
390
F
  0
LAYER
  5
72
330
2
100
AcDbSymbolTableRecord
100
AcDbLayerTableRecord
  2
SLD-DEFPOINTS
 70
     0
 62
   179
  6
Continuous
370
    -3
390
F
  0
LAYER
  5
73
330
2
100
AcDbSymbolTableRecord
100
AcDbLayerTableRecord
  2
HAT
 70
     0
 62
   135
  6
Continuous
370
    -3
390
F
  0
LAYER
  5
74
330
2
100
AcDbSymbolTableRecord
100
AcDbLayerTableRecord
  2
JOB
 70
     0
 62
   201
  6
Continuous
370
    -3
390
F
  0
LAYER
  5
75
330
2
100
AcDbSymbolTableRecord
100
AcDbLayerTableRecord
  2
INSPECTION_REPORT
 70
     0
 62
   255
  6
Continuous
370
    -3
390
F
  0
ENDTAB
  0
TABLE
  2
STYLE
  5
3
330
0
100
AcDbSymbolTable
 70
     4
  0
STYLE
  5
11
330
3
100
AcDbSymbolTableRecord
100
AcDbTextStyleTableRecord
  2
Standard
 70
     0
 40
0.0
 41
1.0
 50
0.0
 71
     0
 42
6.4675925926
  3
txt
  4

  0
STYLE
  5
96
330
3
100
AcDbSymbolTableRecord
100
AcDbTextStyleTableRecord
  2
SLDTEXTSTYLE0
 70
     0
 40
0.0
 41
0.7
 50
0.0
 71
     0
 42
6.4675925926
  3
TXT
  4

  0
STYLE
  5
98
330
3
100
AcDbSymbolTableRecord
100
AcDbTextStyleTableRecord
  2
SLDTEXTSTYLE1
 70
     0
 40
0.0
 41
0.75
 50
0.0
 71
     0
 42
6.4675925926
  3
TXT
  4

  0
STYLE
  5
AB
330
3
100
AcDbSymbolTableRecord
100
AcDbTextStyleTableRecord
  2
SLDTEXTSTYLE2
 70
     0
 40
0.0
 41
0.6875
 50
0.0
 71
     0
 42
6.4675925926
  3
TXT
  4

  0
ENDTAB
  0
TABLE
  2
VIEW
  5
6
330
0
100
AcDbSymbolTable
 70
     0
  0
ENDTAB
  0
TABLE
  2
UCS
  5
7
330
0
100
AcDbSymbolTable
 70
     0
  0
ENDTAB
  0
TABLE
  2
APPID
  5
9
330
0
100
AcDbSymbolTable
 70
     1
  0
APPID
  5
12
330
9
100
AcDbSymbolTableRecord
100
AcDbRegAppTableRecord
  2
ACAD
 70
     0
  0
ENDTAB
  0
TABLE
  2
DIMSTYLE
  5
A
330
0
100
AcDbSymbolTable
 70
     4
100
AcDbDimStyleTable
  0
DIMSTYLE
105
27
330
A
100
AcDbSymbolTableRecord
100
AcDbDimStyleTableRecord
  2
ISO-25
 70
     0
 41
2.5
 42
0.625
 43
3.75
 44
1.25
 73
     0
 74
     0
 77
     1
 78
     8
140
2.5
141
2.5
143
0.0393700787
147
0.625
171
     3
172
     1
178
     0
271
     2
272
     2
274
     3
278
    44
283
     0
284
     8
340
11
  0
DIMSTYLE
105
137
102
{ACAD_REACTORS
330
136
330
15A
102
}
330
A
100
AcDbSymbolTableRecord
100
AcDbDimStyleTableRecord
  2
SLDDIMSTYLE0
 70
     0
 41
5.5033333333
 44
0.0
 45
0.000000001
 73
     0
 74
     0
 77
     1
 78
     4
 79
     1
140
4.8506944444
144
1.0
147
1.2126736111
173
     1
178
     0
271
     2
272
     2
276
     2
284
    12
340
96
  0
DIMSTYLE
105
142
102
{ACAD_REACTORS
330
141
102
}
330
A
100
AcDbSymbolTableRecord
100
AcDbDimStyleTableRecord
  2
SLDDIMSTYLE1
 70
     0
 41
5.5033333333
 44
0.0
 45
0.000000001
 73
     0
 74
     0
 77
     1
 78
    12
 79
     3
140
4.8506944444
144
1.0
147
1.2126736111
173
     1
178
     0
271
     2
272
     2
276
     2
284
    12
340
96
  0
DIMSTYLE
105
14D
102
{ACAD_REACTORS
330
14C
330
165
102
}
330
A
100
AcDbSymbolTableRecord
100
AcDbDimStyleTableRecord
  2
SLDDIMSTYLE2
 70
     0
 41
5.5033333333
 44
0.0
 45
0.000000001
 73
     0
 74
     0
 77
     1
 78
    12
 79
     3
140
4.8506944444
144
1.0
147
1.2126736111
172
     1
173
     1
178
     0
271
     2
272
     2
276
     2
284
    12
289
     0
340
96
  0
ENDTAB
  0
TABLE
  2
BLOCK_RECORD
  5
1
330
0
100
AcDbSymbolTable
 70
     7
  0
BLOCK_RECORD
  5
1F
330
1
100
AcDbSymbolTableRecord
100
AcDbBlockTableRecord
  2
*Model_Space
340
22
  0
BLOCK_RECORD
  5
1B
330
1
100
AcDbSymbolTableRecord
100
AcDbBlockTableRecord
  2
*Paper_Space
340
1E
  0
BLOCK_RECORD
  5
23
330
1
100
AcDbSymbolTableRecord
100
AcDbBlockTableRecord
  2
*Paper_Space0
340
26
  0
BLOCK_RECORD
  5
CB
330
1
100
AcDbSymbolTableRecord
100
AcDbBlockTableRecord
  2
SW_CENTERMARKSYMBOL_0
340
0
102
{BLKREFS
331
D6
102
}
  0
BLOCK_RECORD
  5
138
330
1
100
AcDbSymbolTableRecord
100
AcDbBlockTableRecord
  2
_D
340
0
  0
BLOCK_RECORD
  5
143
330
1
100
AcDbSymbolTableRecord
100
AcDbBlockTableRecord
  2
_D_1
340
0
  0
BLOCK_RECORD
  5
14E
330
1
100
AcDbSymbolTableRecord
100
AcDbBlockTableRecord
  2
_D_2
340
0
  0
BLOCK_RECORD
  5
15B
330
1
100
AcDbSymbolTableRecord
100
AcDbBlockTableRecord
  2
_D_3
340
0
  0
BLOCK_RECORD
  5
166
330
1
100
AcDbSymbolTableRecord
100
AcDbBlockTableRecord
  2
_D_4
340
0
  0
ENDTAB
  0
ENDSEC
  0
SECTION
  2
BLOCKS
  0
BLOCK
  5
20
330
1F
100
AcDbEntity
  8
0
100
AcDbBlockBegin
  2
*Model_Space
 70
     0
 10
0.0
 20
0.0
 30
0.0
  3
*Model_Space
  1
*Model_Space
  0
ENDBLK
  5
21
330
1F
100
AcDbEntity
  8
0
100
AcDbBlockEnd
  0
BLOCK
  5
1C
330
1B
100
AcDbEntity
 67
     1
  8
0
100
AcDbBlockBegin
  2
*Paper_Space
 70
     0
 10
0.0
 20
0.0
 30
0.0
  3
*Paper_Space
  1
*Paper_Space
  0
ENDBLK
  5
1D
330
1B
100
AcDbEntity
 67
     1
  8
0
100
AcDbBlockEnd
  0
BLOCK
  5
24
330
23
100
AcDbEntity
  8
0
100
AcDbBlockBegin
  2
*Paper_Space0
 70
     0
 10
0.0
 20
0.0
 30
0.0
  3
*Paper_Space0
  1
*Paper_Space0
  0
ENDBLK
  5
25
330
23
100
AcDbEntity
  8
0
100
AcDbBlockEnd
  0
BLOCK
  5
CC
330
CB
100
AcDbEntity
  8
0
100
AcDbBlockBegin
  2
SW_CENTERMARKSYMBOL_0
 70
     0
 10
0.0
 20
0.0
 30
0.0
  3
SW_CENTERMARKSYMBOL_0
  1
SW_CENTERMARKSYMBOL_0
  0
LINE
  5
CE
330
CB
100
AcDbEntity
  8
DIM
 62
     0
100
AcDbLine
 10
0.0
 20
0.0
 30
0.0
 11
0.0
 21
2.5
 31
0.0
  0
LINE
  5
CF
330
CB
100
AcDbEntity
  8
DIM
 62
     0
100
AcDbLine
 10
0.0
 20
0.0
 30
0.0
 11
-2.5
 21
0.0
 31
0.0
  0
LINE
  5
D0
330
CB
100
AcDbEntity
  8
DIM
 62
     0
100
AcDbLine
 10
0.0
 20
0.0
 30
0.0
 11
0.0
 21
-2.5
 31
0.0
  0
LINE
  5
D1
330
CB
100
AcDbEntity
  8
DIM
 62
     0
100
AcDbLine
 10
0.0
 20
0.0
 30
0.0
 11
2.5
 21
0.0
 31
0.0
  0
LINE
  5
D2
330
CB
100
AcDbEntity
  8
DIM
 62
     0
100
AcDbLine
 10
0.0
 20
5.0
 30
0.0
 11
0.0
 21
33.094314576
 31
0.0
  0
LINE
  5
D3
330
CB
100
AcDbEntity
  8
DIM
 62
     0
100
AcDbLine
 10
-5.0
 20
0.0
 30
0.0
 11
-33.094314576
 21
0.0
 31
0.0
  0
LINE
  5
D4
330
CB
100
AcDbEntity
  8
DIM
 62
     0
100
AcDbLine
 10
0.0
 20
-5.0
 30
0.0
 11
0.0
 21
-33.094314576
 31
0.0
  0
LINE
  5
D5
330
CB
100
AcDbEntity
  8
DIM
 62
     0
100
AcDbLine
 10
5.0
 20
0.0
 30
0.0
 11
33.094314576
 21
0.0
 31
0.0
  0
ENDBLK
  5
CD
330
CB
100
AcDbEntity
  8
0
100
AcDbBlockEnd
  0
BLOCK
  5
139
330
138
100
AcDbEntity
  8
0
100
AcDbBlockBegin
  2
_D
 70
     0
 10
0.0
 20
0.0
 30
0.0
  3
_D
  1
_D
  0
SOLID
  5
13B
330
138
100
AcDbEntity
  8
DIM
100
AcDbTrace
 10
185.3877235395
 20
123.4951389523
 30
0.0
 11
190.8910568728
 21
122.6484722857
 31
0.0
 12
190.8910568728
 22
124.341805619
 32
0.0
 13
190.8910568728
 23
124.341805619
 33
0.0
  0
SOLID
  5
13C
330
138
100
AcDbEntity
  8
DIM
100
AcDbTrace
 10
413.7877235395
 20
123.4951389523
 30
0.0
 11
408.2843902062
 21
124.341805619
 31
0.0
 12
408.2843902062
 22
122.6484722857
 32
0.0
 13
408.2843902062
 23
122.6484722857
 33
0.0
  0
LINE
  5
13D
330
138
100
AcDbEntity
  8
DIM
100
AcDbLine
 10
185.3877235395
 20
180.2651389534
 30
0.0
 11
185.3877235395
 21
121.8284722857
 31
0.0
  0
LINE
  5
13E
330
138
100
AcDbEntity
  8
DIM
100
AcDbLine
 10
413.7877235395
 20
168.7651389534
 30
0.0
 11
413.7877235395
 21
121.8284722857
 31
0.0
  0
LINE
  5
13F
330
138
100
AcDbEntity
  8
DIM
100
AcDbLine
 10
185.3877235395
 20
123.4951389523
 30
0.0
 11
413.7877235395
 21
123.4951389523
 31
0.0
  0
MTEXT
  5
140
330
138
100
AcDbEntity
  8
DIM
100
AcDbMText
 10
275.0583789485
 20
129.7480130642
 30
0.0
 40
4.8506944444
 41
0.0
 71
     1
 72
     1
  1
228.40
  7
SLDTEXTSTYLE0
 73
     1
 44
1.0
  0
ENDBLK
  5
13A
330
138
100
AcDbEntity
  8
0
100
AcDbBlockEnd
  0
BLOCK
  5
144
330
143
100
AcDbEntity
  8
0
100
AcDbBlockBegin
  2
_D_1
 70
     0
 10
0.0
 20
0.0
 30
0.0
  3
_D_1
  1
_D_1
  0
SOLID
  5
146
330
143
100
AcDbEntity
  8
DIM
100
AcDbTrace
 10
253.7877235395
 20
137.4433076171
 30
0.0
 11
259.2910568728
 21
136.5966409504
 31
0.0
 12
259.2910568728
 22
138.2899742837
 32
0.0
 13
259.2910568728
 23
138.2899742837
 33
0.0
  0
SOLID
  5
147
330
143
100
AcDbEntity
  8
DIM
100
AcDbTrace
 10
413.7877235395
 20
137.4433076171
 30
0.0
 11
408.2843902062
 21
138.2899742837
 31
0.0
 12
408.2843902062
 22
136.5966409504
 32
0.0
 13
408.2843902062
 23
136.5966409504
 33
0.0
  0
LINE
  5
148
330
143
100
AcDbEntity
  8
DIM
100
AcDbLine
 10
253.7877235395
 20
158.0401389534
 30
0.0
 11
253.7877235395
 21
135.7766409504
 31
0.0
  0
LINE
  5
149
330
143
100
AcDbEntity
  8
DIM
100
AcDbLine
 10
413.7877235395
 20
168.7651389534
 30
0.0
 11
413.7877235395
 21
135.7766409504
 31
0.0
  0
LINE
  5
14A
330
143
100
AcDbEntity
  8
DIM
100
AcDbLine
 10
253.7877235395
 20
137.4433076171
 30
0.0
 11
413.7877235395
 21
137.4433076171
 31
0.0
  0
MTEXT
  5
14B
330
143
100
AcDbEntity
  8
DIM
100
AcDbMText
 10
332.8380781219
 20
143.6961817289
 30
0.0
 40
4.8506944444
 41
0.0
 71
     1
 72
     1
  1
160
  7
SLDTEXTSTYLE0
 73
     1
 44
1.0
  0
ENDBLK
  5
145
330
143
100
AcDbEntity
  8
0
100
AcDbBlockEnd
  0
BLOCK
  5
14F
330
14E
100
AcDbEntity
  8
0
100
AcDbBlockBegin
  2
_D_2
 70
     0
 10
0.0
 20
0.0
 30
0.0
  3
_D_2
  1
_D_2
  0
SOLID
  5
151
330
14E
100
AcDbEntity
  8
DIM
100
AcDbTrace
 10
430.4543902062
 20
197.9318056201
 30
0.0
 11
431.3010568728
 21
203.4351389534
 31
0.0
 12
429.6077235395
 22
203.4351389534
 32
0.0
 13
429.6077235395
 23
203.4351389534
 33
0.0
  0
SOLID
  5
152
330
14E
100
AcDbEntity
  8
DIM
100
AcDbTrace
 10
430.4543902062
 20
165.9318056201
 30
0.0
 11
429.6077235395
 21
160.4284722868
 31
0.0
 12
431.3010568728
 22
160.4284722868
 32
0.0
 13
431.3010568728
 23
160.4284722868
 33
0.0
  0
LINE
  5
153
330
14E
100
AcDbEntity
  8
DIM
100
AcDbLine
 10
412.8563139952
 20
197.9318056201
 30
0.0
 11
432.1210568728
 21
197.9318056201
 31
0.0
  0
LINE
  5
154
330
14E
100
AcDbEntity
  8
DIM
100
AcDbLine
 10
412.8563139952
 20
165.9318056201
 30
0.0
 11
432.1210568728
 21
165.9318056201
 31
0.0
  0
LINE
  5
155
330
14E
100
AcDbEntity
  8
DIM
100
AcDbLine
 10
430.4543902062
 20
197.9318056201
 30
0.0
 11
430.4543902062
 21
208.5151389534
 31
0.0
  0
LINE
  5
156
330
14E
100
AcDbEntity
  8
DIM
100
AcDbLine
 10
430.4543902062
 20
197.9318056201
 30
0.0
 11
430.4543902062
 21
165.9318056201
 31
0.0
  0
LINE
  5
157
330
14E
100
AcDbEntity
  8
DIM
100
AcDbLine
 10
430.4543902062
 20
165.9318056201
 30
0.0
 11
430.4543902062
 21
155.3484722868
 31
0.0
  0
MTEXT
  5
158
330
14E
100
AcDbEntity
  8
DIM
100
AcDbMText
 10
424.2015160943
 20
174.0177241633
 30
0.0
 40
4.8506944444
 41
0.0
 71
     1
 72
     1
  1
%%c
  7
SLDTEXTSTYLE0
 11
-7.044195017643634E-15
 21
1.0
 31
0.0
 73
     1
 44
1.0
  0
MTEXT
  5
159
330
14E
100
AcDbEntity
  8
DIM
100
AcDbMText
 10
424.2015160943
 20
181.518783996
 30
0.0
 40
4.8506944444
 41
0.0
 71
     1
 72
     1
  1
32
  7
SLDTEXTSTYLE0
 11
-7.044195017643634E-15
 21
1.0
 31
0.0
 73
     1
 44
1.0
  0
ENDBLK
  5
150
330
14E
100
AcDbEntity
  8
0
100
AcDbBlockEnd
  0
BLOCK
  5
15C
330
15B
100
AcDbEntity
  8
0
100
AcDbBlockBegin
  2
_D_3
 70
     0
 10
0.0
 20
0.0
 30
0.0
  3
_D_3
  1
_D_3
  0
SOLID
  5
15E
330
15B
100
AcDbEntity
  8
DIM
100
AcDbTrace
 10
171.9065539426
 20
213.7018056212
 30
0.0
 11
171.0598872759
 21
208.1984722879
 31
0.0
 12
172.7532206093
 22
208.1984722879
 32
0.0
 13
172.7532206093
 23
208.1984722879
 33
0.0
  0
SOLID
  5
15F
330
15B
100
AcDbEntity
  8
DIM
100
AcDbTrace
 10
171.9065539426
 20
150.161805619
 30
0.0
 11
172.7532206093
 21
155.6651389523
 31
0.0
 12
171.0598872759
 22
155.6651389523
 32
0.0
 13
171.0598872759
 23
155.6651389523
 33
0.0
  0
LINE
  5
160
330
15B
100
AcDbEntity
  8
DIM
100
AcDbLine
 10
256.4867422967
 20
213.7018056212
 30
0.0
 11
170.2398872759
 21
213.7018056212
 31
0.0
  0
LINE
  5
161
330
15B
100
AcDbEntity
  8
DIM
100
AcDbLine
 10
256.4867422967
 20
150.161805619
 30
0.0
 11
170.2398872759
 21
150.161805619
 31
0.0
  0
LINE
  5
162
330
15B
100
AcDbEntity
  8
DIM
100
AcDbLine
 10
171.9065539426
 20
213.7018056212
 30
0.0
 11
171.9065539426
 21
150.161805619
 31
0.0
  0
MTEXT
  5
163
330
15B
100
AcDbEntity
  8
DIM
100
AcDbMText
 10
165.6536798307
 20
169.8766681845
 30
0.0
 40
4.8506944444
 41
0.0
 71
     1
 72
     1
  1
%%c
  7
SLDTEXTSTYLE0
 11
-7.044195017643634E-15
 21
1.0
 31
0.0
 73
     1
 44
1.0
  0
MTEXT
  5
164
330
15B
100
AcDbEntity
  8
DIM
100
AcDbMText
 10
165.6536798307
 20
177.3777280172
 30
0.0
 40
4.8506944444
 41
0.0
 71
     1
 72
     1
  1
63.50
  7
SLDTEXTSTYLE0
 11
-7.044195017643634E-15
 21
1.0
 31
0.0
 73
     1
 44
1.0
  0
ENDBLK
  5
15D
330
15B
100
AcDbEntity
  8
0
100
AcDbBlockEnd
  0
BLOCK
  5
167
330
166
100
AcDbEntity
  8
0
100
AcDbBlockBegin
  2
_D_4
 70
     0
 10
0.0
 20
0.0
 30
0.0
  3
_D_4
  1
_D_4
  0
SOLID
  5
169
330
166
100
AcDbEntity
  8
DIM
100
AcDbTrace
 10
424.044011875
 20
195.9318056201
 30
0.0
 11
424.8906785417
 21
201.4351389534
 31
0.0
 12
423.1973452084
 22
201.4351389534
 32
0.0
 13
423.1973452084
 23
201.4351389534
 33
0.0
  0
SOLID
  5
16A
330
166
100
AcDbEntity
  8
DIM
100
AcDbTrace
 10
424.044011875
 20
167.9318056201
 30
0.0
 11
423.1973452084
 21
162.4284722868
 31
0.0
 12
424.8906785417
 22
162.4284722868
 32
0.0
 13
424.8906785417
 23
162.4284722868
 33
0.0
  0
LINE
  5
16B
330
166
100
AcDbEntity
  8
DIM
100
AcDbLine
 10
381.0343902062
 20
195.9318056201
 30
0.0
 11
425.7106785417
 21
195.9318056201
 31
0.0
  0
LINE
  5
16C
330
166
100
AcDbEntity
  8
DIM
100
AcDbLine
 10
381.0343902062
 20
167.9318056201
 30
0.0
 11
425.7106785417
 21
167.9318056201
 31
0.0
  0
LINE
  5
16D
330
166
100
AcDbEntity
  8
DIM
100
AcDbLine
 10
424.044011875
 20
195.9318056201
 30
0.0
 11
424.044011875
 21
206.5151389534
 31
0.0
  0
LINE
  5
16E
330
166
100
AcDbEntity
  8
DIM
100
AcDbLine
 10
424.044011875
 20
195.9318056201
 30
0.0
 11
424.044011875
 21
167.9318056201
 31
0.0
  0
LINE
  5
16F
330
166
100
AcDbEntity
  8
DIM
100
AcDbLine
 10
424.044011875
 20
167.9318056201
 30
0.0
 11
424.044011875
 21
157.3484722868
 31
0.0
  0
MTEXT
  5
170
330
166
100
AcDbEntity
  8
DIM
100
AcDbMText
 10
417.7911377632
 20
174.0177241633
 30
0.0
 40
4.8506944444
 41
0.0
 71
     1
 72
     1
  1
%%c
  7
SLDTEXTSTYLE0
 11
-7.044195017643634E-15
 21
1.0
 31
0.0
 73
     1
 44
1.0
  0
MTEXT
  5
171
330
166
100
AcDbEntity
  8
DIM
100
AcDbMText
 10
417.7911377632
 20
181.518783996
 30
0.0
 40
4.8506944444
 41
0.0
 71
     1
 72
     1
  1
28
  7
SLDTEXTSTYLE0
 11
-7.044195017643634E-15
 21
1.0
 31
0.0
 73
     1
 44
1.0
  0
ENDBLK
  5
168
330
166
100
AcDbEntity
  8
0
100
AcDbBlockEnd
  0
ENDSEC
  0
SECTION
  2
ENTITIES
  0
LINE
  5
76
330
1F
100
AcDbEntity
  8
DIM
100
AcDbLine
 10
174.5073744817
 20
16.3183190948
 30
0.0
 11
174.5073744817
 21
7.9849857614
 31
0.0
  0
LINE
  5
77
330
1F
100
AcDbEntity
  8
DIM
100
AcDbLine
 10
424.1160028255
 20
16.3183190948
 30
0.0
 11
424.1160028255
 21
7.9849857614
 31
0.0
  0
LINE
  5
78
330
1F
100
AcDbEntity
  8
DIM
100
AcDbLine
 10
395.752849886
 20
16.3183190948
 30
0.0
 11
395.752849886
 21
7.9849857614
 31
0.0
  0
LINE
  5
79
330
1F
100
AcDbEntity
  8
DIM
100
AcDbLine
 10
464.840707815
 20
7.9849857614
 30
0.0
 11
464.840707815
 21
16.3183190948
 31
0.0
  0
LINE
  5
7A
330
1F
100
AcDbEntity
  8
DIM
100
AcDbLine
 10
187.5073744817
 20
16.3183190948
 30
0.0
 11
187.5073744817
 21
7.9849857614
 31
0.0
  0
LINE
  5
7B
330
1F
100
AcDbEntity
  8
DIM
100
AcDbLine
 10
219.4922952047
 20
16.3183190948
 30
0.0
 11
219.4922952047
 21
7.9849857614
 31
0.0
  0
LINE
  5
7C
330
1F
100
AcDbEntity
  8
DIM
100
AcDbLine
 10
486.5073744817
 20
7.9849857614
 30
0.0
 11
486.5073744817
 21
128.4016524281
 31
0.0
  0
LINE
  5
7D
330
1F
100
AcDbEntity
  8
DIM
100
AcDbLine
 10
476.3650078245
 20
100.0683190948
 30
0.0
 11
486.5073744817
 21
100.0683190948
 31
0.0
  0
LINE
  5
7E
330
1F
100
AcDbEntity
  8
DIM
100
AcDbLine
 10
248.5055847542
 20
15.0683190948
 30
0.0
 11
248.5055847542
 21
7.9849857614
 31
0.0
  0
LINE
  5
7F
330
1F
100
AcDbEntity
  8
DIM
100
AcDbLine
 10
327.9399152674
 20
16.3183190948
 30
0.0
 11
327.9399152674
 21
7.9849857614
 31
0.0
  0
LINE
  5
80
330
1F
100
AcDbEntity
  8
DIM
100
AcDbLine
 10
248.5055847542
 20
16.3183190948
 30
0.0
 11
248.5055847542
 21
15.0683190948
 31
0.0
  0
LINE
  5
81
330
1F
100
AcDbEntity
  8
DIM
100
AcDbLine
 10
478.1740411483
 20
29.2348657614
 30
0.0
 11
486.5073744817
 21
29.2348657614
 31
0.0
  0
LINE
  5
82
330
1F
100
AcDbEntity
  8
DIM
100
AcDbLine
 10
478.1740411483
 20
332.9849857614
 30
0.0
 11
16.5073744817
 21
332.9849857614
 31
0.0
  0
LINE
  5
83
330
1F
100
AcDbEntity
  8
DIM
100
AcDbLine
 10
486.5073744817
 20
341.3183190948
 30
0.0
 11
8.1740411483
 21
341.3183190948
 31
0.0
  0
LINE
  5
84
330
1F
100
AcDbEntity
  8
DIM
100
AcDbLine
 10
16.5073744817
 20
332.9849857614
 30
0.0
 11
16.5073744817
 21
16.3183190948
 31
0.0
  0
LINE
  5
85
330
1F
100
AcDbEntity
  8
DIM
100
AcDbLine
 10
8.1740411483
 20
341.3183190948
 30
0.0
 11
8.1740411483
 21
7.9849857614
 31
0.0
  0
LINE
  5
86
330
1F
100
AcDbEntity
  8
DIM
100
AcDbLine
 10
16.5073744817
 20
91.3183190948
 30
0.0
 11
8.1740411483
 21
91.3183190948
 31
0.0
  0
LINE
  5
87
330
1F
100
AcDbEntity
  8
DIM
100
AcDbLine
 10
8.1740411483
 20
174.6516524281
 30
0.0
 11
16.5073744817
 21
174.6516524281
 31
0.0
  0
LINE
  5
88
330
1F
100
AcDbEntity
  8
DIM
100
AcDbLine
 10
8.1740411483
 20
7.9849857614
 30
0.0
 11
486.5073744817
 21
7.9849857614
 31
0.0
  0
LINE
  5
89
330
1F
100
AcDbEntity
  8
DIM
100
AcDbLine
 10
16.5073744817
 20
16.3183190948
 30
0.0
 11
486.5073744817
 21
16.3183190948
 31
0.0
  0
LINE
  5
8A
330
1F
100
AcDbEntity
  8
DIM
100
AcDbLine
 10
80.6740411483
 20
7.9849857614
 30
0.0
 11
80.6740411483
 21
16.3183190948
 31
0.0
  0
LINE
  5
8B
330
1F
100
AcDbEntity
  8
DIM
100
AcDbLine
 10
164.0073744817
 20
16.3183190948
 30
0.0
 11
164.0073744817
 21
7.9849857614
 31
0.0
  0
LINE
  5
8C
330
1F
100
AcDbEntity
  8
DIM
100
AcDbLine
 10
16.5073744817
 20
257.9849857614
 30
0.0
 11
8.1740411483
 21
257.9849857614
 31
0.0
  0
LINE
  5
8D
330
1F
100
AcDbEntity
  8
DIM
100
AcDbLine
 10
80.6740411483
 20
332.9849857614
 30
0.0
 11
80.6740411483
 21
341.3183190948
 31
0.0
  0
LINE
  5
8E
330
1F
100
AcDbEntity
  8
DIM
100
AcDbLine
 10
164.0073744817
 20
341.3183190948
 30
0.0
 11
164.0073744817
 21
332.9849857614
 31
0.0
  0
LINE
  5
8F
330
1F
100
AcDbEntity
  8
DIM
100
AcDbLine
 10
247.340707815
 20
341.3183190948
 30
0.0
 11
247.340707815
 21
332.9849857614
 31
0.0
  0
LINE
  5
90
330
1F
100
AcDbEntity
  8
DIM
100
AcDbLine
 10
478.1740411483
 20
16.3183190948
 30
0.0
 11
478.1740411483
 21
332.9849857614
 31
0.0
  0
LINE
  5
91
330
1F
100
AcDbEntity
  8
DIM
100
AcDbLine
 10
486.5073744817
 20
128.4016524281
 30
0.0
 11
486.5073744817
 21
341.3183190948
 31
0.0
  0
LINE
  5
92
330
1F
100
AcDbEntity
  8
DIM
100
AcDbLine
 10
486.5073744817
 20
174.6516524281
 30
0.0
 11
478.1740411483
 21
174.6516524281
 31
0.0
  0
LINE
  5
93
330
1F
100
AcDbEntity
  8
DIM
100
AcDbLine
 10
330.6740411483
 20
341.3183190948
 30
0.0
 11
330.6740411483
 21
332.9849857614
 31
0.0
  0
LINE
  5
94
330
1F
100
AcDbEntity
  8
DIM
100
AcDbLine
 10
414.0073744817
 20
332.9849857614
 30
0.0
 11
414.0073744817
 21
341.3183190948
 31
0.0
  0
LINE
  5
95
330
1F
100
AcDbEntity
  8
DIM
100
AcDbLine
 10
478.1740411483
 20
257.9849857614
 30
0.0
 11
486.5073744817
 21
257.9849857614
 31
0.0
  0
MTEXT
  5
97
330
1F
100
AcDbEntity
  8
DIM
100
AcDbMText
 10
22.1012572366
 20
323.5380969562
 30
0.0
 40
7.0555555556
 41
0.0
 71
     1
 72
     1
  1
SK 40 ER 16 160 AD/6.3G15000 SL
  7
SLDTEXTSTYLE0
 73
     1
 44
1.0
  0
MTEXT
  5
99
330
1F
100
AcDbEntity
  8
DIM
 62
     7
100
AcDbMText
 10
329.5546310777
 20
13.0032525438
 30
0.0
 40
2.4976666667
 41
0.0
 71
     1
 72
     1
  1
WEIGHT:
  7
SLDTEXTSTYLE1
 73
     1
 44
1.0
  0
MTEXT
  5
9A
330
1F
100
AcDbEntity
  8
DIM
 62
     7
100
AcDbMText
 10
480.9951279247
 20
136.5676891804
 30
0.0
 40
3.0868055556
 41
0.0
 71
     1
 72
     1
  1
C
  7
SLDTEXTSTYLE1
 73
     1
 44
1.0
  0
MTEXT
  5
9B
330
1F
100
AcDbEntity
  8
DIM
 62
     7
100
AcDbMText
 10
471.7393010324
 20
24.7566366394
 30
0.0
 40
4.8506944444
 41
0.0
 71
     1
 72
     1
  1
A4
  7
SLDTEXTSTYLE1
 73
     1
 44
1.0
  0
MTEXT
  5
9C
330
1F
100
AcDbEntity
  8
DIM
 62
     7
100
AcDbMText
 10
454.2851589261
 20
339.098346434
 30
0.0
 40
3.0868055556
 41
0.0
 71
     1
 72
     1
  1
6
  7
SLDTEXTSTYLE1
 73
     1
 44
1.0
  0
MTEXT
  5
9D
330
1F
100
AcDbEntity
  8
DIM
 62
     7
100
AcDbMText
 10
370.9518255928
 20
339.098346434
 30
0.0
 40
3.0868055556
 41
0.0
 71
     1
 72
     1
  1
5
  7
SLDTEXTSTYLE1
 73
     1
 44
1.0
  0
MTEXT
  5
9E
330
1F
100
AcDbEntity
  8
DIM
 62
     7
100
AcDbMText
 10
480.9518322594
 20
301.598346434
 30
0.0
 40
3.0868055556
 41
0.0
 71
     1
 72
     1
  1
A
  7
SLDTEXTSTYLE1
 73
     1
 44
1.0
  0
MTEXT
  5
9F
330
1F
100
AcDbEntity
  8
DIM
 62
     7
100
AcDbMText
 10
480.9518322594
 20
218.2650131007
 30
0.0
 40
3.0868055556
 41
0.0
 71
     1
 72
     1
  1
B
  7
SLDTEXTSTYLE1
 73
     1
 44
1.0
  0
MTEXT
  5
A0
330
1F
100
AcDbEntity
  8
DIM
 62
     7
100
AcDbMText
 10
287.6184922594
 20
339.098346434
 30
0.0
 40
3.0868055556
 41
0.0
 71
     1
 72
     1
  1
4
  7
SLDTEXTSTYLE1
 73
     1
 44
1.0
  0
MTEXT
  5
A1
330
1F
100
AcDbEntity
  8
DIM
 62
     7
100
AcDbMText
 10
38.3129367039
 20
339.098346434
 30
0.0
 40
3.0868055556
 41
0.0
 71
     1
 72
     1
  1
1
  7
SLDTEXTSTYLE1
 73
     1
 44
1.0
  0
MTEXT
  5
A2
330
1F
100
AcDbEntity
  8
DIM
 62
     7
100
AcDbMText
 10
120.9518255928
 20
339.098346434
 30
0.0
 40
3.0868055556
 41
0.0
 71
     1
 72
     1
  1
2
  7
SLDTEXTSTYLE1
 73
     1
 44
1.0
  0
MTEXT
  5
A3
330
1F
100
AcDbEntity
  8
DIM
 62
     7
100
AcDbMText
 10
204.2851589261
 20
339.098346434
 30
0.0
 40
3.0868055556
 41
0.0
 71
     1
 72
     1
  1
3
  7
SLDTEXTSTYLE1
 73
     1
 44
1.0
  0
MTEXT
  5
A4
330
1F
100
AcDbEntity
  8
DIM
 62
     7
100
AcDbMText
 10
10.9518189261
 20
301.598346434
 30
0.0
 40
3.0868055556
 41
0.0
 71
     1
 72
     1
  1
A
  7
SLDTEXTSTYLE1
 73
     1
 44
1.0
  0
MTEXT
  5
A5
330
1F
100
AcDbEntity
  8
DIM
 62
     7
100
AcDbMText
 10
120.9518255928
 20
14.098346434
 30
0.0
 40
3.0868055556
 41
0.0
 71
     1
 72
     1
  1
2
  7
SLDTEXTSTYLE1
 73
     1
 44
1.0
  0
MTEXT
  5
A6
330
1F
100
AcDbEntity
  8
DIM
 62
     7
100
AcDbMText
 10
38.3129367039
 20
14.098346434
 30
0.0
 40
3.0868055556
 41
0.0
 71
     1
 72
     1
  1
1
  7
SLDTEXTSTYLE1
 73
     1
 44
1.0
  0
MTEXT
  5
A7
330
1F
100
AcDbEntity
  8
DIM
 62
     7
100
AcDbMText
 10
10.9518189261
 20
51.598346434
 30
0.0
 40
3.0868055556
 41
0.0
 71
     1
 72
     1
  1
D
  7
SLDTEXTSTYLE1
 73
     1
 44
1.0
  0
MTEXT
  5
A8
330
1F
100
AcDbEntity
  8
DIM
 62
     7
100
AcDbMText
 10
10.9518189261
 20
134.9316797674
 30
0.0
 40
3.0868055556
 41
0.0
 71
     1
 72
     1
  1
C
  7
SLDTEXTSTYLE1
 73
     1
 44
1.0
  0
MTEXT
  5
A9
330
1F
100
AcDbEntity
  8
DIM
 62
     7
100
AcDbMText
 10
10.9518189261
 20
218.2650131007
 30
0.0
 40
3.0868055556
 41
0.0
 71
     1
 72
     1
  1
B
  7
SLDTEXTSTYLE1
 73
     1
 44
1.0
  0
MTEXT
  5
AA
330
1F
100
AcDbEntity
  8
DIM
 62
     7
100
AcDbMText
 10
480.9951279247
 20
136.5676891804
 30
0.0
 40
3.0868055556
 41
0.0
 71
     1
 72
     1
  1
C
  7
SLDTEXTSTYLE1
 73
     1
 44
1.0
  0
MTEXT
  5
AC
330
1F
100
AcDbEntity
  8
DIM
 62
     7
100
AcDbMText
 10
427.5422763542
 20
12.8184645523
 30
0.0
 40
2.5
 41
0.0
 71
     1
 72
     1
  1
SHEET 1 OF 1
  7
SLDTEXTSTYLE2
 73
     1
 44
1.0
  0
MTEXT
  5
AD
330
1F
100
AcDbEntity
  8
DIM
 62
     7
100
AcDbMText
 10
250.6196339724
 20
13.0889458061
 30
0.0
 40
2.5
 41
0.0
 71
     1
 72
     1
  1
MATERIAL:
  7
SLDTEXTSTYLE1
 73
     1
 44
1.0
  0
MTEXT
  5
AE
330
1F
100
AcDbEntity
  8
DIM
 62
     7
100
AcDbMText
 10
454.2851589261
 20
339.098346434
 30
0.0
 40
3.0868055556
 41
0.0
 71
     1
 72
     1
  1
6
  7
SLDTEXTSTYLE1
 73
     1
 44
1.0
  0
MTEXT
  5
AF
330
1F
100
AcDbEntity
  8
DIM
 62
     7
100
AcDbMText
 10
370.9518255928
 20
339.098346434
 30
0.0
 40
3.0868055556
 41
0.0
 71
     1
 72
     1
  1
5
  7
SLDTEXTSTYLE1
 73
     1
 44
1.0
  0
MTEXT
  5
B0
330
1F
100
AcDbEntity
  8
DIM
 62
     7
100
AcDbMText
 10
480.9518322594
 20
301.598346434
 30
0.0
 40
3.0868055556
 41
0.0
 71
     1
 72
     1
  1
A
  7
SLDTEXTSTYLE1
 73
     1
 44
1.0
  0
MTEXT
  5
B1
330
1F
100
AcDbEntity
  8
DIM
 62
     7
100
AcDbMText
 10
480.9518322594
 20
218.2650131007
 30
0.0
 40
3.0868055556
 41
0.0
 71
     1
 72
     1
  1
B
  7
SLDTEXTSTYLE1
 73
     1
 44
1.0
  0
MTEXT
  5
B2
330
1F
100
AcDbEntity
  8
DIM
 62
     7
100
AcDbMText
 10
287.6184922594
 20
339.098346434
 30
0.0
 40
3.0868055556
 41
0.0
 71
     1
 72
     1
  1
4
  7
SLDTEXTSTYLE1
 73
     1
 44
1.0
  0
MTEXT
  5
B3
330
1F
100
AcDbEntity
  8
DIM
 62
     7
100
AcDbMText
 10
38.3129367039
 20
339.098346434
 30
0.0
 40
3.0868055556
 41
0.0
 71
     1
 72
     1
  1
1
  7
SLDTEXTSTYLE1
 73
     1
 44
1.0
  0
MTEXT
  5
B4
330
1F
100
AcDbEntity
  8
DIM
 62
     7
100
AcDbMText
 10
120.9518255928
 20
339.098346434
 30
0.0
 40
3.0868055556
 41
0.0
 71
     1
 72
     1
  1
2
  7
SLDTEXTSTYLE1
 73
     1
 44
1.0
  0
MTEXT
  5
B5
330
1F
100
AcDbEntity
  8
DIM
 62
     7
100
AcDbMText
 10
204.2851589261
 20
339.098346434
 30
0.0
 40
3.0868055556
 41
0.0
 71
     1
 72
     1
  1
3
  7
SLDTEXTSTYLE1
 73
     1
 44
1.0
  0
MTEXT
  5
B6
330
1F
100
AcDbEntity
  8
DIM
 62
     7
100
AcDbMText
 10
10.9518189261
 20
301.598346434
 30
0.0
 40
3.0868055556
 41
0.0
 71
     1
 72
     1
  1
A
  7
SLDTEXTSTYLE1
 73
     1
 44
1.0
  0
MTEXT
  5
B7
330
1F
100
AcDbEntity
  8
DIM
 62
     7
100
AcDbMText
 10
120.9518255928
 20
14.098346434
 30
0.0
 40
3.0868055556
 41
0.0
 71
     1
 72
     1
  1
2
  7
SLDTEXTSTYLE1
 73
     1
 44
1.0
  0
MTEXT
  5
B8
330
1F
100
AcDbEntity
  8
DIM
 62
     7
100
AcDbMText
 10
38.3129367039
 20
14.098346434
 30
0.0
 40
3.0868055556
 41
0.0
 71
     1
 72
     1
  1
1
  7
SLDTEXTSTYLE1
 73
     1
 44
1.0
  0
MTEXT
  5
B9
330
1F
100
AcDbEntity
  8
DIM
 62
     7
100
AcDbMText
 10
10.9518189261
 20
51.598346434
 30
0.0
 40
3.0868055556
 41
0.0
 71
     1
 72
     1
  1
D
  7
SLDTEXTSTYLE1
 73
     1
 44
1.0
  0
MTEXT
  5
BA
330
1F
100
AcDbEntity
  8
DIM
 62
     7
100
AcDbMText
 10
10.9518189261
 20
134.9316797674
 30
0.0
 40
3.0868055556
 41
0.0
 71
     1
 72
     1
  1
C
  7
SLDTEXTSTYLE1
 73
     1
 44
1.0
  0
MTEXT
  5
BB
330
1F
100
AcDbEntity
  8
DIM
 62
     7
100
AcDbMText
 10
10.9518189261
 20
218.2650131007
 30
0.0
 40
3.0868055556
 41
0.0
 71
     1
 72
     1
  1
B
  7
SLDTEXTSTYLE1
 73
     1
 44
1.0
  0
SPLINE
  5
BC
330
1F
100
AcDbEntity
  8
0
  6
Continuous
 62
     7
370
    15
100
AcDbSpline
210
0.0
220
0.0
230
1.0
 70
     8
 71
     3
 72
    38
 73
    34
 74
     0
 42
0.000000001
 43
0.00000001
 40
0.0
 40
0.0
 40
0.0
 40
0.0
 40
0.0624999999999999
 40
0.0624999999999999
 40
0.1249999999999999
 40
0.1249999999999999
 40
0.1874999999999999
 40
0.1874999999999999
 40
0.2499999999999999
 40
0.2499999999999999
 40
0.3124999999999999
 40
0.3124999999999999
 40
0.3749999999999999
 40
0.3749999999999999
 40
0.4374999999999999
 40
0.4374999999999999
 40
0.4999999999999999
 40
0.4999999999999999
 40
0.5624999999999999
 40
0.5624999999999999
 40
0.6249999999999999
 40
0.6249999999999999
 40
0.6874999999999999
 40
0.6874999999999999
 40
0.7499999999999999
 40
0.7499999999999999
 40
0.8125
 40
0.8125
 40
0.875
 40
0.875
 40
0.9375
 40
0.9375
 40
1.0
 40
1.0
 40
1.0
 40
1.0
 10
105.29598362017
 20
181.9318056201083
 30
0.0
 10
105.29598362017
 20
181.4574238455458
 30
0.0
 10
105.2665599875099
 20
180.9530983236031
 30
0.0
 10
105.1238999503699
 20
179.8879033795781
 30
0.0
 10
105.0105955446057
 20
179.3268804196307
 30
0.0
 10
104.6705586886142
 20
178.1610397704659
 30
0.0
 10
104.4436415654702
 20
177.5560664487114
 30
0.0
 10
103.8457085220383
 20
176.3295371287973
 30
0.0
 10
103.47435760593
 20
175.7079167378483
 30
0.0
 10
102.56354459881
 20
174.4934993949683
 30
0.0
 10
102.0236484668294
 20
173.9008755818402
 30
0.0
 10
100.7702622057023
 20
172.8070112084448
 30
0.0
 10
100.0564451276544
 20
172.3062875369439
 30
0.0
 10
98.48064407727377
 20
171.4658603100374
 30
0.0
 10
97.61874617258157
 20
171.1269045716589
 30
0.0
 10
95.80789901049683
 20
170.6670068796807
 30
0.0
 10
94.8595845802533
 20
170.5466430306083
 30
0.0
 10
92.96205748208662
 20
170.5466430306083
 30
0.0
 10
92.01374305184311
 20
170.6670068796807
 30
0.0
 10
90.20289588975837
 20
171.1269045716589
 30
0.0
 10
89.34099798506615
 20
171.4658603100374
 30
0.0
 10
87.76519693468553
 20
172.3062875369439
 30
0.0
 10
87.05137985663765
 20
172.8070112084448
 30
0.0
 10
85.79799359551049
 20
173.9008755818402
 30
0.0
 10
85.25809746352996
 20
174.4934993949683
 30
0.0
 10
84.34728445640997
 20
175.7079167378483
 30
0.0
 10
83.97593354030164
 20
176.3295371287973
 30
0.0
 10
83.37800049686976
 20
177.5560664487114
 30
0.0
 10
83.15108337372571
 20
178.1610397704659
 30
0.0
 10
82.81104651773424
 20
179.3268804196307
 30
0.0
 10
82.69774211197003
 20
179.8879033795781
 30
0.0
 10
82.55508207483007
 20
180.9530983236031
 30
0.0
 10
82.52565844216997
 20
181.4574238455458
 30
0.0
 10
82.52565844216997
 20
181.9318056201083
 30
0.0
  0
SPLINE
  5
BD
330
1F
100
AcDbEntity
  8
0
  6
Continuous
 62
     7
370
    15
100
AcDbSpline
210
0.0
220
0.0
230
1.0
 70
     8
 71
     3
 72
    38
 73
    34
 74
     0
 42
0.000000001
 43
0.00000001
 40
0.0
 40
0.0
 40
0.0
 40
0.0
 40
0.0625
 40
0.0625
 40
0.125
 40
0.125
 40
0.1874999999999999
 40
0.1874999999999999
 40
0.2499999999999999
 40
0.2499999999999999
 40
0.3124999999999999
 40
0.3124999999999999
 40
0.3749999999999999
 40
0.3749999999999999
 40
0.4374999999999999
 40
0.4374999999999999
 40
0.5
 40
0.5
 40
0.5625
 40
0.5625
 40
0.625
 40
0.625
 40
0.6875000000000001
 40
0.6875000000000001
 40
0.7500000000000001
 40
0.7500000000000001
 40
0.8125000000000001
 40
0.8125000000000001
 40
0.875
 40
0.875
 40
0.9375
 40
0.9375
 40
1.0
 40
1.0
 40
1.0
 40
1.0
 10
82.52565844216997
 20
181.9318056201083
 30
0.0
 10
82.52565844216997
 20
182.4061873946708
 30
0.0
 10
82.55508207483008
 20
182.9105129166135
 30
0.0
 10
82.69774211197003
 20
183.9757078606385
 30
0.0
 10
82.81104651773424
 20
184.5367308205859
 30
0.0
 10
83.15108337372571
 20
185.7025714697507
 30
0.0
 10
83.37800049686976
 20
186.3075447915052
 30
0.0
 10
83.97593354030164
 20
187.5340741114193
 30
0.0
 10
84.34728445640997
 20
188.1556945023683
 30
0.0
 10
85.25809746352996
 20
189.3701118452483
 30
0.0
 10
85.79799359551049
 20
189.9627356583763
 30
0.0
 10
87.05137985663765
 20
191.0566000317717
 30
0.0
 10
87.76519693468553
 20
191.5573237032727
 30
0.0
 10
89.34099798506617
 20
192.3977509301792
 30
0.0
 10
90.20289588975837
 20
192.7367066685576
 30
0.0
 10
92.01374305184311
 20
193.1966043605359
 30
0.0
 10
92.96205748208662
 20
193.3169682096083
 30
0.0
 10
94.8595845802533
 20
193.3169682096083
 30
0.0
 10
95.80789901049683
 20
193.1966043605359
 30
0.0
 10
97.61874617258157
 20
192.7367066685576
 30
0.0
 10
98.48064407727377
 20
192.3977509301792
 30
0.0
 10
100.0564451276544
 20
191.5573237032727
 30
0.0
 10
100.7702622057023
 20
191.0566000317717
 30
0.0
 10
102.0236484668294
 20
189.9627356583763
 30
0.0
 10
102.56354459881
 20
189.3701118452483
 30
0.0
 10
103.47435760593
 20
188.1556945023683
 30
0.0
 10
103.8457085220383
 20
187.5340741114193
 30
0.0
 10
104.4436415654702
 20
186.3075447915051
 30
0.0
 10
104.6705586886142
 20
185.7025714697507
 30
0.0
 10
105.0105955446057
 20
184.5367308205859
 30
0.0
 10
105.1238999503699
 20
183.9757078606385
 30
0.0
 10
105.2665599875099
 20
182.9105129166134
 30
0.0
 10
105.29598362017
 20
182.4061873946708
 30
0.0
 10
105.29598362017
 20
181.9318056201083
 30
0.0
  0
SPLINE
  5
BE
330
1F
100
AcDbEntity
  8
0
  6
Continuous
 62
     7
370
    15
100
AcDbSpline
210
0.0
220
0.0
230
1.0
 70
    24
 71
     3
 72
    14
 73
    10
 74
     0
 42
0.000000001
 43
0.00000001
 40
0.0
 40
0.0
 40
0.0
 40
0.0
 40
0.25
 40
0.25
 40
0.5
 40
0.5
 40
0.75
 40
0.75
 40
1.0
 40
1.0
 40
1.0
 40
1.0
 10
82.52565844216997
 20
181.9318056201083
 30
0.0
 10
82.41664189322206
 20
181.9318056201083
 30
0.0
 10
82.30056390176418
 20
181.9318056201083
 30
0.0
 10
82.0747348627797
 20
181.9318056201083
 30
0.0
 10
81.96545650331454
 20
181.9318056201083
 30
0.0
 10
81.77766179277809
 20
181.9318056201083
 30
0.0
 10
81.69956719702199
 20
181.9318056201083
 30
0.0
 10
81.58672123743854
 20
181.9318056201083
 30
0.0
 10
81.55185764011178
 20
181.9318056201083
 30
0.0
 10
81.53612565516997
 20
181.9318056201083
 30
0.0
  0
ARC
  5
BF
330
1F
100
AcDbEntity
  8
0
  6
Continuous
 62
     7
370
    15
100
AcDbCircle
 10
93.9108210312
 20
181.9318056201
 30
0.0
 40
12.37469537600001
100
AcDbArc
 50
359.9999999859
 51
180.0
  0
SPLINE
  5
C0
330
1F
100
AcDbEntity
  8
0
  6
Continuous
 62
     7
370
    15
100
AcDbSpline
210
0.0
220
0.0
230
1.0
 70
    24
 71
     3
 72
    14
 73
    10
 74
     0
 42
0.000000001
 43
0.00000001
 40
0.0
 40
0.0
 40
0.0
 40
0.0
 40
0.25
 40
0.25
 40
0.5
 40
0.5
 40
0.75
 40
0.75
 40
1.0
 40
1.0
 40
1.0
 40
1.0
 10
106.28551640717
 20
181.9318056201083
 30
0.0
 10
106.2697844222281
 20
181.9318056201083
 30
0.0
 10
106.2349208249014
 20
181.9318056201083
 30
0.0
 10
106.1220748653179
 20
181.9318056201083
 30
0.0
 10
106.0439802695618
 20
181.9318056201083
 30
0.0
 10
105.8561855590254
 20
181.9318056201083
 30
0.0
 10
105.7469071995602
 20
181.9318056201083
 30
0.0
 10
105.5210781605757
 20
181.9318056201083
 30
0.0
 10
105.4050001691179
 20
181.9318056201083
 30
0.0
 10
105.29598362017
 20
181.9318056201083
 30
0.0
  0
ARC
  5
C1
330
1F
100
AcDbEntity
  8
0
  6
Continuous
 62
     7
370
    15
100
AcDbCircle
 10
93.9108210312
 20
181.9318056201
 30
0.0
 40
12.37469537600001
100
AcDbArc
 50
180.0
 51
359.9999999859
  0
CIRCLE
  5
C2
330
1F
100
AcDbEntity
  8
0
  6
Continuous
 62
     7
370
    15
100
AcDbCircle
 10
93.9108210312
 20
181.9318056201
 30
0.0
 40
22.22500000000001
  0
ARC
  5
C3
330
1F
100
AcDbEntity
  8
0
  6
Continuous
 62
     7
370
    15
100
AcDbCircle
 10
93.9108210312
 20
181.9318056201
 30
0.0
 40
22.40050124698736
100
AcDbArc
 50
0.0000000003
 51
180.000000002
  0
ARC
  5
C4
330
1F
100
AcDbEntity
  8
0
  6
Continuous
 62
     7
370
    15
100
AcDbCircle
 10
93.9108210312
 20
181.9318056201
 30
0.0
 40
22.40050124698736
100
AcDbArc
 50
180.000000002
 51
0.0000000003
  0
CIRCLE
  5
C5
330
1F
100
AcDbEntity
  8
0
  6
Continuous
 62
     7
370
    15
100
AcDbCircle
 10
93.9108210312
 20
181.9318056201
 30
0.0
 40
30.59431457595959
  0
CIRCLE
  5
C6
330
1F
100
AcDbEntity
  8
0
  6
Continuous
 62
     7
370
    15
100
AcDbCircle
 10
93.9108210312
 20
181.9318056201
 30
0.0
 40
30.88422835497559
  0
CIRCLE
  5
C7
330
1F
100
AcDbEntity
  8
0
  6
Continuous
 62
     7
370
    15
100
AcDbCircle
 10
93.9108210312
 20
181.9318056201
 30
0.0
 40
31.64991378090619
  0
CIRCLE
  5
C8
330
1F
100
AcDbEntity
  8
0
  6
Continuous
 62
     7
370
    15
100
AcDbCircle
 10
93.9108210312
 20
181.9318056201
 30
0.0
 40
31.77000000111165
  0
SPLINE
  5
C9
330
1F
100
AcDbEntity
  8
0
  6
Continuous
 62
     8
370
    15
100
AcDbSpline
210
0.0
220
0.0
230
1.0
 70
    24
 71
     3
 72
     9
 73
     5
 74
     0
 42
0.000000001
 43
0.00000001
 40
0.0
 40
0.0
 40
0.0
 40
0.0
 40
0.838760129129853
 40
0.9999999999999999
 40
0.9999999999999999
 40
0.9999999999999999
 40
0.9999999999999999
 10
71.51031891568192
 20
181.9318056193118
 30
0.0
 10
71.57485584452547
 20
181.9318056193141
 30
0.0
 10
71.6517990927823
 20
181.9318056193169
 30
0.0
 10
71.70418043277837
 20
181.9318056193187
 30
0.0
 10
71.71262639327533
 20
181.931805619319
 30
0.0
  0
SPLINE
  5
CA
330
1F
100
AcDbEntity
  8
0
  6
Continuous
 62
     8
370
    15
100
AcDbSpline
210
0.0
220
0.0
230
1.0
 70
    24
 71
     3
 72
     9
 73
     5
 74
     0
 42
0.000000001
 43
0.00000001
 40
0.0
 40
0.0
 40
0.0
 40
0.0
 40
0.2304015520843742
 40
1.0
 40
1.0
 40
1.0
 40
1.0
 10
116.1358209954072
 20
181.9318056201083
 30
0.0
 10
116.1473631295223
 20
181.9318056201083
 30
0.0
 10
116.1974588602617
 20
181.9318056201083
 30
0.0
 10
116.261803563169
 20
181.9318056201083
 30
0.0
 10
116.311323146658
 20
181.9318056201083
 30
0.0
  0
INSERT
  5
D6
330
1F
100
AcDbEntity
  8
DIM
100
AcDbBlockReference
  2
SW_CENTERMARKSYMBOL_0
 10
93.9108210312
 20
181.9318056201
 30
0.0
  0
LINE
  5
D7
330
1F
100
AcDbEntity
  8
0
  6
Continuous
 62
     7
370
    15
100
AcDbLine
 10
261.3716604025
 20
150.161805619
 30
0.0
 11
262.9977235431
 21
152.9782295949
 31
0.0
  0
LINE
  5
D8
330
1F
100
AcDbEntity
  8
0
  6
Continuous
 62
     7
370
    15
100
AcDbLine
 10
262.9977235431
 20
210.8853816453
 30
0.0
 11
261.3716604025
 21
213.7018056212
 31
0.0
  0
LINE
  5
D9
330
1F
100
AcDbEntity
  8
0
  6
Continuous
 62
     7
370
    15
100
AcDbLine
 10
258.1534089634
 20
150.161805619
 30
0.0
 11
261.3716604025
 21
150.161805619
 31
0.0
  0
LINE
  5
DA
330
1F
100
AcDbEntity
  8
0
  6
Continuous
 62
     7
370
    15
100
AcDbLine
 10
261.3716604025
 20
213.7018056212
 30
0.0
 11
258.1534089634
 21
213.7018056212
 31
0.0
  0
ARC
  5
DB
330
1F
100
AcDbEntity
  8
0
  6
Continuous
 62
     7
370
    15
100
AcDbCircle
 10
258.153408964
 20
150.5718056207
 30
0.0
 40
0.4100000016796628
100
AcDbArc
 50
225.0
 51
269.999999913
  0
ARC
  5
DC
330
1F
100
AcDbEntity
  8
0
  6
Continuous
 62
     7
370
    15
100
AcDbCircle
 10
258.153408964
 20
213.2918056195
 30
0.0
 40
0.4100000016796628
100
AcDbArc
 50
90.000000087
 51
135.0
  0
LINE
  5
DD
330
1F
100
AcDbEntity
  8
0
  6
Continuous
 62
     7
370
    15
100
AcDbLine
 10
268.4037866793
 20
150.1618056201
 30
0.0
 11
271.7220381146
 21
150.1618056201
 31
0.0
  0
LINE
  5
DE
330
1F
100
AcDbEntity
  8
0
  6
Continuous
 62
     7
370
    15
100
AcDbLine
 10
271.7220381146
 20
213.7018056201
 30
0.0
 11
268.4037866793
 21
213.7018056201
 31
0.0
  0
ARC
  5
DF
330
1F
100
AcDbEntity
  8
0
  6
Continuous
 62
     7
370
    15
100
AcDbCircle
 10
271.7220381147
 20
150.57180562
 30
0.0
 40
0.4099999998923067
100
AcDbArc
 50
269.9999999918
 51
315.0
  0
ARC
  5
E0
330
1F
100
AcDbEntity
  8
0
  6
Continuous
 62
     7
370
    15
100
AcDbCircle
 10
271.7220381147
 20
213.2918056202
 30
0.0
 40
0.4099999998923067
100
AcDbArc
 50
45.0
 51
90.0000000082
  0
LINE
  5
E1
330
1F
100
AcDbEntity
  8
0
  6
Continuous
 62
     7
370
    15
100
AcDbLine
 10
268.4037866793
 20
213.7018056201
 30
0.0
 11
266.7777235355
 21
210.8853816388
 31
0.0
  0
LINE
  5
E2
330
1F
100
AcDbEntity
  8
0
  6
Continuous
 62
     7
370
    15
100
AcDbLine
 10
266.7777235355
 20
152.9782296014
 30
0.0
 11
268.4037866793
 21
150.1618056201
 31
0.0
  0
LINE
  5
E3
330
1F
100
AcDbEntity
  8
0
  6
Continuous
 62
     7
370
    15
100
AcDbLine
 10
257.8634951825
 20
213.581719401
 30
0.0
 11
257.0978097566
 21
212.8160339751
 31
0.0
  0
LINE
  5
E4
330
1F
100
AcDbEntity
  8
0
  6
Continuous
 62
     7
370
    15
100
AcDbLine
 10
257.0978097566
 20
151.0475772651
 30
0.0
 11
257.8634951825
 21
150.2818918392
 31
0.0
  0
LINE
  5
E5
330
1F
100
AcDbEntity
  8
0
  6
Continuous
 62
     7
370
    15
100
AcDbLine
 10
272.0119518949
 20
150.2818918398
 30
0.0
 11
272.7776373203
 21
151.0475772652
 31
0.0
  0
LINE
  5
E6
330
1F
100
AcDbEntity
  8
0
  6
Continuous
 62
     7
370
    15
100
AcDbLine
 10
272.7776373203
 20
212.816033975
 30
0.0
 11
272.0119518949
 21
213.5817194004
 31
0.0
  0
ARC
  5
E7
330
1F
100
AcDbEntity
  8
0
  6
Continuous
 62
     7
370
    15
100
AcDbCircle
 10
257.3877235356
 20
151.3374910441
 30
0.0
 40
0.4099999982033182
100
AcDbArc
 50
180.0
 51
225.0
  0
ARC
  5
E8
330
1F
100
AcDbEntity
  8
0
  6
Continuous
 62
     7
370
    15
100
AcDbCircle
 10
257.3877235356
 20
212.5261201961
 30
0.0
 40
0.4099999982033296
100
AcDbArc
 50
135.0
 51
180.0
  0
ARC
  5
E9
330
1F
100
AcDbEntity
  8
0
  6
Continuous
 62
     7
370
    15
100
AcDbCircle
 10
272.4877235413
 20
151.3374910442
 30
0.0
 40
0.409999998190588
100
AcDbArc
 50
315.0000000097
 51
0.000000475
  0
ARC
  5
EA
330
1F
100
AcDbEntity
  8
0
  6
Continuous
 62
     7
370
    15
100
AcDbCircle
 10
272.4877235413
 20
212.526120196
 30
0.0
 40
0.409999998190588
100
AcDbArc
 50
359.999999525
 51
44.9999999903
  0
LINE
  5
EB
330
1F
100
AcDbEntity
  8
0
  6
Continuous
 62
     7
370
    15
100
AcDbLine
 10
262.9977235431
 20
153.9118056201
 30
0.0
 11
266.7777235355
 21
153.9118056201
 31
0.0
  0
LINE
  5
EC
330
1F
100
AcDbEntity
  8
0
  6
Continuous
 62
     7
370
    15
100
AcDbLine
 10
266.7777235355
 20
209.9518056201
 30
0.0
 11
262.9977235431
 21
209.9518056201
 31
0.0
  0
SPLINE
  5
ED
330
1F
100
AcDbEntity
  8
0
  6
Continuous
 62
     7
370
    15
100
AcDbSpline
210
0.0
220
0.0
230
1.0
 70
     8
 71
     3
 72
    11
 73
     7
 74
     0
 42
0.000000001
 43
0.00000001
 40
0.0
 40
0.0
 40
0.0
 40
0.0
 40
0.2358767661966422
 40
0.4907811040791163
 40
0.7507133009357931
 40
1.0
 40
1.0
 40
1.0
 40
1.0
 10
256.4877235404868
 20
159.9318056201083
 30
0.0
 10
256.5416118387119
 20
159.9267275699629
 30
0.0
 10
256.6537354654952
 20
159.9161618364354
 30
0.0
 10
256.8058980517774
 20
159.8295776901675
 30
0.0
 10
256.9263121344693
 20
159.6977858732956
 30
0.0
 10
256.960826919914
 20
159.5860193598319
 30
0.0
 10
256.9777235374615
 20
159.531304372956
 30
0.0
  0
SPLINE
  5
EE
330
1F
100
AcDbEntity
  8
0
  6
Continuous
 62
     7
370
    15
100
AcDbSpline
210
0.0
220
0.0
230
1.0
 70
     8
 71
     3
 72
    11
 73
     7
 74
     0
 42
0.000000001
 43
0.00000001
 40
0.0
 40
0.0
 40
0.0
 40
0.0
 40
0.2492866990606694
 40
0.5092188959174784
 40
0.7641232338018916
 40
1.0
 40
1.0
 40
1.0
 40
1.0
 10
256.9777235374704
 20
204.3323068673039
 30
0.0
 10
256.9608269199264
 20
204.2775918804238
 30
0.0
 10
256.9263121344891
 20
204.1658253669508
 30
0.0
 10
256.8058980517972
 20
204.0340335500631
 30
0.0
 10
256.6537354655069
 20
203.9474494037834
 30
0.0
 10
256.5416118387157
 20
203.9368836702544
 30
0.0
 10
256.4877235404868
 20
203.9318056201083
 30
0.0
  0
LINE
  5
EF
330
1F
100
AcDbEntity
  8
0
  6
Continuous
 62
     7
370
    15
100
AcDbLine
 10
253.7877235395
 20
159.7068056201
 30
0.0
 11
254.2702375965
 21
159.9318056201
 31
0.0
  0
LINE
  5
F0
330
1F
100
AcDbEntity
  8
0
  6
Continuous
 62
     7
370
    15
100
AcDbLine
 10
254.2702375965
 20
203.9318056201
 30
0.0
 11
253.7877235395
 21
204.1568056201
 31
0.0
  0
LINE
  5
F1
330
1F
100
AcDbEntity
  8
0
  6
Continuous
 62
     7
370
    15
100
AcDbLine
 10
253.7877235395
 20
204.1568056201
 30
0.0
 11
186.2434153125
 21
194.3065009961
 31
0.0
  0
LINE
  5
F2
330
1F
100
AcDbEntity
  8
0
  6
Continuous
 62
     7
370
    15
100
AcDbLine
 10
186.2434153125
 20
169.5571102441
 30
0.0
 11
253.7877235395
 21
159.7068056201
 31
0.0
  0
LINE
  5
F3
330
1F
100
AcDbEntity
  8
0
  6
Continuous
 62
     7
370
    15
100
AcDbLine
 10
254.2702375965
 20
159.9318056201
 30
0.0
 11
256.4877235405
 21
159.9318056201
 31
0.0
  0
LINE
  5
F4
330
1F
100
AcDbEntity
  8
0
  6
Continuous
 62
     7
370
    15
100
AcDbLine
 10
256.4877235405
 20
203.9318056201
 30
0.0
 11
254.2702375965
 21
203.9318056201
 31
0.0
  0
LINE
  5
F5
330
1F
100
AcDbEntity
  8
0
  6
Continuous
 62
     7
370
    15
100
AcDbLine
 10
399.2877235395
 20
165.9318056201
 30
0.0
 11
411.1896473285
 21
165.9318056201
 31
0.0
  0
LINE
  5
F6
330
1F
100
AcDbEntity
  8
0
  6
Continuous
 62
     7
370
    15
100
AcDbLine
 10
411.1896473285
 20
197.9318056201
 30
0.0
 11
399.2877235395
 21
197.9318056201
 31
0.0
  0
LINE
  5
F7
330
1F
100
AcDbEntity
  8
0
  6
Continuous
 62
     7
370
    15
100
AcDbLine
 10
411.1896473285
 20
165.9318056201
 30
0.0
 11
413.7877235395
 21
170.4318056201
 31
0.0
  0
LINE
  5
F8
330
1F
100
AcDbEntity
  8
0
  6
Continuous
 62
     7
370
    15
100
AcDbLine
 10
413.7877235395
 20
193.4318056201
 30
0.0
 11
411.1896473285
 21
197.9318056201
 31
0.0
  0
LINE
  5
F9
330
1F
100
AcDbEntity
  8
0
  6
Continuous
 62
     7
370
    15
100
AcDbLine
 10
399.2877235395
 20
197.9318056201
 30
0.0
 11
396.2877235395
 21
194.9318056201
 31
0.0
  0
LINE
  5
FA
330
1F
100
AcDbEntity
  8
0
  6
Continuous
 62
     7
370
    15
100
AcDbLine
 10
396.2877235395
 20
168.9318056201
 30
0.0
 11
399.2877235395
 21
165.9318056201
 31
0.0
  0
SPLINE
  5
FB
330
1F
100
AcDbEntity
  8
0
  6
Continuous
 62
     7
370
    15
100
AcDbSpline
210
0.0
220
0.0
230
1.0
 70
     8
 71
     3
 72
    11
 73
     7
 74
     0
 42
0.000000001
 43
0.00000001
 40
0.0
 40
0.0
 40
0.0
 40
0.0
 40
0.2996671293603767
 40
0.623546579388685
 40
0.8750601827671955
 40
0.9999999999999999
 40
0.9999999999999999
 40
0.9999999999999999
 40
0.9999999999999999
 10
274.8877235394868
 20
195.9318056201083
 30
0.0
 10
274.600850226638
 20
195.9676990359403
 30
0.0
 10
274.0039249872013
 20
196.0423859617717
 30
0.0
 10
273.3368387810291
 20
196.5958488816966
 30
0.0
 10
272.9831543507842
 20
197.1830839408343
 30
0.0
 10
272.9461049824931
 20
197.5403980950147
 30
0.0
 10
272.9338087964328
 20
197.6589858476389
 30
0.0
  0
SPLINE
  5
FC
330
1F
100
AcDbEntity
  8
0
  6
Continuous
 62
     7
370
    15
100
AcDbSpline
210
0.0
220
0.0
230
1.0
 70
     8
 71
     3
 72
    11
 73
     7
 74
     0
 42
0.000000001
 43
0.00000001
 40
0.0
 40
0.0
 40
0.0
 40
0.0
 40
0.1918552436729036
 40
0.5151464885956701
 40
0.7670368858695795
 40
1.0
 40
1.0
 40
1.0
 40
1.0
 10
272.9477682681021
 20
166.2000103448206
 30
0.0
 10
272.971495556175
 20
166.3826590763743
 30
0.0
 10
273.035205199449
 20
166.8730853524826
 30
0.0
 10
273.529232628123
 20
167.4652844827312
 30
0.0
 10
274.2021984302316
 20
167.8651790355715
 30
0.0
 10
274.6652404447998
 20
167.910182358588
 30
0.0
 10
274.8877235394868
 20
167.9318056201083
 30
0.0
  0
LINE
  5
FD
330
1F
100
AcDbEntity
  8
0
  6
Continuous
 62
     7
370
    15
100
AcDbLine
 10
274.8877235395
 20
167.9318056201
 30
0.0
 11
379.3677235395
 21
167.9318056201
 31
0.0
  0
LINE
  5
FE
330
1F
100
AcDbEntity
  8
0
  6
Continuous
 62
     7
370
    15
100
AcDbLine
 10
379.3677235395
 20
195.9318056201
 30
0.0
 11
274.8877235395
 21
195.9318056201
 31
0.0
  0
LINE
  5
FF
330
1F
100
AcDbEntity
  8
0
  6
Continuous
 62
     7
370
    15
100
AcDbLine
 10
379.3677235395
 20
167.9318056201
 30
0.0
 11
382.4177235395
 21
170.9818056201
 31
0.0
  0
LINE
  5
100
330
1F
100
AcDbEntity
  8
0
  6
Continuous
 62
     7
370
    15
100
AcDbLine
 10
382.4177235395
 20
192.8818056201
 30
0.0
 11
379.3677235395
 21
195.9318056201
 31
0.0
  0
SPLINE
  5
101
330
1F
100
AcDbEntity
  8
0
  6
Continuous
 62
     7
370
    15
100
AcDbSpline
210
0.0
220
0.0
230
1.0
 70
     8
 71
     3
 72
    11
 73
     7
 74
     0
 42
0.000000001
 43
0.00000001
 40
0.0
 40
0.0
 40
0.0
 40
0.0
 40
0.2418856032508477
 40
0.5000000000404968
 40
0.758114396837269
 40
1.0
 40
1.0
 40
1.0
 40
1.0
 10
186.2434153124868
 20
194.3065009961083
 30
0.0
 10
186.1312631310977
 20
194.2784457005002
 30
0.0
 10
185.8994341592801
 20
194.2204527996552
 30
0.0
 10
185.615818634023
 20
193.9844677468192
 30
0.0
 10
185.4232317409378
 20
193.6697663012016
 30
0.0
 10
185.3993006919332
 20
193.4319950800861
 30
0.0
 10
185.3877235394868
 20
193.3169682096083
 30
0.0
  0
SPLINE
  5
102
330
1F
100
AcDbEntity
  8
0
  6
Continuous
 62
     7
370
    15
100
AcDbSpline
210
0.0
220
0.0
230
1.0
 70
     8
 71
     3
 72
    11
 73
     7
 74
     0
 42
0.000000001
 43
0.00000001
 40
0.0
 40
0.0
 40
0.0
 40
0.0
 40
0.2418856031621069
 40
0.4999999999564873
 40
0.7581143967454799
 40
1.0
 40
1.0
 40
1.0
 40
1.0
 10
185.3877235394868
 20
170.5466430306083
 30
0.0
 10
185.3993006919326
 20
170.431616160133
 30
0.0
 10
185.4232317409356
 20
170.1938449390237
 30
0.0
 10
185.615818634011
 20
169.8791434934113
 30
0.0
 10
185.8994341592576
 20
169.643158440574
 30
0.0
 10
186.1312631310703
 20
169.5851655397234
 30
0.0
 10
186.2434153124582
 20
169.5571102441125
 30
0.0
  0
LINE
  5
103
330
1F
100
AcDbEntity
  8
0
  6
Continuous
 62
     7
370
    15
100
AcDbLine
 10
382.4177235395
 20
170.9818056201
 30
0.0
 11
396.2877235395
 21
170.9818056201
 31
0.0
  0
LINE
  5
104
330
1F
100
AcDbEntity
  8
0
  6
Continuous
 62
     7
370
    15
100
AcDbLine
 10
396.2877235395
 20
192.8818056201
 30
0.0
 11
382.4177235395
 21
192.8818056201
 31
0.0
  0
LINE
  5
105
330
1F
100
AcDbEntity
  8
0
  6
Continuous
 62
     7
370
    15
100
AcDbLine
 10
261.3716604025
 20
181.9318056201
 30
0.0
 11
261.3716604025
 21
213.7018056212
 31
0.0
  0
LINE
  5
106
330
1F
100
AcDbEntity
  8
0
  6
Continuous
 62
     7
370
    15
100
AcDbLine
 10
261.3716604025
 20
150.161805619
 30
0.0
 11
261.3716604025
 21
181.9318056201
 31
0.0
  0
LINE
  5
107
330
1F
100
AcDbEntity
  8
0
  6
Continuous
 62
     7
370
    15
100
AcDbLine
 10
262.9977235431
 20
181.9318056201
 30
0.0
 11
262.9977235431
 21
210.8853816453
 31
0.0
  0
LINE
  5
108
330
1F
100
AcDbEntity
  8
0
  6
Continuous
 62
     7
370
    15
100
AcDbLine
 10
262.9977235431
 20
152.9782295949
 30
0.0
 11
262.9977235431
 21
181.9318056201
 31
0.0
  0
LINE
  5
109
330
1F
100
AcDbEntity
  8
0
  6
Continuous
 62
     7
370
    15
100
AcDbLine
 10
268.4037866793
 20
181.9318056201
 30
0.0
 11
268.4037866793
 21
213.7018056201
 31
0.0
  0
LINE
  5
10A
330
1F
100
AcDbEntity
  8
0
  6
Continuous
 62
     7
370
    15
100
AcDbLine
 10
268.4037866793
 20
150.1618056201
 30
0.0
 11
268.4037866793
 21
181.9318056201
 31
0.0
  0
LINE
  5
10B
330
1F
100
AcDbEntity
  8
0
  6
Continuous
 62
     7
370
    15
100
AcDbLine
 10
266.7777235355
 20
181.9318056201
 30
0.0
 11
266.7777235355
 21
210.8853816388
 31
0.0
  0
LINE
  5
10C
330
1F
100
AcDbEntity
  8
0
  6
Continuous
 62
     7
370
    15
100
AcDbLine
 10
266.7777235355
 20
152.9782296014
 30
0.0
 11
266.7777235355
 21
181.9318056201
 31
0.0
  0
LINE
  5
10D
330
1F
100
AcDbEntity
  8
0
  6
Continuous
 62
     7
370
    15
100
AcDbLine
 10
256.9777235374
 20
181.9318056201
 30
0.0
 11
256.9777235374
 21
212.5261201961
 31
0.0
  0
LINE
  5
10E
330
1F
100
AcDbEntity
  8
0
  6
Continuous
 62
     7
370
    15
100
AcDbLine
 10
256.9777235374
 20
151.3374910441
 30
0.0
 11
256.9777235374
 21
181.9318056201
 31
0.0
  0
LINE
  5
10F
330
1F
100
AcDbEntity
  8
0
  6
Continuous
 62
     7
370
    15
100
AcDbLine
 10
272.8977235394
 20
181.9318056201
 30
0.0
 11
272.8977235394
 21
212.5261201892
 31
0.0
  0
LINE
  5
110
330
1F
100
AcDbEntity
  8
0
  6
Continuous
 62
     7
370
    15
100
AcDbLine
 10
272.8977235394
 20
151.337491051
 30
0.0
 11
272.8977235394
 21
181.9318056201
 31
0.0
  0
SPLINE
  5
111
330
1F
100
AcDbEntity
  8
0
  6
Continuous
 62
     7
370
    15
100
AcDbSpline
210
0.0
220
0.0
230
1.0
 70
    24
 71
     3
 72
    10
 73
     6
 74
     0
 42
0.000000001
 43
0.00000001
 40
0.0
 40
0.0
 40
0.0
 40
0.0
 40
0.5
 40
0.5
 40
1.0
 40
1.0
 40
1.0
 40
1.0
 10
256.9777235374955
 20
181.9318056201083
 30
0.0
 10
256.9559700240496
 20
181.9318056201083
 30
0.0
 10
256.8921613295819
 20
181.9318056201083
 30
0.0
 10
256.7062111350002
 20
181.9318056201083
 30
0.0
 10
256.5894934984381
 20
181.9318056201083
 30
0.0
 10
256.4877235404868
 20
181.9318056201083
 30
0.0
  0
LINE
  5
112
330
1F
100
AcDbEntity
  8
0
  6
Continuous
 62
     7
370
    15
100
AcDbLine
 10
253.7877235395
 20
181.9318056201
 30
0.0
 11
253.7877235395
 21
159.7068056201
 31
0.0
  0
LINE
  5
113
330
1F
100
AcDbEntity
  8
0
  6
Continuous
 62
     7
370
    15
100
AcDbLine
 10
253.7877235395
 20
204.1568056201
 30
0.0
 11
253.7877235395
 21
181.9318056201
 31
0.0
  0
LINE
  5
114
330
1F
100
AcDbEntity
  8
0
  6
Continuous
 62
     7
370
    15
100
AcDbLine
 10
254.2702375965
 20
181.9318056201
 30
0.0
 11
254.2702375965
 21
159.9318056201
 31
0.0
  0
LINE
  5
115
330
1F
100
AcDbEntity
  8
0
  6
Continuous
 62
     7
370
    15
100
AcDbLine
 10
254.2702375965
 20
203.9318056201
 30
0.0
 11
254.2702375965
 21
181.9318056201
 31
0.0
  0
LINE
  5
116
330
1F
100
AcDbEntity
  8
0
  6
Continuous
 62
     7
370
    15
100
AcDbLine
 10
411.1896473285
 20
181.9318056201
 30
0.0
 11
411.1896473285
 21
197.9318056201
 31
0.0
  0
LINE
  5
117
330
1F
100
AcDbEntity
  8
0
  6
Continuous
 62
     7
370
    15
100
AcDbLine
 10
411.1896473285
 20
165.9318056201
 30
0.0
 11
411.1896473285
 21
181.9318056201
 31
0.0
  0
LINE
  5
118
330
1F
100
AcDbEntity
  8
0
  6
Continuous
 62
     7
370
    15
100
AcDbLine
 10
399.2877235395
 20
165.9318056201
 30
0.0
 11
399.2877235395
 21
197.9318056201
 31
0.0
  0
LINE
  5
119
330
1F
100
AcDbEntity
  8
0
  6
Continuous
 62
     7
370
    15
100
AcDbLine
 10
413.7877235395
 20
181.9318056201
 30
0.0
 11
413.7877235395
 21
193.4318056201
 31
0.0
  0
LINE
  5
11A
330
1F
100
AcDbEntity
  8
0
  6
Continuous
 62
     7
370
    15
100
AcDbLine
 10
413.7877235395
 20
170.4318056201
 30
0.0
 11
413.7877235395
 21
181.9318056201
 31
0.0
  0
LINE
  5
11B
330
1F
100
AcDbEntity
  8
0
  6
Continuous
 62
     7
370
    15
100
AcDbLine
 10
396.2877235395
 20
168.9318056201
 30
0.0
 11
396.2877235395
 21
194.9318056201
 31
0.0
  0
SPLINE
  5
11C
330
1F
100
AcDbEntity
  8
0
  6
Continuous
 62
     7
370
    15
100
AcDbSpline
210
0.0
220
0.0
230
1.0
 70
    24
 71
     3
 72
    14
 73
    10
 74
     0
 42
0.000000001
 43
0.00000001
 40
0.0
 40
0.0
 40
0.0
 40
0.0
 40
0.25
 40
0.25
 40
0.5
 40
0.5
 40
0.75
 40
0.75
 40
1.0
 40
1.0
 40
1.0
 40
1.0
 10
272.8977235394444
 20
181.9318056201083
 30
0.0
 10
272.9204924250722
 20
181.9318056201083
 30
0.0
 10
272.9846966442128
 20
181.9318056201083
 30
0.0
 10
273.207019987407
 20
181.9318056201083
 30
0.0
 10
273.3653434299046
 20
181.9318056201083
 30
0.0
 10
273.7487306991706
 20
181.9318056201083
 30
0.0
 10
273.9727214576064
 20
181.9318056201083
 30
0.0
 10
274.4330489077628
 20
181.9318056201083
 30
0.0
 10
274.668369805197
 20
181.9318056201083
 30
0.0
 10
274.8877235394868
 20
181.9318056201083
 30
0.0
  0
LINE
  5
11D
330
1F
100
AcDbEntity
  8
0
  6
Continuous
 62
     7
370
    15
100
AcDbLine
 10
379.3677235395
 20
181.9318056201
 30
0.0
 11
379.3677235395
 21
195.9318056201
 31
0.0
  0
LINE
  5
11E
330
1F
100
AcDbEntity
  8
0
  6
Continuous
 62
     7
370
    15
100
AcDbLine
 10
379.3677235395
 20
167.9318056201
 30
0.0
 11
379.3677235395
 21
181.9318056201
 31
0.0
  0
LINE
  5
11F
330
1F
100
AcDbEntity
  8
0
  6
Continuous
 62
     7
370
    15
100
AcDbLine
 10
382.4177235395
 20
181.9318056201
 30
0.0
 11
382.4177235395
 21
192.8818056201
 31
0.0
  0
LINE
  5
120
330
1F
100
AcDbEntity
  8
0
  6
Continuous
 62
     7
370
    15
100
AcDbLine
 10
382.4177235395
 20
170.9818056201
 30
0.0
 11
382.4177235395
 21
181.9318056201
 31
0.0
  0
SPLINE
  5
121
330
1F
100
AcDbEntity
  8
0
  6
Continuous
 62
     7
370
    15
100
AcDbSpline
210
0.0
220
0.0
230
1.0
 70
    24
 71
     3
 72
    14
 73
    10
 74
     0
 42
0.000000001
 43
0.00000001
 40
0.0
 40
0.0
 40
0.0
 40
0.0
 40
0.25
 40
0.25
 40
0.5
 40
0.5
 40
0.75
 40
0.75
 40
1.0
 40
1.0
 40
1.0
 40
1.0
 10
186.2434153124868
 20
181.9318056201083
 30
0.0
 10
186.1355398628131
 20
181.9318056201083
 30
0.0
 10
186.0233183283904
 20
181.9318056201083
 30
0.0
 10
185.811557342241
 20
181.9318056201083
 30
0.0
 10
185.7125119461788
 20
181.9318056201083
 30
0.0
 10
185.5501177427687
 20
181.9318056201083
 30
0.0
 10
185.4871336454697
 20
181.9318056201083
 30
0.0
 10
185.406027721342
 20
181.9318056201083
 30
0.0
 10
185.3877235394868
 20
181.9318056201083
 30
0.0
 10
185.3877235394868
 20
181.9318056201083
 30
0.0
  0
SPLINE
  5
122
330
1F
100
AcDbEntity
  8
0
  6
Continuous
 62
     7
370
    15
100
AcDbSpline
210
0.0
220
0.0
230
1.0
 70
    24
 71
     3
 72
    22
 73
    18
 74
     0
 42
0.000000001
 43
0.00000001
 40
0.0
 40
0.0
 40
0.0
 40
0.0
 40
0.1250000000000002
 40
0.1250000000000002
 40
0.2500000000000001
 40
0.2500000000000001
 40
0.3750000000000001
 40
0.3750000000000001
 40
0.5
 40
0.5
 40
0.625
 40
0.625
 40
0.75
 40
0.75
 40
0.875
 40
0.875
 40
1.0
 40
1.0
 40
1.0
 40
1.0
 10
185.3877235394868
 20
193.3169682096083
 30
0.0
 10
185.3877235394867
 20
193.3169682095981
 30
0.0
 10
185.3877235394868
 20
193.1966043605168
 30
0.0
 10
185.3877235394868
 20
192.7367066685248
 30
0.0
 10
185.3877235394868
 20
192.3977509301416
 30
0.0
 10
185.3877235394868
 20
191.5573237032291
 30
0.0
 10
185.3877235394868
 20
191.0566000317273
 30
0.0
 10
185.3877235394868
 20
189.9627356583328
 30
0.0
 10
185.3877235394868
 20
189.3701118452066
 30
0.0
 10
185.3877235394868
 20
188.1556945023318
 30
0.0
 10
185.3877235394868
 20
187.5340741113861
 30
0.0
 10
185.3877235394868
 20
186.3075447914791
 30
0.0
 10
185.3877235394869
 20
185.7025714697283
 30
0.0
 10
185.3877235394868
 20
184.5367308205707
 30
0.0
 10
185.3877235394868
 20
183.9757078606268
 30
0.0
 10
185.3877235394869
 20
182.910512916608
 30
0.0
 10
185.3877235394868
 20
182.4061873946683
 30
0.0
 10
185.3877235394868
 20
181.9318056201083
 30
0.0
  0
SPLINE
  5
123
330
1F
100
AcDbEntity
  8
0
  6
Continuous
 62
     7
370
    15
100
AcDbSpline
210
0.0
220
0.0
230
1.0
 70
    24
 71
     3
 72
    22
 73
    18
 74
     0
 42
0.000000001
 43
0.00000001
 40
0.0
 40
0.0
 40
0.0
 40
0.0
 40
0.125
 40
0.125
 40
0.25
 40
0.25
 40
0.375
 40
0.375
 40
0.5
 40
0.5
 40
0.625
 40
0.625
 40
0.75
 40
0.75
 40
0.875
 40
0.875
 40
1.0
 40
1.0
 40
1.0
 40
1.0
 10
185.3877235394868
 20
181.9318056201083
 30
0.0
 10
185.3877235394868
 20
181.4574238455432
 30
0.0
 10
185.3877235394868
 20
180.9530983235977
 30
0.0
 10
185.3877235394868
 20
179.8879033795663
 30
0.0
 10
185.3877235394868
 20
179.3268804196155
 30
0.0
 10
185.3877235394868
 20
178.1610397704435
 30
0.0
 10
185.3877235394868
 20
177.5560664486854
 30
0.0
 10
185.3877235394868
 20
176.3295371287641
 30
0.0
 10
185.3877235394868
 20
175.7079167378118
 30
0.0
 10
185.3877235394868
 20
174.4934993949266
 30
0.0
 10
185.3877235394868
 20
173.9008755817967
 30
0.0
 10
185.3877235394868
 20
172.8070112084004
 30
0.0
 10
185.3877235394868
 20
172.3062875369004
 30
0.0
 10
185.3877235394868
 20
171.4658603099997
 30
0.0
 10
185.3877235394868
 20
171.1269045716262
 30
0.0
 10
185.3877235394868
 20
170.6670068796617
 30
0.0
 10
185.3877235394868
 20
170.5466430305981
 30
0.0
 10
185.3877235394868
 20
170.5466430306083
 30
0.0
  0
LINE
  5
124
330
1F
100
AcDbEntity
  8
0
  6
Continuous
 62
     8
370
    15
100
AcDbLine
 10
258.1534089634
 20
181.9318056201
 30
0.0
 11
258.1534089634
 21
213.7018056212
 31
0.0
  0
LINE
  5
125
330
1F
100
AcDbEntity
  8
0
  6
Continuous
 62
     8
370
    15
100
AcDbLine
 10
258.1534089634
 20
150.161805619
 30
0.0
 11
258.1534089634
 21
181.9318056201
 31
0.0
  0
LINE
  5
126
330
1F
100
AcDbEntity
  8
0
  6
Continuous
 62
     8
370
    15
100
AcDbLine
 10
257.8634951825
 20
181.9318056201
 30
0.0
 11
257.8634951825
 21
213.581719401
 31
0.0
  0
LINE
  5
127
330
1F
100
AcDbEntity
  8
0
  6
Continuous
 62
     8
370
    15
100
AcDbLine
 10
257.8634951825
 20
150.2818918392
 30
0.0
 11
257.8634951825
 21
181.9318056201
 31
0.0
  0
LINE
  5
128
330
1F
100
AcDbEntity
  8
0
  6
Continuous
 62
     8
370
    15
100
AcDbLine
 10
271.7220381146
 20
181.9318056201
 30
0.0
 11
271.7220381146
 21
213.7018056201
 31
0.0
  0
LINE
  5
129
330
1F
100
AcDbEntity
  8
0
  6
Continuous
 62
     8
370
    15
100
AcDbLine
 10
271.7220381146
 20
150.1618056201
 30
0.0
 11
271.7220381146
 21
181.9318056201
 31
0.0
  0
LINE
  5
12A
330
1F
100
AcDbEntity
  8
0
  6
Continuous
 62
     8
370
    15
100
AcDbLine
 10
272.0119518949
 20
181.9318056201
 30
0.0
 11
272.0119518949
 21
213.5817194004
 31
0.0
  0
LINE
  5
12B
330
1F
100
AcDbEntity
  8
0
  6
Continuous
 62
     8
370
    15
100
AcDbLine
 10
272.0119518949
 20
150.2818918398
 30
0.0
 11
272.0119518949
 21
181.9318056201
 31
0.0
  0
LINE
  5
12C
330
1F
100
AcDbEntity
  8
0
  6
Continuous
 62
     8
370
    15
100
AcDbLine
 10
257.0978097566
 20
181.9318056201
 30
0.0
 11
257.0978097566
 21
212.8160339751
 31
0.0
  0
LINE
  5
12D
330
1F
100
AcDbEntity
  8
0
  6
Continuous
 62
     8
370
    15
100
AcDbLine
 10
257.0978097566
 20
151.0475772651
 30
0.0
 11
257.0978097566
 21
181.9318056201
 31
0.0
  0
LINE
  5
12E
330
1F
100
AcDbEntity
  8
0
  6
Continuous
 62
     8
370
    15
100
AcDbLine
 10
272.7776373203
 20
181.9318056201
 30
0.0
 11
272.7776373203
 21
212.816033975
 31
0.0
  0
LINE
  5
12F
330
1F
100
AcDbEntity
  8
0
  6
Continuous
 62
     8
370
    15
100
AcDbLine
 10
272.7776373203
 20
151.0475772652
 30
0.0
 11
272.7776373203
 21
181.9318056201
 31
0.0
  0
LINE
  5
130
330
1F
100
AcDbEntity
  8
0
  6
Continuous
 62
     8
370
    15
100
AcDbLine
 10
256.4877235405
 20
159.9318056318
 30
0.0
 11
256.4877235405
 21
181.9318056201
 31
0.0
  0
LINE
  5
131
330
1F
100
AcDbEntity
  8
0
  6
Continuous
 62
     8
370
    15
100
AcDbLine
 10
256.4877235405
 20
181.9318056201
 30
0.0
 11
256.4877235405
 21
203.9318056084
 31
0.0
  0
LINE
  5
132
330
1F
100
AcDbEntity
  8
0
  6
Continuous
 62
     8
370
    15
100
AcDbLine
 10
186.2434153125
 20
181.9318056171
 30
0.0
 11
186.2434153125
 21
169.5571102441
 31
0.0
  0
LINE
  5
133
330
1F
100
AcDbEntity
  8
0
  6
Continuous
 62
     8
370
    15
100
AcDbLine
 10
186.2434153125
 20
194.3065009961
 30
0.0
 11
186.2434153125
 21
181.9318056171
 31
0.0
  0
LINE
  5
134
330
1F
100
AcDbEntity
  8
0
  6
Continuous
 62
     8
370
    15
100
AcDbLine
 10
274.8877235395
 20
181.9318056201
 30
0.0
 11
274.8877235395
 21
195.9318056201
 31
0.0
  0
LINE
  5
135
330
1F
100
AcDbEntity
  8
0
  6
Continuous
 62
     8
370
    15
100
AcDbLine
 10
274.8877235395
 20
181.9318056201
 30
0.0
 11
274.8877235395
 21
167.9318057698
 31
0.0
  0
DIMENSION
  5
136
330
1F
100
AcDbEntity
  8
DIM
100
AcDbDimension
  2
_D
 10
413.7877235395
 20
123.4951389523
 30
0.0
 11
284.1175003151
 21
123.4951389523
 31
0.0
 70
   160
  1
<>
 71
     2
 42
-1.0
  3
SLDDIMSTYLE0
100
AcDbAlignedDimension
 13
185.3877235395
 23
181.9318056201
 33
0.0
 14
413.7877235395
 24
170.4318056201
 34
0.0
 50
0.0
100
AcDbRotatedDimension
  0
DIMENSION
  5
141
330
1F
100
AcDbEntity
  8
DIM
100
AcDbDimension
  2
_D_1
 10
413.7877235395
 20
137.4433076171
 30
0.0
 11
337.7561435096
 21
137.4433076171
 31
0.0
 70
   160
  1
<>
 71
     2
 42
-1.0
  3
SLDDIMSTYLE1
100
AcDbAlignedDimension
 13
253.7877235395
 23
159.7068056201
 33
0.0
 14
413.7877235395
 24
170.4318056201
 34
0.0
100
AcDbRotatedDimension
  0
DIMENSION
  5
14C
330
1F
100
AcDbEntity
  8
DIM
100
AcDbDimension
  2
_D_2
 10
430.4543902062
 20
165.9318056201
 30
0.0
 11
430.4543902062
 21
181.0469643382
 31
0.0
 70
   160
  1
%%c<>
 71
     2
 42
-1.0
  3
SLDDIMSTYLE2
100
AcDbAlignedDimension
 13
411.1896473285
 23
197.9318056201
 33
0.0
 14
411.1896473285
 24
165.9318056201
 34
0.0
 50
90.0
100
AcDbRotatedDimension
  0
DIMENSION
  5
15A
330
1F
100
AcDbEntity
  8
DIM
100
AcDbDimension
  2
_D_3
 10
171.9065539426
 20
150.161805619
 30
0.0
 11
171.9065539426
 21
181.0469643382
 31
0.0
 70
   160
  1
%%c<>
 71
     2
 42
-1.0
  3
SLDDIMSTYLE0
100
AcDbAlignedDimension
 13
258.1534089634
 23
213.7018056212
 33
0.0
 14
258.1534089634
 24
150.161805619
 34
0.0
 50
90.0
100
AcDbRotatedDimension
  0
DIMENSION
  5
165
330
1F
100
AcDbEntity
  8
DIM
100
AcDbDimension
  2
_D_4
 10
424.044011875
 20
167.9318056201
 30
0.0
 11
424.044011875
 21
181.0469643382
 31
0.0
 70
   160
  1
%%c<>
 71
     2
 42
-1.0
  3
SLDDIMSTYLE2
100
AcDbAlignedDimension
 13
379.3677235395
 23
195.9318056201
 33
0.0
 14
379.3677235395
 24
167.9318056201
 34
0.0
 50
90.0
100
AcDbRotatedDimension
  0
LINE
  5
172
330
1F
100
AcDbEntity
  8
DIM
  6
CENTERX2
 48
1.2
370
     0
100
AcDbLine
 10
411.1896473285
 20
181.9318056201
 30
0.0
 11
399.2877235395
 21
181.9318056201
 31
0.0
  0
LINE
  5
173
330
1F
100
AcDbEntity
  8
DIM
  6
CENTERX2
 48
1.2
370
     0
100
AcDbLine
 10
411.1896473285
 20
181.9318056201
 30
0.0
 11
417.1210568728
 21
181.9318056201
 31
0.0
  0
LINE
  5
174
330
1F
100
AcDbEntity
  8
DIM
  6
CENTERX2
 48
1.2
370
     0
100
AcDbLine
 10
399.2877235395
 20
181.9318056201
 30
0.0
 11
396.2877235395
 21
181.9318056201
 31
0.0
  0
LINE
  5
175
330
1F
100
AcDbEntity
  8
DIM
  6
CENTERX2
 48
1.2
370
     0
100
AcDbLine
 10
376.0343902062
 20
181.9318056201
 30
0.0
 11
181.2086560197
 21
181.9318056201
 31
0.0
  0
LINE
  5
176
330
1F
100
AcDbEntity
  8
DIM
  6
CENTERX2
 48
1.2
370
     0
100
AcDbLine
 10
396.2877235395
 20
181.9318056201
 30
0.0
 11
379.0843902062
 21
181.9318056201
 31
0.0
  0
ENDSEC
  0
SECTION
  2
OBJECTS
  0
DICTIONARY
  5
C
330
0
100
AcDbDictionary
281
     1
  3
ACAD_GROUP
350
D
  3
ACAD_LAYOUT
350
1A
  3
ACAD_MLINESTYLE
350
17
  3
ACAD_PLOTSETTINGS
350
19
  3
ACAD_PLOTSTYLENAME
350
E
  3
ACAD_SCALELIST
350
47
  0
DICTIONARY
  5
D
102
{ACAD_REACTORS
330
C
102
}
330
C
100
AcDbDictionary
281
     1
  0
DICTIONARY
  5
1A
102
{ACAD_REACTORS
330
C
102
}
330
C
100
AcDbDictionary
281
     1
  3
Layout1
350
1E
  3
Layout2
350
26
  3
Model
350
22
  0
DICTIONARY
  5
17
102
{ACAD_REACTORS
330
C
102
}
330
C
100
AcDbDictionary
281
     1
  3
Standard
350
18
  0
DICTIONARY
  5
19
102
{ACAD_REACTORS
330
C
102
}
330
C
100
AcDbDictionary
281
     1
  0
ACDBDICTIONARYWDFLT
  5
E
102
{ACAD_REACTORS
330
C
102
}
330
C
100
AcDbDictionary
281
     1
  3
Normal
350
F
100
AcDbDictionaryWithDefault
340
F
  0
DICTIONARY
  5
47
102
{ACAD_REACTORS
330
C
102
}
330
C
100
AcDbDictionary
281
     1
  3
A0
350
48
  3
A1
350
49
  3
A2
350
4A
  3
A3
350
4B
  3
A4
350
4C
  3
A5
350
4D
  3
A6
350
4E
  3
A7
350
4F
  3
A8
350
50
  3
A9
350
51
  3
B0
350
52
  3
B1
350
53
  3
B2
350
54
  3
B3
350
55
  3
B4
350
56
  3
B5
350
57
  3
B6
350
58
  3
B7
350
59
  3
B8
350
5A
  3
B9
350
5B
  3
C0
350
5C
  3
C1
350
5D
  3
C2
350
5E
  3
C3
350
5F
  3
C4
350
60
  3
C5
350
61
  3
C6
350
62
  3
C7
350
63
  3
C8
350
64
  3
C9
350
65
  3
D0
350
66
  3
D1
350
67
  3
D2
350
68
  0
LAYOUT
  5
1E
102
{ACAD_REACTORS
330
1A
102
}
330
1A
100
AcDbPlotSettings
  1

  2
none_device
  4

  6

 40
0.0
 41
0.0
 42
0.0
 43
0.0
 44
0.0
 45
0.0
 46
0.0
 47
0.0
 48
0.0
 49
0.0
140
0.0
141
0.0
142
1.0
143
1.0
 70
   688
 72
     1
 73
     0
 74
     5
  7

 75
    16
147
1.0
148
0.0
149
0.0
100
AcDbLayout
  1
Layout1
 70
     1
 71
     1
 10
0.0
 20
0.0
 11
420.0
 21
297.0
 12
0.0
 22
0.0
 32
0.0
 14
1.0000000000E+20
 24
1.0000000000E+20
 34
1.0000000000E+20
 15
-1.0000000000E+20
 25
-1.0000000000E+20
 35
-1.0000000000E+20
146
0.0
 13
0.0
 23
0.0
 33
0.0
 16
1.0
 26
0.0
 36
0.0
 17
0.0
 27
1.0
 37
0.0
 76
     0
330
1B
  0
LAYOUT
  5
26
102
{ACAD_REACTORS
330
1A
102
}
330
1A
100
AcDbPlotSettings
  1

  2
none_device
  4

  6

 40
0.0
 41
0.0
 42
0.0
 43
0.0
 44
0.0
 45
0.0
 46
0.0
 47
0.0
 48
0.0
 49
0.0
140
0.0
141
0.0
142
1.0
143
1.0
 70
   688
 72
     1
 73
     0
 74
     5
  7

 75
    16
147
1.0
148
0.0
149
0.0
100
AcDbLayout
  1
Layout2
 70
     1
 71
     2
 10
0.0
 20
0.0
 11
0.0
 21
0.0
 12
0.0
 22
0.0
 32
0.0
 14
0.0
 24
0.0
 34
0.0
 15
0.0
 25
0.0
 35
0.0
146
0.0
 13
0.0
 23
0.0
 33
0.0
 16
1.0
 26
0.0
 36
0.0
 17
0.0
 27
1.0
 37
0.0
 76
     0
330
23
  0
LAYOUT
  5
22
102
{ACAD_REACTORS
330
1A
102
}
330
1A
100
AcDbPlotSettings
  1

  2
none_device
  4
Letter_(8.50_x_11.00_Inches)
  6

 40
6.35
 41
6.35
 42
6.35000508
 43
6.35000508
 44
215.9
 45
279.4
 46
0.0
 47
0.0
 48
0.0
 49
0.0
140
0.0
141
0.0
142
1.0
143
1.0
 70
  1712
 72
     1
 73
     0
 74
     0
  7

 75
     0
147
1.0
148
0.0
149
0.0
100
AcDbLayout
  1
Model
 70
     1
 71
     0
 10
0.0
 20
0.0
 11
495.0
 21
350.0
 12
0.0
 22
0.0
 32
0.0
 14
0.0
 24
0.0
 34
0.0
 15
495.0
 25
350.0
 35
0.0
146
0.0
 13
0.0
 23
0.0
 33
0.0
 16
1.0
 26
0.0
 36
0.0
 17
0.0
 27
1.0
 37
0.0
 76
     0
330
1F
331
29
  0
MLINESTYLE
  5
18
102
{ACAD_REACTORS
330
17
102
}
330
17
100
AcDbMlineStyle
  2
Standard
 70
     0
  3

 62
   256
 51
90.0
 52
90.0
 71
     2
 49
0.5
 62
   256
  6
BYLAYER
 49
-0.5
 62
   256
  6
BYLAYER
  0
ACDBPLACEHOLDER
  5
F
102
{ACAD_REACTORS
330
E
102
}
330
E
  0
SCALE
  5
48
102
{ACAD_REACTORS
330
47
102
}
330
47
100
AcDbScale
 70
     0
300
1:1
140
1.0
141
1.0
290
     1
  0
SCALE
  5
49
102
{ACAD_REACTORS
330
47
102
}
330
47
100
AcDbScale
 70
     0
300
1:2
140
1.0
141
2.0
290
     0
  0
SCALE
  5
4A
102
{ACAD_REACTORS
330
47
102
}
330
47
100
AcDbScale
 70
     0
300
1:4
140
1.0
141
4.0
290
     0
  0
SCALE
  5
4B
102
{ACAD_REACTORS
330
47
102
}
330
47
100
AcDbScale
 70
     0
300
1:5
140
1.0
141
5.0
290
     0
  0
SCALE
  5
4C
102
{ACAD_REACTORS
330
47
102
}
330
47
100
AcDbScale
 70
     0
300
1:8
140
1.0
141
8.0
290
     0
  0
SCALE
  5
4D
102
{ACAD_REACTORS
330
47
102
}
330
47
100
AcDbScale
 70
     0
300
1:10
140
1.0
141
10.0
290
     0
  0
SCALE
  5
4E
102
{ACAD_REACTORS
330
47
102
}
330
47
100
AcDbScale
 70
     0
300
1:16
140
1.0
141
16.0
290
     0
  0
SCALE
  5
4F
102
{ACAD_REACTORS
330
47
102
}
330
47
100
AcDbScale
 70
     0
300
1:20
140
1.0
141
20.0
290
     0
  0
SCALE
  5
50
102
{ACAD_REACTORS
330
47
102
}
330
47
100
AcDbScale
 70
     0
300
1:30
140
1.0
141
30.0
290
     0
  0
SCALE
  5
51
102
{ACAD_REACTORS
330
47
102
}
330
47
100
AcDbScale
 70
     0
300
1:40
140
1.0
141
40.0
290
     0
  0
SCALE
  5
52
102
{ACAD_REACTORS
330
47
102
}
330
47
100
AcDbScale
 70
     0
300
1:50
140
1.0
141
50.0
290
     0
  0
SCALE
  5
53
102
{ACAD_REACTORS
330
47
102
}
330
47
100
AcDbScale
 70
     0
300
1:100
140
1.0
141
100.0
290
     0
  0
SCALE
  5
54
102
{ACAD_REACTORS
330
47
102
}
330
47
100
AcDbScale
 70
     0
300
2:1
140
2.0
141
1.0
290
     0
  0
SCALE
  5
55
102
{ACAD_REACTORS
330
47
102
}
330
47
100
AcDbScale
 70
     0
300
4:1
140
4.0
141
1.0
290
     0
  0
SCALE
  5
56
102
{ACAD_REACTORS
330
47
102
}
330
47
100
AcDbScale
 70
     0
300
8:1
140
8.0
141
1.0
290
     0
  0
SCALE
  5
57
102
{ACAD_REACTORS
330
47
102
}
330
47
100
AcDbScale
 70
     0
300
10:1
140
10.0
141
1.0
290
     0
  0
SCALE
  5
58
102
{ACAD_REACTORS
330
47
102
}
330
47
100
AcDbScale
 70
     0
300
100:1
140
100.0
141
1.0
290
     0
  0
SCALE
  5
59
102
{ACAD_REACTORS
330
47
102
}
330
47
100
AcDbScale
 70
     0
300
1/128" = 1'-0"
140
0.0078125
141
12.0
290
     0
  0
SCALE
  5
5A
102
{ACAD_REACTORS
330
47
102
}
330
47
100
AcDbScale
 70
     0
300
1/64" = 1'-0"
140
0.015625
141
12.0
290
     0
  0
SCALE
  5
5B
102
{ACAD_REACTORS
330
47
102
}
330
47
100
AcDbScale
 70
     0
300
1/32" = 1'-0"
140
0.03125
141
12.0
290
     0
  0
SCALE
  5
5C
102
{ACAD_REACTORS
330
47
102
}
330
47
100
AcDbScale
 70
     0
300
1/16" = 1'-0"
140
0.0625
141
12.0
290
     0
  0
SCALE
  5
5D
102
{ACAD_REACTORS
330
47
102
}
330
47
100
AcDbScale
 70
     0
300
3/32" = 1'-0"
140
0.09375
141
12.0
290
     0
  0
SCALE
  5
5E
102
{ACAD_REACTORS
330
47
102
}
330
47
100
AcDbScale
 70
     0
300
1/8" = 1'-0"
140
0.125
141
12.0
290
     0
  0
SCALE
  5
5F
102
{ACAD_REACTORS
330
47
102
}
330
47
100
AcDbScale
 70
     0
300
3/16" = 1'-0"
140
0.1875
141
12.0
290
     0
  0
SCALE
  5
60
102
{ACAD_REACTORS
330
47
102
}
330
47
100
AcDbScale
 70
     0
300
1/4" = 1'-0"
140
0.25
141
12.0
290
     0
  0
SCALE
  5
61
102
{ACAD_REACTORS
330
47
102
}
330
47
100
AcDbScale
 70
     0
300
3/8" = 1'-0"
140
0.375
141
12.0
290
     0
  0
SCALE
  5
62
102
{ACAD_REACTORS
330
47
102
}
330
47
100
AcDbScale
 70
     0
300
1/2" = 1'-0"
140
0.5
141
12.0
290
     0
  0
SCALE
  5
63
102
{ACAD_REACTORS
330
47
102
}
330
47
100
AcDbScale
 70
     0
300
3/4" = 1'-0"
140
0.75
141
12.0
290
     0
  0
SCALE
  5
64
102
{ACAD_REACTORS
330
47
102
}
330
47
100
AcDbScale
 70
     0
300
1" = 1'-0"
140
1.0
141
12.0
290
     0
  0
SCALE
  5
65
102
{ACAD_REACTORS
330
47
102
}
330
47
100
AcDbScale
 70
     0
300
1-1/2" = 1'-0"
140
1.5
141
12.0
290
     0
  0
SCALE
  5
66
102
{ACAD_REACTORS
330
47
102
}
330
47
100
AcDbScale
 70
     0
300
3" = 1'-0"
140
3.0
141
12.0
290
     0
  0
SCALE
  5
67
102
{ACAD_REACTORS
330
47
102
}
330
47
100
AcDbScale
 70
     0
300
6" = 1'-0"
140
6.0
141
12.0
290
     0
  0
SCALE
  5
68
102
{ACAD_REACTORS
330
47
102
}
330
47
100
AcDbScale
 70
     0
300
1'-0" = 1'-0"
140
12.0
141
12.0
290
     0
  0
ENDSEC
  0
EOF
