  0
SECTION
  2
HEADER
  9
$ACADVER
  1
AC1015
  9
$ACADMAINTVER
 70
     6
  9
$DWGCODEPAGE
  3
ANSI_1252
  9
$INSBASE
 10
0.0
 20
0.0
 30
0.0
  9
$EXTMIN
 10
0.0
 20
0.0
 30
0.0
  9
$EXTMAX
 10
326.7
 20
231.0
 30
0.0
  9
$LIMMIN
 10
0.0
 20
0.0
  9
$LIMMAX
 10
326.7
 20
231.0
  9
$ORTHOMODE
 70
     0
  9
$REGENMODE
 70
     1
  9
$FILLMODE
 70
     1
  9
$QTEXTMODE
 70
     0
  9
$MIRRTEXT
 70
     1
  9
$LTSCALE
 40
1.1
  9
$ATTMODE
 70
     1
  9
$TEXTSIZE
 40
4.2686111111
  9
$TRACEWID
 40
1.0
  9
$TEXTSTYLE
  7
Standard
  9
$CLAYER
  8
0
  9
$CELTYPE
  6
ByLayer
  9
$CECOLOR
 62
   256
  9
$CELTSCALE
 40
1.0
  9
$DISPSILH
 70
     0
  9
$DIMSCALE
 40
1.0
  9
$DIMASZ
 40
3.6322
  9
$DIMEXO
 40
1.1
  9
$DIMDLI
 40
3.75
  9
$DIMRND
 40
0.0
  9
$DIMDLE
 40
0.0
  9
$DIMEXE
 40
1.1
  9
$DIMTP
 40
0.0
  9
$DIMTM
 40
0.0
  9
$DIMTXT
 40
4.2686111111
  9
$DIMCEN
 40
2.5
  9
$DIMTSZ
 40
0.0
  9
$DIMTOL
 70
     0
  9
$DIMLIM
 70
     0
  9
$DIMTIH
 70
     1
  9
$DIMTOH
 70
     1
  9
$DIMSE1
 70
     0
  9
$DIMSE2
 70
     0
  9
$DIMTAD
 70
     1
  9
$DIMZIN
 70
     0
  9
$DIMBLK
  1

  9
$DIMASO
 70
     1
  9
$DIMSHO
 70
     1
  9
$DIMPOST
  1

  9
$DIMAPOST
  1

  9
$DIMALT
 70
     0
  9
$DIMALTD
 70
     3
  9
$DIMALTF
 40
0.0393700787
  9
$DIMLFAC
 40
1.0
  9
$DIMTOFL
 70
     1
  9
$DIMTVP
 40
0.0
  9
$DIMTIX
 70
     0
  9
$DIMSOXD
 70
     0
  9
$DIMSAH
 70
     0
  9
$DIMBLK1
  1

  9
$DIMBLK2
  1

  9
$DIMSTYLE
  2
ISO-25
  9
$DIMCLRD
 70
     0
  9
$DIMCLRE
 70
     0
  9
$DIMCLRT
 70
     0
  9
$DIMTFAC
 40
1.0
  9
$DIMGAP
 40
1.6764
  9
$DIMJUST
 70
     0
  9
$DIMSD1
 70
     0
  9
$DIMSD2
 70
     0
  9
$DIMTOLJ
 70
     0
  9
$DIMTZIN
 70
     0
  9
$DIMALTZ
 70
     0
  9
$DIMALTTZ
 70
     0
  9
$DIMUPT
 70
     0
  9
$DIMDEC
 70
     2
  9
$DIMTDEC
 70
     2
  9
$DIMALTU
 70
     2
  9
$DIMALTTD
 70
     3
  9
$DIMTXSTY
  7
Standard
  9
$DIMAUNIT
 70
     0
  9
$DIMADEC
 70
     2
  9
$DIMALTRND
 40
0.0
  9
$DIMAZIN
 70
     0
  9
$DIMDSEP
 70
    44
  9
$DIMATFIT
 70
     3
  9
$DIMFRAC
 70
     0
  9
$DIMLDRBLK
  1

  9
$DIMLUNIT
 70
     2
  9
$DIMLWD
 70
    -2
  9
$DIMLWE
 70
    -2
  9
$DIMTMOVE
 70
     0
  9
$LUNITS
 70
     2
  9
$LUPREC
 70
     2
  9
$SKETCHINC
 40
1.0
  9
$FILLETRAD
 40
10.0
  9
$AUNITS
 70
     1
  9
$AUPREC
 70
     2
  9
$MENU
  1
.
  9
$ELEVATION
 40
0.0
  9
$PELEVATION
 40
0.0
  9
$THICKNESS
 40
0.0
  9
$LIMCHECK
 70
     0
  9
$CHAMFERA
 40
0.0
  9
$CHAMFERB
 40
0.0
  9
$CHAMFERC
 40
0.0
  9
$CHAMFERD
 40
0.0
  9
$SKPOLY
 70
     0
  9
$TDCREATE
 40
2458607.505999155
  9
$TDUCREATE
 40
2458607.276832488
  9
$TDUPDATE
 40
2458607.506000197
  9
$TDUUPDATE
 40
2458607.27683353
  9
$TDINDWG
 40
0.0000000116
  9
$TDUSRTIMER
 40
0.0000000116
  9
$USRTIMER
 70
     1
  9
$ANGBASE
 50
0.0
  9
$ANGDIR
 70
     0
  9
$PDMODE
 70
     0
  9
$PDSIZE
 40
-1.0
  9
$PLINEWID
 40
0.0
  9
$SPLFRAME
 70
     0
  9
$SPLINETYPE
 70
     6
  9
$SPLINESEGS
 70
     8
  9
$HANDSEED
  5
179
  9
$SURFTAB1
 70
     6
  9
$SURFTAB2
 70
     6
  9
$SURFTYPE
 70
     6
  9
$SURFU
 70
     6
  9
$SURFV
 70
     6
  9
$UCSBASE
  2

  9
$UCSNAME
  2

  9
$UCSORG
 10
0.0
 20
0.0
 30
0.0
  9
$UCSXDIR
 10
1.0
 20
0.0
 30
0.0
  9
$UCSYDIR
 10
0.0
 20
1.0
 30
0.0
  9
$UCSORTHOREF
  2

  9
$UCSORTHOVIEW
 70
     0
  9
$UCSORGTOP
 10
0.0
 20
0.0
 30
0.0
  9
$UCSORGBOTTOM
 10
0.0
 20
0.0
 30
0.0
  9
$UCSORGLEFT
 10
0.0
 20
0.0
 30
0.0
  9
$UCSORGRIGHT
 10
0.0
 20
0.0
 30
0.0
  9
$UCSORGFRONT
 10
0.0
 20
0.0
 30
0.0
  9
$UCSORGBACK
 10
0.0
 20
0.0
 30
0.0
  9
$PUCSBASE
  2

  9
$PUCSNAME
  2

  9
$PUCSORG
 10
0.0
 20
0.0
 30
0.0
  9
$PUCSXDIR
 10
1.0
 20
0.0
 30
0.0
  9
$PUCSYDIR
 10
0.0
 20
1.0
 30
0.0
  9
$PUCSORTHOREF
  2

  9
$PUCSORTHOVIEW
 70
     0
  9
$PUCSORGTOP
 10
0.0
 20
0.0
 30
0.0
  9
$PUCSORGBOTTOM
 10
0.0
 20
0.0
 30
0.0
  9
$PUCSORGLEFT
 10
0.0
 20
0.0
 30
0.0
  9
$PUCSORGRIGHT
 10
0.0
 20
0.0
 30
0.0
  9
$PUCSORGFRONT
 10
0.0
 20
0.0
 30
0.0
  9
$PUCSORGBACK
 10
0.0
 20
0.0
 30
0.0
  9
$USERI1
 70
     0
  9
$USERI2
 70
     0
  9
$USERI3
 70
     0
  9
$USERI4
 70
     0
  9
$USERI5
 70
     0
  9
$USERR1
 40
0.0
  9
$USERR2
 40
0.0
  9
$USERR3
 40
0.0
  9
$USERR4
 40
0.0
  9
$USERR5
 40
0.0
  9
$WORLDVIEW
 70
     1
  9
$SHADEDGE
 70
     3
  9
$SHADEDIF
 70
    70
  9
$TILEMODE
 70
     1
  9
$MAXACTVP
 70
    64
  9
$PINSBASE
 10
0.0
 20
0.0
 30
0.0
  9
$PLIMCHECK
 70
     0
  9
$PEXTMIN
 10
1.0000000000E+20
 20
1.0000000000E+20
 30
1.0000000000E+20
  9
$PEXTMAX
 10
-1.0000000000E+20
 20
-1.0000000000E+20
 30
-1.0000000000E+20
  9
$PLIMMIN
 10
0.0
 20
0.0
  9
$PLIMMAX
 10
420.0
 20
297.0
  9
$UNITMODE
 70
     0
  9
$VISRETAIN
 70
     1
  9
$PLINEGEN
 70
     0
  9
$PSLTSCALE
 70
     1
  9
$TREEDEPTH
 70
  3020
  9
$CMLSTYLE
  2
Standard
  9
$CMLJUST
 70
     0
  9
$CMLSCALE
 40
20.0
  9
$PROXYGRAPHICS
 70
     1
  9
$MEASUREMENT
 70
     1
  9
$CELWEIGHT
370
    -1
  9
$ENDCAPS
280
     0
  9
$JOINSTYLE
280
     0
  9
$LWDISPLAY
290
     1
  9
$INSUNITS
 70
     4
  9
$HYPERLINKBASE
  1

  9
$STYLESHEET
  1

  9
$XEDIT
290
     1
  9
$CEPSNTYPE
380
     0
  9
$PSTYLEMODE
290
     1
  9
$FINGERPRINTGUID
  2
{F73C91E1-F831-4CEA-AF96-9F544B61D9B8}
  9
$VERSIONGUID
  2
{FAEB1C32-E019-11D5-929B-00C0DF256EC4}
  9
$EXTNAMES
290
     1
  9
$PSVPSCALE
 40
0.0
  9
$OLESTARTUP
290
     0
  0
ENDSEC
  0
SECTION
  2
CLASSES
  0
CLASS
  1
ACDBDICTIONARYWDFLT
  2
AcDbDictionaryWithDefault
  3
ObjectDBX Classes
 90
        0
280
     0
281
     0
  0
CLASS
  1
VISUALSTYLE
  2
AcDbVisualStyle
  3
ObjectDBX Classes
 90
     4095
280
     0
281
     0
  0
CLASS
  1
MATERIAL
  2
AcDbMaterial
  3
ObjectDBX Classes
 90
     1153
280
     0
281
     0
  0
CLASS
  1
SCALE
  2
AcDbScale
  3
ObjectDBX Classes
 90
     1153
280
     0
281
     0
  0
CLASS
  1
SUN
  2
AcDbSun
  3
SCENEOE
 90
     1153
280
     0
281
     0
  0
CLASS
  1
ACDBPLACEHOLDER
  2
AcDbPlaceHolder
  3
ObjectDBX Classes
 90
        0
280
     0
281
     0
  0
CLASS
  1
LAYOUT
  2
AcDbLayout
  3
ObjectDBX Classes
 90
        0
280
     0
281
     0
  0
ENDSEC
  0
SECTION
  2
TABLES
  0
TABLE
  2
VPORT
  5
8
330
0
100
AcDbSymbolTable
 70
     1
  0
VPORT
  5
29
330
8
100
AcDbSymbolTableRecord
100
AcDbViewportTableRecord
  2
*Active
 70
     0
 10
0.0
 20
0.0
 11
1.0
 21
1.0
 12
163.35
 22
115.5
 13
0.0
 23
0.0
 14
10.0
 24
10.0
 15
10.0
 25
10.0
 16
0.0
 26
0.0
 36
1.0
 17
0.0
 27
0.0
 37
0.0
 40
231.0
 41
1.4142857143
 42
50.0
 43
0.0
 44
0.0
 50
0.0
 51
0.0
 71
     0
 72
  2000
 73
     1
 74
     3
 75
     0
 76
     0
 77
     0
 78
     0
281
     0
 65
     1
110
0.0
120
0.0
130
0.0
111
1.0
121
0.0
131
0.0
112
0.0
122
1.0
132
0.0
 79
     0
146
0.0
  0
ENDTAB
  0
TABLE
  2
LTYPE
  5
5
330
0
100
AcDbSymbolTable
 70
     6
  0
LTYPE
  5
14
330
5
100
AcDbSymbolTableRecord
100
AcDbLinetypeTableRecord
  2
ByBlock
 70
     0
  3

 72
    65
 73
     0
 40
0.0
  0
LTYPE
  5
15
330
5
100
AcDbSymbolTableRecord
100
AcDbLinetypeTableRecord
  2
ByLayer
 70
     0
  3

 72
    65
 73
     0
 40
0.0
  0
LTYPE
  5
16
330
5
100
AcDbSymbolTableRecord
100
AcDbLinetypeTableRecord
  2
Continuous
 70
     0
  3
Solid line
 72
    65
 73
     0
 40
0.0
  0
LTYPE
  5
6A
330
5
100
AcDbSymbolTableRecord
100
AcDbLinetypeTableRecord
  2
HIDDEN
 70
     0
  3
Hidden __ __ __ __ __ __ __ __ __ __ __ __ __ __
 72
    65
 73
     2
 40
1.905
 49
1.27
 74
     0
 49
-0.635
 74
     0
  0
LTYPE
  5
6B
330
5
100
AcDbSymbolTableRecord
100
AcDbLinetypeTableRecord
  2
PHANTOM
 70
     0
  3
Phantom ______  __  __  ______  __  __  ______
 72
    65
 73
     6
 40
12.7
 49
6.35
 74
     0
 49
-1.27
 74
     0
 49
1.27
 74
     0
 49
-1.27
 74
     0
 49
1.27
 74
     0
 49
-1.27
 74
     0
  0
LTYPE
  5
6C
330
5
100
AcDbSymbolTableRecord
100
AcDbLinetypeTableRecord
  2
CENTER
 70
     0
  3
Center ____ _ ____ _ ____ _ ____ _ ____ _ ____
 72
    65
 73
     4
 40
10.16
 49
6.35
 74
     0
 49
-1.27
 74
     0
 49
1.27
 74
     0
 49
-1.27
 74
     0
  0
LTYPE
  5
6D
330
5
100
AcDbSymbolTableRecord
100
AcDbLinetypeTableRecord
  2
CENTERX2
 70
     0
  3
Center (2x) ________  __  ________  __  _____
 72
    65
 73
     4
 40
20.32
 49
12.7
 74
     0
 49
-2.54
 74
     0
 49
2.54
 74
     0
 49
-2.54
 74
     0
  0
LTYPE
  5
6E
330
5
100
AcDbSymbolTableRecord
100
AcDbLinetypeTableRecord
  2
DOT2
 70
     0
  3
Dot (.5x) ........................................
 72
    65
 73
     2
 40
0.635
 49
0.0
 74
     0
 49
-0.635
 74
     0
  0
ENDTAB
  0
TABLE
  2
LAYER
  5
2
330
0
100
AcDbSymbolTable
 70
     8
  0
LAYER
  5
10
330
2
100
AcDbSymbolTableRecord
100
AcDbLayerTableRecord
  2
0
 70
     0
 62
     7
  6
Continuous
370
    -3
390
F
  0
LAYER
  5
6F
330
2
100
AcDbSymbolTableRecord
100
AcDbLayerTableRecord
  2
FORMAT
 70
     0
 62
     7
  6
Continuous
370
    -3
390
F
  0
LAYER
  5
70
330
2
100
AcDbSymbolTableRecord
100
AcDbLayerTableRecord
  2
SLD-0
 70
     0
 62
     2
  6
Continuous
370
    -3
390
F
  0
LAYER
  5
71
330
2
100
AcDbSymbolTableRecord
100
AcDbLayerTableRecord
  2
DIM
 70
     0
 62
   179
  6
Continuous
370
    -3
390
F
  0
LAYER
  5
72
330
2
100
AcDbSymbolTableRecord
100
AcDbLayerTableRecord
  2
SLD-DEFPOINTS
 70
     0
 62
   179
  6
Continuous
370
    -3
390
F
  0
LAYER
  5
73
330
2
100
AcDbSymbolTableRecord
100
AcDbLayerTableRecord
  2
HAT
 70
     0
 62
   135
  6
Continuous
370
    -3
390
F
  0
LAYER
  5
74
330
2
100
AcDbSymbolTableRecord
100
AcDbLayerTableRecord
  2
JOB
 70
     0
 62
   201
  6
Continuous
370
    -3
390
F
  0
LAYER
  5
75
330
2
100
AcDbSymbolTableRecord
100
AcDbLayerTableRecord
  2
INSPECTION_REPORT
 70
     0
 62
   255
  6
Continuous
370
    -3
390
F
  0
ENDTAB
  0
TABLE
  2
STYLE
  5
3
330
0
100
AcDbSymbolTable
 70
     4
  0
STYLE
  5
11
330
3
100
AcDbSymbolTableRecord
100
AcDbTextStyleTableRecord
  2
Standard
 70
     0
 40
0.0
 41
1.0
 50
0.0
 71
     0
 42
4.2686111111
  3
txt
  4

  0
STYLE
  5
96
330
3
100
AcDbSymbolTableRecord
100
AcDbTextStyleTableRecord
  2
SLDTEXTSTYLE0
 70
     0
 40
0.0
 41
0.7
 50
0.0
 71
     0
 42
4.2686111111
  3
TXT
  4

  0
STYLE
  5
98
330
3
100
AcDbSymbolTableRecord
100
AcDbTextStyleTableRecord
  2
SLDTEXTSTYLE1
 70
     0
 40
0.0
 41
0.75
 50
0.0
 71
     0
 42
4.2686111111
  3
TXT
  4

  0
STYLE
  5
AB
330
3
100
AcDbSymbolTableRecord
100
AcDbTextStyleTableRecord
  2
SLDTEXTSTYLE2
 70
     0
 40
0.0
 41
0.6875
 50
0.0
 71
     0
 42
4.2686111111
  3
TXT
  4

  0
ENDTAB
  0
TABLE
  2
VIEW
  5
6
330
0
100
AcDbSymbolTable
 70
     0
  0
ENDTAB
  0
TABLE
  2
UCS
  5
7
330
0
100
AcDbSymbolTable
 70
     0
  0
ENDTAB
  0
TABLE
  2
APPID
  5
9
330
0
100
AcDbSymbolTable
 70
     1
  0
APPID
  5
12
330
9
100
AcDbSymbolTableRecord
100
AcDbRegAppTableRecord
  2
ACAD
 70
     0
  0
ENDTAB
  0
TABLE
  2
DIMSTYLE
  5
A
330
0
100
AcDbSymbolTable
 70
     3
100
AcDbDimStyleTable
  0
DIMSTYLE
105
27
330
A
100
AcDbSymbolTableRecord
100
AcDbDimStyleTableRecord
  2
ISO-25
 70
     0
 41
2.5
 42
0.625
 43
3.75
 44
1.25
 73
     0
 74
     0
 77
     1
 78
     8
140
2.5
141
2.5
143
0.0393700787
147
0.625
171
     3
172
     1
178
     0
271
     2
272
     2
274
     3
278
    44
283
     0
284
     8
340
11
  0
DIMSTYLE
105
14D
102
{ACAD_REACTORS
330
14C
330
164
330
16E
102
}
330
A
100
AcDbSymbolTableRecord
100
AcDbDimStyleTableRecord
  2
SLDDIMSTYLE0
 70
     0
 41
3.6322
 44
0.0
 45
0.000000001
 73
     0
 74
     0
 77
     1
 78
    12
 79
     3
140
3.2014583333
147
0.8003645833
173
     1
178
     0
271
     2
272
     2
276
     2
284
    12
340
96
  0
DIMSTYLE
105
159
102
{ACAD_REACTORS
330
158
102
}
330
A
100
AcDbSymbolTableRecord
100
AcDbDimStyleTableRecord
  2
SLDDIMSTYLE1
 70
     0
 41
3.6322
 44
0.0
 45
0.000000001
 73
     0
 74
     0
 77
     1
 78
     4
 79
     1
140
3.2014583333
147
0.8003645833
173
     1
178
     0
271
     2
272
     2
276
     2
284
    12
340
96
  0
ENDTAB
  0
TABLE
  2
BLOCK_RECORD
  5
1
330
0
100
AcDbSymbolTable
 70
     6
  0
BLOCK_RECORD
  5
1F
330
1
100
AcDbSymbolTableRecord
100
AcDbBlockTableRecord
  2
*Model_Space
340
22
  0
BLOCK_RECORD
  5
1B
330
1
100
AcDbSymbolTableRecord
100
AcDbBlockTableRecord
  2
*Paper_Space
340
1E
  0
BLOCK_RECORD
  5
23
330
1
100
AcDbSymbolTableRecord
100
AcDbBlockTableRecord
  2
*Paper_Space0
340
26
  0
BLOCK_RECORD
  5
E8
330
1
100
AcDbSymbolTableRecord
100
AcDbBlockTableRecord
  2
SW_CENTERMARKSYMBOL_0
340
0
102
{BLKREFS
331
F3
102
}
  0
BLOCK_RECORD
  5
14E
330
1
100
AcDbSymbolTableRecord
100
AcDbBlockTableRecord
  2
_D
340
0
  0
BLOCK_RECORD
  5
15A
330
1
100
AcDbSymbolTableRecord
100
AcDbBlockTableRecord
  2
_D_1
340
0
  0
BLOCK_RECORD
  5
165
330
1
100
AcDbSymbolTableRecord
100
AcDbBlockTableRecord
  2
_D_2
340
0
  0
BLOCK_RECORD
  5
16F
330
1
100
AcDbSymbolTableRecord
100
AcDbBlockTableRecord
  2
_D_3
340
0
  0
ENDTAB
  0
ENDSEC
  0
SECTION
  2
BLOCKS
  0
BLOCK
  5
20
330
1F
100
AcDbEntity
  8
0
100
AcDbBlockBegin
  2
*Model_Space
 70
     0
 10
0.0
 20
0.0
 30
0.0
  3
*Model_Space
  1
*Model_Space
  0
ENDBLK
  5
21
330
1F
100
AcDbEntity
  8
0
100
AcDbBlockEnd
  0
BLOCK
  5
1C
330
1B
100
AcDbEntity
 67
     1
  8
0
100
AcDbBlockBegin
  2
*Paper_Space
 70
     0
 10
0.0
 20
0.0
 30
0.0
  3
*Paper_Space
  1
*Paper_Space
  0
ENDBLK
  5
1D
330
1B
100
AcDbEntity
 67
     1
  8
0
100
AcDbBlockEnd
  0
BLOCK
  5
24
330
23
100
AcDbEntity
  8
0
100
AcDbBlockBegin
  2
*Paper_Space0
 70
     0
 10
0.0
 20
0.0
 30
0.0
  3
*Paper_Space0
  1
*Paper_Space0
  0
ENDBLK
  5
25
330
23
100
AcDbEntity
  8
0
100
AcDbBlockEnd
  0
BLOCK
  5
E9
330
E8
100
AcDbEntity
  8
0
100
AcDbBlockBegin
  2
SW_CENTERMARKSYMBOL_0
 70
     0
 10
0.0
 20
0.0
 30
0.0
  3
SW_CENTERMARKSYMBOL_0
  1
SW_CENTERMARKSYMBOL_0
  0
LINE
  5
EB
330
E8
100
AcDbEntity
  8
DIM
 62
     0
100
AcDbLine
 10
0.0
 20
0.0
 30
0.0
 11
0.0
 21
2.5
 31
0.0
  0
LINE
  5
EC
330
E8
100
AcDbEntity
  8
DIM
 62
     0
100
AcDbLine
 10
0.0
 20
0.0
 30
0.0
 11
-2.5
 21
0.0
 31
0.0
  0
LINE
  5
ED
330
E8
100
AcDbEntity
  8
DIM
 62
     0
100
AcDbLine
 10
0.0
 20
0.0
 30
0.0
 11
0.0
 21
-2.5
 31
0.0
  0
LINE
  5
EE
330
E8
100
AcDbEntity
  8
DIM
 62
     0
100
AcDbLine
 10
0.0
 20
0.0
 30
0.0
 11
2.5
 21
0.0
 31
0.0
  0
LINE
  5
EF
330
E8
100
AcDbEntity
  8
DIM
 62
     0
100
AcDbLine
 10
0.0
 20
5.0
 30
0.0
 11
0.0
 21
51.1328427125
 31
0.0
  0
LINE
  5
F0
330
E8
100
AcDbEntity
  8
DIM
 62
     0
100
AcDbLine
 10
-5.0
 20
0.0
 30
0.0
 11
-51.1328427125
 21
0.0
 31
0.0
  0
LINE
  5
F1
330
E8
100
AcDbEntity
  8
DIM
 62
     0
100
AcDbLine
 10
0.0
 20
-5.0
 30
0.0
 11
0.0
 21
-51.1328427125
 31
0.0
  0
LINE
  5
F2
330
E8
100
AcDbEntity
  8
DIM
 62
     0
100
AcDbLine
 10
5.0
 20
0.0
 30
0.0
 11
51.1328427125
 21
0.0
 31
0.0
  0
ENDBLK
  5
EA
330
E8
100
AcDbEntity
  8
0
100
AcDbBlockEnd
  0
BLOCK
  5
14F
330
14E
100
AcDbEntity
  8
0
100
AcDbBlockBegin
  2
_D
 70
     0
 10
0.0
 20
0.0
 30
0.0
  3
_D
  1
_D
  0
SOLID
  5
151
330
14E
100
AcDbEntity
  8
DIM
100
AcDbTrace
 10
307.1127988937
 20
133.2635093168
 30
0.0
 11
306.5539988937
 21
129.6313093168
 31
0.0
 12
307.6715988937
 22
129.6313093168
 32
0.0
 13
307.6715988937
 23
129.6313093168
 33
0.0
  0
SOLID
  5
152
330
14E
100
AcDbEntity
  8
DIM
100
AcDbTrace
 10
307.1127988937
 20
101.2635093168
 30
0.0
 11
307.6715988937
 21
104.8957093168
 31
0.0
 12
306.5539988937
 22
104.8957093168
 32
0.0
 13
306.5539988937
 23
104.8957093168
 33
0.0
  0
LINE
  5
153
330
14E
100
AcDbEntity
  8
DIM
100
AcDbLine
 10
298.5969420318
 20
133.2635093168
 30
0.0
 11
308.2127988937
 21
133.2635093168
 31
0.0
  0
LINE
  5
154
330
14E
100
AcDbEntity
  8
DIM
100
AcDbLine
 10
298.5969420318
 20
101.2635093168
 30
0.0
 11
308.2127988937
 21
101.2635093168
 31
0.0
  0
LINE
  5
155
330
14E
100
AcDbEntity
  8
DIM
100
AcDbLine
 10
307.1127988937
 20
133.2635093168
 30
0.0
 11
307.1127988937
 21
101.2635093168
 31
0.0
  0
MTEXT
  5
156
330
14E
100
AcDbEntity
  8
DIM
100
AcDbMText
 10
302.9859019798
 20
112.6242108014
 30
0.0
 40
3.2014583333
 41
0.0
 71
     1
 72
     1
  1
%%c
  7
SLDTEXTSTYLE0
 11
-7.044195017643634E-15
 21
1.0
 31
0.0
 73
     1
 44
1.0
  0
MTEXT
  5
157
330
14E
100
AcDbEntity
  8
DIM
100
AcDbMText
 10
302.9859019798
 20
117.574910291
 30
0.0
 40
3.2014583333
 41
0.0
 71
     1
 72
     1
  1
32
  7
SLDTEXTSTYLE0
 11
-7.044195017643634E-15
 21
1.0
 31
0.0
 73
     1
 44
1.0
  0
ENDBLK
  5
150
330
14E
100
AcDbEntity
  8
0
100
AcDbBlockEnd
  0
BLOCK
  5
15B
330
15A
100
AcDbEntity
  8
0
100
AcDbBlockBegin
  2
_D_1
 70
     0
 10
0.0
 20
0.0
 30
0.0
  3
_D_1
  1
_D_1
  0
SOLID
  5
15D
330
15A
100
AcDbEntity
  8
DIM
100
AcDbTrace
 10
132.1008953034
 20
166.0135093168
 30
0.0
 11
131.5420953034
 21
162.3813093168
 31
0.0
 12
132.6596953034
 22
162.3813093168
 32
0.0
 13
132.6596953034
 23
162.3813093168
 33
0.0
  0
SOLID
  5
15E
330
15A
100
AcDbEntity
  8
DIM
100
AcDbTrace
 10
132.1008953034
 20
68.5135093168
 30
0.0
 11
132.6596953034
 21
72.1457093168
 31
0.0
 12
131.5420953034
 22
72.1457093168
 32
0.0
 13
131.5420953034
 23
72.1457093168
 33
0.0
  0
LINE
  5
15F
330
15A
100
AcDbEntity
  8
DIM
100
AcDbLine
 10
241.6286528606
 20
166.0135093168
 30
0.0
 11
131.0008953034
 21
166.0135093168
 31
0.0
  0
LINE
  5
160
330
15A
100
AcDbEntity
  8
DIM
100
AcDbLine
 10
241.6286528606
 20
68.5135093168
 30
0.0
 11
131.0008953034
 21
68.5135093168
 31
0.0
  0
LINE
  5
161
330
15A
100
AcDbEntity
  8
DIM
100
AcDbLine
 10
132.1008953034
 20
166.0135093168
 30
0.0
 11
132.1008953034
 21
68.5135093168
 31
0.0
  0
MTEXT
  5
162
330
15A
100
AcDbEntity
  8
DIM
100
AcDbMText
 10
127.9739983896
 20
109.8911138554
 30
0.0
 40
3.2014583333
 41
0.0
 71
     1
 72
     1
  1
%%c
  7
SLDTEXTSTYLE0
 11
-7.044195017643634E-15
 21
1.0
 31
0.0
 73
     1
 44
1.0
  0
MTEXT
  5
163
330
15A
100
AcDbEntity
  8
DIM
100
AcDbMText
 10
127.9739983896
 20
114.8418133449
 30
0.0
 40
3.2014583333
 41
0.0
 71
     1
 72
     1
  1
97.50
  7
SLDTEXTSTYLE0
 11
-7.044195017643634E-15
 21
1.0
 31
0.0
 73
     1
 44
1.0
  0
ENDBLK
  5
15C
330
15A
100
AcDbEntity
  8
0
100
AcDbBlockEnd
  0
BLOCK
  5
166
330
165
100
AcDbEntity
  8
0
100
AcDbBlockBegin
  2
_D_2
 70
     0
 10
0.0
 20
0.0
 30
0.0
  3
_D_2
  1
_D_2
  0
SOLID
  5
168
330
165
100
AcDbEntity
  8
DIM
100
AcDbTrace
 10
136.6129674356
 20
47.3086861038
 30
0.0
 11
140.2451674356
 21
46.7498861038
 31
0.0
 12
140.2451674356
 22
47.8674861038
 32
0.0
 13
140.2451674356
 23
47.8674861038
 33
0.0
  0
SOLID
  5
169
330
165
100
AcDbEntity
  8
DIM
100
AcDbTrace
 10
298.3629674356
 20
47.3086861038
 30
0.0
 11
294.7307674356
 21
47.8674861038
 31
0.0
 12
294.7307674356
 22
46.7498861038
 32
0.0
 13
294.7307674356
 23
46.7498861038
 33
0.0
  0
LINE
  5
16A
330
165
100
AcDbEntity
  8
DIM
100
AcDbLine
 10
136.6129674356
 20
96.9419343162
 30
0.0
 11
136.6129674356
 21
46.2086861038
 31
0.0
  0
LINE
  5
16B
330
165
100
AcDbEntity
  8
DIM
100
AcDbLine
 10
298.3629674356
 20
101.6635093168
 30
0.0
 11
298.3629674356
 21
46.2086861038
 31
0.0
  0
LINE
  5
16C
330
165
100
AcDbEntity
  8
DIM
100
AcDbLine
 10
136.6129674356
 20
47.3086861038
 30
0.0
 11
298.3629674356
 21
47.3086861038
 31
0.0
  0
MTEXT
  5
16D
330
165
100
AcDbEntity
  8
DIM
100
AcDbMText
 10
211.5089473337
 20
51.4355830176
 30
0.0
 40
3.2014583333
 41
0.0
 71
     1
 72
     1
  1
161.75
  7
SLDTEXTSTYLE0
 73
     1
 44
1.0
  0
ENDBLK
  5
167
330
165
100
AcDbEntity
  8
0
100
AcDbBlockEnd
  0
BLOCK
  5
170
330
16F
100
AcDbEntity
  8
0
100
AcDbBlockBegin
  2
_D_3
 70
     0
 10
0.0
 20
0.0
 30
0.0
  3
_D_3
  1
_D_3
  0
SOLID
  5
172
330
16F
100
AcDbEntity
  8
DIM
100
AcDbTrace
 10
238.3629674356
 20
57.5134093168
 30
0.0
 11
241.9951674356
 21
56.9546093168
 31
0.0
 12
241.9951674356
 22
58.0722093168
 32
0.0
 13
241.9951674356
 23
58.0722093168
 33
0.0
  0
SOLID
  5
173
330
16F
100
AcDbEntity
  8
DIM
100
AcDbTrace
 10
298.3629674356
 20
57.5134093168
 30
0.0
 11
294.7307674356
 21
58.0722093168
 31
0.0
 12
294.7307674356
 22
56.9546093168
 32
0.0
 13
294.7307674356
 23
56.9546093168
 33
0.0
  0
LINE
  5
174
330
16F
100
AcDbEntity
  8
DIM
100
AcDbLine
 10
238.3629674356
 20
81.2385093168
 30
0.0
 11
238.3629674356
 21
56.4134093168
 31
0.0
  0
LINE
  5
175
330
16F
100
AcDbEntity
  8
DIM
100
AcDbLine
 10
298.3629674356
 20
101.6635093168
 30
0.0
 11
298.3629674356
 21
56.4134093168
 31
0.0
  0
LINE
  5
176
330
16F
100
AcDbEntity
  8
DIM
100
AcDbLine
 10
238.3629674356
 20
57.5134093168
 30
0.0
 11
298.3629674356
 21
57.5134093168
 31
0.0
  0
MTEXT
  5
177
330
16F
100
AcDbEntity
  8
DIM
100
AcDbMText
 10
266.199018665
 20
61.6403062306
 30
0.0
 40
3.2014583333
 41
0.0
 71
     1
 72
     1
  1
60
  7
SLDTEXTSTYLE0
 73
     1
 44
1.0
  0
ENDBLK
  5
171
330
16F
100
AcDbEntity
  8
0
100
AcDbBlockEnd
  0
ENDSEC
  0
SECTION
  2
ENTITIES
  0
LINE
  5
76
330
1F
100
AcDbEntity
  8
DIM
100
AcDbLine
 10
115.1748671579
 20
10.7700906025
 30
0.0
 11
115.1748671579
 21
5.2700906025
 31
0.0
  0
LINE
  5
77
330
1F
100
AcDbEntity
  8
DIM
100
AcDbLine
 10
279.9165618648
 20
10.7700906025
 30
0.0
 11
279.9165618648
 21
5.2700906025
 31
0.0
  0
LINE
  5
78
330
1F
100
AcDbEntity
  8
DIM
100
AcDbLine
 10
261.1968809247
 20
10.7700906025
 30
0.0
 11
261.1968809247
 21
5.2700906025
 31
0.0
  0
LINE
  5
79
330
1F
100
AcDbEntity
  8
DIM
100
AcDbLine
 10
306.7948671579
 20
5.2700906025
 30
0.0
 11
306.7948671579
 21
10.7700906025
 31
0.0
  0
LINE
  5
7A
330
1F
100
AcDbEntity
  8
DIM
100
AcDbLine
 10
123.7548671579
 20
10.7700906025
 30
0.0
 11
123.7548671579
 21
5.2700906025
 31
0.0
  0
LINE
  5
7B
330
1F
100
AcDbEntity
  8
DIM
100
AcDbLine
 10
144.8649148351
 20
10.7700906025
 30
0.0
 11
144.8649148351
 21
5.2700906025
 31
0.0
  0
LINE
  5
7C
330
1F
100
AcDbEntity
  8
DIM
100
AcDbLine
 10
321.0948671579
 20
5.2700906025
 30
0.0
 11
321.0948671579
 21
84.7450906025
 31
0.0
  0
LINE
  5
7D
330
1F
100
AcDbEntity
  8
DIM
100
AcDbLine
 10
314.4009051641
 20
66.0450906025
 30
0.0
 11
321.0948671579
 21
66.0450906025
 31
0.0
  0
LINE
  5
7E
330
1F
100
AcDbEntity
  8
DIM
100
AcDbLine
 10
164.0136859378
 20
9.9450906025
 30
0.0
 11
164.0136859378
 21
5.2700906025
 31
0.0
  0
LINE
  5
7F
330
1F
100
AcDbEntity
  8
DIM
100
AcDbLine
 10
216.4403440765
 20
10.7700906025
 30
0.0
 11
216.4403440765
 21
5.2700906025
 31
0.0
  0
LINE
  5
80
330
1F
100
AcDbEntity
  8
DIM
100
AcDbLine
 10
164.0136859378
 20
10.7700906025
 30
0.0
 11
164.0136859378
 21
9.9450906025
 31
0.0
  0
LINE
  5
81
330
1F
100
AcDbEntity
  8
DIM
100
AcDbLine
 10
315.5948671579
 20
19.2950114025
 30
0.0
 11
321.0948671579
 21
19.2950114025
 31
0.0
  0
LINE
  5
82
330
1F
100
AcDbEntity
  8
DIM
100
AcDbLine
 10
315.5948671579
 20
219.7700906025
 30
0.0
 11
10.8948671579
 21
219.7700906025
 31
0.0
  0
LINE
  5
83
330
1F
100
AcDbEntity
  8
DIM
100
AcDbLine
 10
321.0948671579
 20
225.2700906025
 30
0.0
 11
5.3948671579
 21
225.2700906025
 31
0.0
  0
LINE
  5
84
330
1F
100
AcDbEntity
  8
DIM
100
AcDbLine
 10
10.8948671579
 20
219.7700906025
 30
0.0
 11
10.8948671579
 21
10.7700906025
 31
0.0
  0
LINE
  5
85
330
1F
100
AcDbEntity
  8
DIM
100
AcDbLine
 10
5.3948671579
 20
225.2700906025
 30
0.0
 11
5.3948671579
 21
5.2700906025
 31
0.0
  0
LINE
  5
86
330
1F
100
AcDbEntity
  8
DIM
100
AcDbLine
 10
10.8948671579
 20
60.2700906025
 30
0.0
 11
5.3948671579
 21
60.2700906025
 31
0.0
  0
LINE
  5
87
330
1F
100
AcDbEntity
  8
DIM
100
AcDbLine
 10
5.3948671579
 20
115.2700906025
 30
0.0
 11
10.8948671579
 21
115.2700906025
 31
0.0
  0
LINE
  5
88
330
1F
100
AcDbEntity
  8
DIM
100
AcDbLine
 10
5.3948671579
 20
5.2700906025
 30
0.0
 11
321.0948671579
 21
5.2700906025
 31
0.0
  0
LINE
  5
89
330
1F
100
AcDbEntity
  8
DIM
100
AcDbLine
 10
10.8948671579
 20
10.7700906025
 30
0.0
 11
321.0948671579
 21
10.7700906025
 31
0.0
  0
LINE
  5
8A
330
1F
100
AcDbEntity
  8
DIM
100
AcDbLine
 10
53.2448671579
 20
5.2700906025
 30
0.0
 11
53.2448671579
 21
10.7700906025
 31
0.0
  0
LINE
  5
8B
330
1F
100
AcDbEntity
  8
DIM
100
AcDbLine
 10
108.2448671579
 20
10.7700906025
 30
0.0
 11
108.2448671579
 21
5.2700906025
 31
0.0
  0
LINE
  5
8C
330
1F
100
AcDbEntity
  8
DIM
100
AcDbLine
 10
10.8948671579
 20
170.2700906025
 30
0.0
 11
5.3948671579
 21
170.2700906025
 31
0.0
  0
LINE
  5
8D
330
1F
100
AcDbEntity
  8
DIM
100
AcDbLine
 10
53.2448671579
 20
219.7700906025
 30
0.0
 11
53.2448671579
 21
225.2700906025
 31
0.0
  0
LINE
  5
8E
330
1F
100
AcDbEntity
  8
DIM
100
AcDbLine
 10
108.2448671579
 20
225.2700906025
 30
0.0
 11
108.2448671579
 21
219.7700906025
 31
0.0
  0
LINE
  5
8F
330
1F
100
AcDbEntity
  8
DIM
100
AcDbLine
 10
163.2448671579
 20
225.2700906025
 30
0.0
 11
163.2448671579
 21
219.7700906025
 31
0.0
  0
LINE
  5
90
330
1F
100
AcDbEntity
  8
DIM
100
AcDbLine
 10
315.5948671579
 20
10.7700906025
 30
0.0
 11
315.5948671579
 21
219.7700906025
 31
0.0
  0
LINE
  5
91
330
1F
100
AcDbEntity
  8
DIM
100
AcDbLine
 10
321.0948671579
 20
84.7450906025
 30
0.0
 11
321.0948671579
 21
225.2700906025
 31
0.0
  0
LINE
  5
92
330
1F
100
AcDbEntity
  8
DIM
100
AcDbLine
 10
321.0948671579
 20
115.2700906025
 30
0.0
 11
315.5948671579
 21
115.2700906025
 31
0.0
  0
LINE
  5
93
330
1F
100
AcDbEntity
  8
DIM
100
AcDbLine
 10
218.2448671579
 20
225.2700906025
 30
0.0
 11
218.2448671579
 21
219.7700906025
 31
0.0
  0
LINE
  5
94
330
1F
100
AcDbEntity
  8
DIM
100
AcDbLine
 10
273.2448671579
 20
219.7700906025
 30
0.0
 11
273.2448671579
 21
225.2700906025
 31
0.0
  0
LINE
  5
95
330
1F
100
AcDbEntity
  8
DIM
100
AcDbLine
 10
315.5948671579
 20
170.2700906025
 30
0.0
 11
321.0948671579
 21
170.2700906025
 31
0.0
  0
MTEXT
  5
97
330
1F
100
AcDbEntity
  8
DIM
100
AcDbMText
 10
16.0734893479
 20
212.6113210946
 30
0.0
 40
4.6566666667
 41
0.0
 71
     1
 72
     1
  1
SK50 MT02 060 6.3G15000 SL
  7
SLDTEXTSTYLE0
 73
     1
 44
1.0
  0
MTEXT
  5
99
330
1F
100
AcDbEntity
  8
DIM
 62
     7
100
AcDbMText
 10
217.5060565113
 20
8.5821466789
 30
0.0
 40
1.64846
 41
0.0
 71
     1
 72
     1
  1
WEIGHT:
  7
SLDTEXTSTYLE1
 73
     1
 44
1.0
  0
MTEXT
  5
9A
330
1F
100
AcDbEntity
  8
DIM
 62
     7
100
AcDbMText
 10
317.4567844303
 20
90.1346748591
 30
0.0
 40
2.0372916667
 41
0.0
 71
     1
 72
     1
  1
C
  7
SLDTEXTSTYLE1
 73
     1
 44
1.0
  0
MTEXT
  5
9B
330
1F
100
AcDbEntity
  8
DIM
 62
     7
100
AcDbMText
 10
311.3479386814
 20
16.339380182
 30
0.0
 40
3.2014583333
 41
0.0
 71
     1
 72
     1
  1
A4
  7
SLDTEXTSTYLE1
 73
     1
 44
1.0
  0
MTEXT
  5
9C
330
1F
100
AcDbEntity
  8
DIM
 62
     7
100
AcDbMText
 10
299.8282048912
 20
223.8049086465
 30
0.0
 40
2.0372916667
 41
0.0
 71
     1
 72
     1
  1
6
  7
SLDTEXTSTYLE1
 73
     1
 44
1.0
  0
MTEXT
  5
9D
330
1F
100
AcDbEntity
  8
DIM
 62
     7
100
AcDbMText
 10
244.8282048912
 20
223.8049086465
 30
0.0
 40
2.0372916667
 41
0.0
 71
     1
 72
     1
  1
5
  7
SLDTEXTSTYLE1
 73
     1
 44
1.0
  0
MTEXT
  5
9E
330
1F
100
AcDbEntity
  8
DIM
 62
     7
100
AcDbMText
 10
317.4282092912
 20
199.0549086465
 30
0.0
 40
2.0372916667
 41
0.0
 71
     1
 72
     1
  1
A
  7
SLDTEXTSTYLE1
 73
     1
 44
1.0
  0
MTEXT
  5
9F
330
1F
100
AcDbEntity
  8
DIM
 62
     7
100
AcDbMText
 10
317.4282092912
 20
144.0549086465
 30
0.0
 40
2.0372916667
 41
0.0
 71
     1
 72
     1
  1
B
  7
SLDTEXTSTYLE1
 73
     1
 44
1.0
  0
MTEXT
  5
A0
330
1F
100
AcDbEntity
  8
DIM
 62
     7
100
AcDbMText
 10
189.8282048912
 20
223.8049086465
 30
0.0
 40
2.0372916667
 41
0.0
 71
     1
 72
     1
  1
4
  7
SLDTEXTSTYLE1
 73
     1
 44
1.0
  0
MTEXT
  5
A1
330
1F
100
AcDbEntity
  8
DIM
 62
     7
100
AcDbMText
 10
25.2865382246
 20
223.8049086465
 30
0.0
 40
2.0372916667
 41
0.0
 71
     1
 72
     1
  1
1
  7
SLDTEXTSTYLE1
 73
     1
 44
1.0
  0
MTEXT
  5
A2
330
1F
100
AcDbEntity
  8
DIM
 62
     7
100
AcDbMText
 10
79.8282048912
 20
223.8049086465
 30
0.0
 40
2.0372916667
 41
0.0
 71
     1
 72
     1
  1
2
  7
SLDTEXTSTYLE1
 73
     1
 44
1.0
  0
MTEXT
  5
A3
330
1F
100
AcDbEntity
  8
DIM
 62
     7
100
AcDbMText
 10
134.8282048912
 20
223.8049086465
 30
0.0
 40
2.0372916667
 41
0.0
 71
     1
 72
     1
  1
3
  7
SLDTEXTSTYLE1
 73
     1
 44
1.0
  0
MTEXT
  5
A4
330
1F
100
AcDbEntity
  8
DIM
 62
     7
100
AcDbMText
 10
7.2282004912
 20
199.0549086465
 30
0.0
 40
2.0372916667
 41
0.0
 71
     1
 72
     1
  1
A
  7
SLDTEXTSTYLE1
 73
     1
 44
1.0
  0
MTEXT
  5
A5
330
1F
100
AcDbEntity
  8
DIM
 62
     7
100
AcDbMText
 10
79.8282048912
 20
9.3049086465
 30
0.0
 40
2.0372916667
 41
0.0
 71
     1
 72
     1
  1
2
  7
SLDTEXTSTYLE1
 73
     1
 44
1.0
  0
MTEXT
  5
A6
330
1F
100
AcDbEntity
  8
DIM
 62
     7
100
AcDbMText
 10
25.2865382246
 20
9.3049086465
 30
0.0
 40
2.0372916667
 41
0.0
 71
     1
 72
     1
  1
1
  7
SLDTEXTSTYLE1
 73
     1
 44
1.0
  0
MTEXT
  5
A7
330
1F
100
AcDbEntity
  8
DIM
 62
     7
100
AcDbMText
 10
7.2282004912
 20
34.0549086465
 30
0.0
 40
2.0372916667
 41
0.0
 71
     1
 72
     1
  1
D
  7
SLDTEXTSTYLE1
 73
     1
 44
1.0
  0
MTEXT
  5
A8
330
1F
100
AcDbEntity
  8
DIM
 62
     7
100
AcDbMText
 10
7.2282004912
 20
89.0549086465
 30
0.0
 40
2.0372916667
 41
0.0
 71
     1
 72
     1
  1
C
  7
SLDTEXTSTYLE1
 73
     1
 44
1.0
  0
MTEXT
  5
A9
330
1F
100
AcDbEntity
  8
DIM
 62
     7
100
AcDbMText
 10
7.2282004912
 20
144.0549086465
 30
0.0
 40
2.0372916667
 41
0.0
 71
     1
 72
     1
  1
B
  7
SLDTEXTSTYLE1
 73
     1
 44
1.0
  0
MTEXT
  5
AA
330
1F
100
AcDbEntity
  8
DIM
 62
     7
100
AcDbMText
 10
317.4567844303
 20
90.1346748591
 30
0.0
 40
2.0372916667
 41
0.0
 71
     1
 72
     1
  1
C
  7
SLDTEXTSTYLE1
 73
     1
 44
1.0
  0
MTEXT
  5
AC
330
1F
100
AcDbEntity
  8
DIM
 62
     7
100
AcDbMText
 10
282.1779023938
 20
8.4601866045
 30
0.0
 40
1.65
 41
0.0
 71
     1
 72
     1
  1
SHEET 1 OF 1
  7
SLDTEXTSTYLE2
 73
     1
 44
1.0
  0
MTEXT
  5
AD
330
1F
100
AcDbEntity
  8
DIM
 62
     7
100
AcDbMText
 10
165.4089584218
 20
8.638704232
 30
0.0
 40
1.65
 41
0.0
 71
     1
 72
     1
  1
MATERIAL:
  7
SLDTEXTSTYLE1
 73
     1
 44
1.0
  0
MTEXT
  5
AE
330
1F
100
AcDbEntity
  8
DIM
 62
     7
100
AcDbMText
 10
299.8282048912
 20
223.8049086465
 30
0.0
 40
2.0372916667
 41
0.0
 71
     1
 72
     1
  1
6
  7
SLDTEXTSTYLE1
 73
     1
 44
1.0
  0
MTEXT
  5
AF
330
1F
100
AcDbEntity
  8
DIM
 62
     7
100
AcDbMText
 10
244.8282048912
 20
223.8049086465
 30
0.0
 40
2.0372916667
 41
0.0
 71
     1
 72
     1
  1
5
  7
SLDTEXTSTYLE1
 73
     1
 44
1.0
  0
MTEXT
  5
B0
330
1F
100
AcDbEntity
  8
DIM
 62
     7
100
AcDbMText
 10
317.4282092912
 20
199.0549086465
 30
0.0
 40
2.0372916667
 41
0.0
 71
     1
 72
     1
  1
A
  7
SLDTEXTSTYLE1
 73
     1
 44
1.0
  0
MTEXT
  5
B1
330
1F
100
AcDbEntity
  8
DIM
 62
     7
100
AcDbMText
 10
317.4282092912
 20
144.0549086465
 30
0.0
 40
2.0372916667
 41
0.0
 71
     1
 72
     1
  1
B
  7
SLDTEXTSTYLE1
 73
     1
 44
1.0
  0
MTEXT
  5
B2
330
1F
100
AcDbEntity
  8
DIM
 62
     7
100
AcDbMText
 10
189.8282048912
 20
223.8049086465
 30
0.0
 40
2.0372916667
 41
0.0
 71
     1
 72
     1
  1
4
  7
SLDTEXTSTYLE1
 73
     1
 44
1.0
  0
MTEXT
  5
B3
330
1F
100
AcDbEntity
  8
DIM
 62
     7
100
AcDbMText
 10
25.2865382246
 20
223.8049086465
 30
0.0
 40
2.0372916667
 41
0.0
 71
     1
 72
     1
  1
1
  7
SLDTEXTSTYLE1
 73
     1
 44
1.0
  0
MTEXT
  5
B4
330
1F
100
AcDbEntity
  8
DIM
 62
     7
100
AcDbMText
 10
79.8282048912
 20
223.8049086465
 30
0.0
 40
2.0372916667
 41
0.0
 71
     1
 72
     1
  1
2
  7
SLDTEXTSTYLE1
 73
     1
 44
1.0
  0
MTEXT
  5
B5
330
1F
100
AcDbEntity
  8
DIM
 62
     7
100
AcDbMText
 10
134.8282048912
 20
223.8049086465
 30
0.0
 40
2.0372916667
 41
0.0
 71
     1
 72
     1
  1
3
  7
SLDTEXTSTYLE1
 73
     1
 44
1.0
  0
MTEXT
  5
B6
330
1F
100
AcDbEntity
  8
DIM
 62
     7
100
AcDbMText
 10
7.2282004912
 20
199.0549086465
 30
0.0
 40
2.0372916667
 41
0.0
 71
     1
 72
     1
  1
A
  7
SLDTEXTSTYLE1
 73
     1
 44
1.0
  0
MTEXT
  5
B7
330
1F
100
AcDbEntity
  8
DIM
 62
     7
100
AcDbMText
 10
79.8282048912
 20
9.3049086465
 30
0.0
 40
2.0372916667
 41
0.0
 71
     1
 72
     1
  1
2
  7
SLDTEXTSTYLE1
 73
     1
 44
1.0
  0
MTEXT
  5
B8
330
1F
100
AcDbEntity
  8
DIM
 62
     7
100
AcDbMText
 10
25.2865382246
 20
9.3049086465
 30
0.0
 40
2.0372916667
 41
0.0
 71
     1
 72
     1
  1
1
  7
SLDTEXTSTYLE1
 73
     1
 44
1.0
  0
MTEXT
  5
B9
330
1F
100
AcDbEntity
  8
DIM
 62
     7
100
AcDbMText
 10
7.2282004912
 20
34.0549086465
 30
0.0
 40
2.0372916667
 41
0.0
 71
     1
 72
     1
  1
D
  7
SLDTEXTSTYLE1
 73
     1
 44
1.0
  0
MTEXT
  5
BA
330
1F
100
AcDbEntity
  8
DIM
 62
     7
100
AcDbMText
 10
7.2282004912
 20
89.0549086465
 30
0.0
 40
2.0372916667
 41
0.0
 71
     1
 72
     1
  1
C
  7
SLDTEXTSTYLE1
 73
     1
 44
1.0
  0
MTEXT
  5
BB
330
1F
100
AcDbEntity
  8
DIM
 62
     7
100
AcDbMText
 10
7.2282004912
 20
144.0549086465
 30
0.0
 40
2.0372916667
 41
0.0
 71
     1
 72
     1
  1
B
  7
SLDTEXTSTYLE1
 73
     1
 44
1.0
  0
SPLINE
  5
BC
330
1F
100
AcDbEntity
  8
0
  6
Continuous
 62
     7
370
    15
100
AcDbSpline
210
0.0
220
0.0
230
1.0
 70
     8
 71
     3
 72
    14
 73
    10
 74
     0
 42
0.000000001
 43
0.00000001
 40
0.0
 40
0.0
 40
0.0
 40
0.0
 40
0.25
 40
0.25
 40
0.5
 40
0.5
 40
0.75
 40
0.75
 40
1.0
 40
1.0
 40
1.0
 40
1.0
 10
90.03556932270403
 20
117.2635093167833
 30
0.0
 10
90.03556932270403
 20
112.1657749400089
 30
0.0
 10
88.01034289663507
 20
107.2764458353168
 30
0.0
 10
80.8010578036251
 20
100.0671607423069
 30
0.0
 10
75.91172869893308
 20
98.04193431623794
 30
0.0
 10
65.71625994538418
 20
98.04193431623794
 30
0.0
 10
60.82693084069215
 20
100.0671607423069
 30
0.0
 10
53.61764574768218
 20
107.2764458353168
 30
0.0
 10
51.59241932161323
 20
112.1657749400089
 30
0.0
 10
51.59241932161321
 20
117.2635093167833
 30
0.0
  0
SPLINE
  5
BD
330
1F
100
AcDbEntity
  8
0
  6
Continuous
 62
     7
370
    15
100
AcDbSpline
210
0.0
220
0.0
230
1.0
 70
     8
 71
     3
 72
    14
 73
    10
 74
     0
 42
0.000000001
 43
0.00000001
 40
0.0
 40
0.0
 40
0.0
 40
0.0
 40
0.25
 40
0.25
 40
0.5
 40
0.5
 40
0.75
 40
0.75
 40
1.0
 40
1.0
 40
1.0
 40
1.0
 10
51.59241932161323
 20
117.2635093167833
 30
0.0
 10
51.59241932161323
 20
122.3612436935578
 30
0.0
 10
53.61764574768218
 20
127.2505727982498
 30
0.0
 10
60.82693084069215
 20
134.4598578912598
 30
0.0
 10
65.71625994538418
 20
136.4850843173287
 30
0.0
 10
75.91172869893306
 20
136.4850843173287
 30
0.0
 10
80.8010578036251
 20
134.4598578912598
 30
0.0
 10
88.01034289663507
 20
127.2505727982498
 30
0.0
 10
90.03556932270403
 20
122.3612436935578
 30
0.0
 10
90.03556932270403
 20
117.2635093167833
 30
0.0
  0
CIRCLE
  5
BE
330
1F
100
AcDbEntity
  8
0
  6
Continuous
 62
     7
370
    15
100
AcDbCircle
 10
70.8139943222
 20
117.2635093168
 30
0.0
 40
20.21110778703758
  0
CIRCLE
  5
BF
330
1F
100
AcDbEntity
  8
0
  6
Continuous
 62
     7
370
    15
100
AcDbCircle
 10
70.8139943222
 20
117.2635093168
 30
0.0
 40
34.92499999999999
  0
SPLINE
  5
C0
330
1F
100
AcDbEntity
  8
0
  6
Continuous
 62
     7
370
    15
100
AcDbSpline
210
0.0
220
0.0
230
1.0
 70
     8
 71
     3
 72
    52
 73
    48
 74
     0
 42
0.000000001
 43
0.00000001
 40
0.0
 40
0.0
 40
0.0
 40
0.0
 40
0.0053074994726554
 40
0.0106084744807156
 40
0.0159043870752884
 40
0.0211967035030982
 40
0.0264868930010475
 40
0.031776426578386
 40
0.0370667757915106
 40
0.0423594115164833
 40
0.0476558027243854
 40
0.0529574152645906
 40
0.0582657106609693
 40
0.0891348494758177
 40
0.1200087595578935
 40
0.1521645941108524
 40
0.1843252192282218
 40
0.2171652710885947
 40
0.2500102154523581
 40
0.2828502674523063
 40
0.3156952119562962
 40
0.3478510468948057
 40
0.380011672397905
 40
0.4108808109142898
 40
0.4417547207534483
 40
0.470875333637603
 40
0.5000007798720159
 40
0.5291213927975412
 40
0.5582468390472084
 40
0.5891159778617261
 40
0.6199898879441322
 40
0.652145722497098
 40
0.6843063476144644
 40
0.7171463994755694
 40
0.7499913438386044
 40
0.7828313958395676
 40
0.8156763403425417
 40
0.8478321752819549
 40
0.8799928007841501
 40
0.9108619393016738
 40
0.941735849139696
 40
0.9514609652020397
 40
0.9611682412334405
 40
0.9708667191333772
 40
0.9805654654081966
 40
0.9902735458123287
 40
1.0
 40
1.0
 40
1.0
 40
1.0
 10
35.81399432215862
 20
117.2635093167833
 30
0.0
 10
35.81492235306907
 20
117.4579714748363
 30
0.0
 10
35.81677727406938
 20
117.8466567402419
 30
0.0
 10
35.83180630842102
 20
118.4292197102635
 30
0.0
 10
35.8558049374554
 20
119.0109055976328
 30
0.0
 10
35.88964924153851
 20
119.59171429245
 30
0.0
 10
35.93310478327211
 20
120.1716456408692
 30
0.0
 10
35.98623434433816
 20
120.7506995612938
 30
0.0
 10
36.04902101406035
 20
121.3288757254305
 30
0.0
 10
36.12146960657692
 20
121.9061747227989
 30
0.0
 10
36.20357764406994
 20
122.4825937229464
 30
0.0
 10
36.2953500460636
 20
123.0581426845245
 30
0.0
 10
36.559489547697
 20
124.5547552880382
 30
0.0
 10
37.1232573006024
 20
126.9504621492063
 30
0.0
 10
38.23587448094112
 20
130.2113332552588
 30
0.0
 10
39.68304069648173
 20
133.3912221375525
 30
0.0
 10
41.48221632588844
 20
136.4697210693082
 30
0.0
 10
43.59863690144878
 20
139.3711809773451
 30
0.0
 10
46.02152209496391
 20
142.055727953339
 30
0.0
 10
48.70618257358237
 20
144.4787531282855
 30
0.0
 10
51.60748271314265
 20
146.5950923643625
 30
0.0
 10
54.68613581116966
 20
148.3943845564816
 30
0.0
 10
57.86579924517797
 20
149.8414926896889
 30
0.0
 10
61.1270355431843
 20
150.9542225066938
 30
0.0
 10
64.37277984191832
 20
151.71810999209
 30
0.0
 10
67.61164596007423
 20
152.1663879921004
 30
0.0
 10
70.8138173500041
 20
152.3120658569406
 30
0.0
 10
74.01616482065037
 20
152.1664044794921
 30
0.0
 10
77.25486308036426
 20
151.718174287031
 30
0.0
 10
80.50078368993732
 20
150.9542722279083
 30
0.0
 10
83.76186409049677
 20
149.8416218985496
 30
0.0
 10
86.94169465895186
 20
148.3944649234942
 30
0.0
 10
90.02020949916187
 20
146.5952867562651
 30
0.0
 10
92.92166505528844
 20
144.4788669394175
 30
0.0
 10
95.60621321329796
 20
142.0559812983072
 30
0.0
 10
98.02923804288072
 20
139.3713218458217
 30
0.0
 10
100.1455774770457
 20
136.4700180744688
 30
0.0
 10
101.9448692296838
 20
133.3913782118868
 30
0.0
 10
103.3919788990434
 20
130.211666266463
 30
0.0
 10
104.5047032227067
 20
126.9506040567877
 30
0.0
 10
105.1055491547495
 20
124.3971899714335
 30
0.0
 10
105.4134892342686
 20
122.5797702658318
 30
0.0
 10
105.5596283451912
 20
121.5223235276033
 30
0.0
 10
105.6734343724522
 20
120.4618862742285
 30
0.0
 10
105.7541296932588
 20
119.3984323000763
 30
0.0
 10
105.8046512286745
 20
118.3319719313419
 30
0.0
 10
105.8108779953622
 20
117.6198879276163
 30
0.0
 10
105.8139943221586
 20
117.2635093167833
 30
0.0
  0
SPLINE
  5
C1
330
1F
100
AcDbEntity
  8
0
  6
Continuous
 62
     7
370
    15
100
AcDbSpline
210
0.0
220
0.0
230
1.0
 70
     8
 71
     3
 72
    52
 73
    48
 74
     0
 42
0.000000001
 43
0.00000001
 40
0.0
 40
0.0
 40
0.0
 40
0.0
 40
0.0053074994726554
 40
0.0106084744807156
 40
0.0159043870752884
 40
0.0211967035030983
 40
0.0264868930010475
 40
0.0317764265783861
 40
0.0370667757915106
 40
0.0423594115164834
 40
0.0476558027243854
 40
0.0529574152645907
 40
0.0582657106609694
 40
0.0891348494759667
 40
0.1200087595578951
 40
0.1521645941111445
 40
0.1843252192282232
 40
0.2171652710889209
 40
0.25001021545236
 40
0.2828502674525652
 40
0.315695211956297
 40
0.3478510468951538
 40
0.3800116723979077
 40
0.41088081091547
 40
0.4417547207534571
 40
0.4708753336379863
 40
0.5000007798720127
 40
0.5291213927971703
 40
0.5582468390472111
 40
0.5891159778626601
 40
0.6199898879441411
 40
0.6521457224976949
 40
0.6843063476144631
 40
0.7171463994753853
 40
0.7499913438386053
 40
0.7828313958393156
 40
0.8156763403425399
 40
0.8478321752809374
 40
0.8799928007841432
 40
0.9108619393011222
 40
0.9417358491396983
 40
0.9514609652021586
 40
0.9611682412336295
 40
0.9708667191335897
 40
0.9805654654083855
 40
0.9902735458124469
 40
1.0
 40
1.0
 40
1.0
 40
1.0
 10
105.8139943221586
 20
117.2635093167833
 30
0.0
 10
105.8130662912482
 20
117.0690471587304
 30
0.0
 10
105.8112113702479
 20
116.6803618933247
 30
0.0
 10
105.7961823358962
 20
116.0977989233032
 30
0.0
 10
105.7721837068619
 20
115.5161130359338
 30
0.0
 10
105.7383394027787
 20
114.9353043411167
 30
0.0
 10
105.6948838610451
 20
114.3553729926975
 30
0.0
 10
105.6417542999791
 20
113.7763190722728
 30
0.0
 10
105.5789676302569
 20
113.1981429081362
 30
0.0
 10
105.5065190377403
 20
112.6208439107678
 30
0.0
 10
105.4244110002473
 20
112.0444249106203
 30
0.0
 10
105.3326385982537
 20
111.4688759490421
 30
0.0
 10
105.0684990966192
 20
109.9722633455231
 30
0.0
 10
104.5047313437161
 20
107.5765564843543
 30
0.0
 10
103.3921141633697
 20
104.3156853782931
 30
0.0
 10
101.9449479478307
 20
101.1357964960046
 30
0.0
 10
100.1457723184164
 20
98.05729756423969
 30
0.0
 10
98.02935174286141
 20
95.15583765621186
 30
0.0
 10
95.60646654933838
 20
92.4712906802125
 30
0.0
 10
92.92180607072633
 20
90.04826550527645
 30
0.0
 10
90.0205059311559
 20
87.93192626919252
 30
0.0
 10
86.94185283313811
 20
86.13263407707527
 30
0.0
 10
83.7621893990867
 20
84.68552594385919
 30
0.0
 10
80.50095310109431
 20
83.5727961268512
 30
0.0
 10
77.25520880234313
 20
82.80890864146374
 30
0.0
 10
74.01634268422688
 20
82.36063064148809
 30
0.0
 10
70.81417129431308
 20
82.21495277662419
 30
0.0
 10
67.61182382367919
 20
82.36061415406269
 30
0.0
 10
64.37312556393348
 20
82.80884434654254
 30
0.0
 10
61.12720495434414
 20
83.57274640565704
 30
0.0
 10
57.86612455376819
 20
84.68539673503716
 30
0.0
 10
54.68629398535403
 20
86.13255371009794
 30
0.0
 10
51.60777914514156
 20
87.9317318773076
 30
0.0
 10
48.70632358903274
 20
90.04815169414337
 30
0.0
 10
46.02177543103003
 20
92.47103733524769
 30
0.0
 10
43.59875060144667
 20
95.15569678774105
 30
0.0
 10
41.4824111672951
 20
98.05700055905787
 30
0.0
 10
39.68311941465841
 20
101.1356404216509
 30
0.0
 10
38.23600974529645
 20
104.3153523670508
 30
0.0
 10
37.12328542159973
 20
107.5764145767547
 30
0.0
 10
36.52243948956922
 20
110.1298286621173
 30
0.0
 10
36.214499410049
 20
111.9472483677462
 30
0.0
 10
36.06836029912639
 20
113.0046951059825
 30
0.0
 10
35.95455427186522
 20
114.0651323593599
 30
0.0
 10
35.87385895105858
 20
115.1285863335094
 30
0.0
 10
35.82333741564278
 20
116.195046702236
 30
0.0
 10
35.81711064895508
 20
116.9071307059547
 30
0.0
 10
35.81399432215862
 20
117.2635093167833
 30
0.0
  0
SPLINE
  5
C2
330
1F
100
AcDbEntity
  8
0
  6
Continuous
 62
     7
370
    15
100
AcDbSpline
210
0.0
220
0.0
230
1.0
 70
    24
 71
     3
 72
     8
 73
     4
 74
     0
 42
0.000000001
 43
0.00000001
 40
0.0
 40
0.0
 40
0.0
 40
0.0
 40
1.0
 40
1.0
 40
1.0
 40
1.0
 10
40.81399432215861
 20
154.5631708003504
 30
0.0
 10
40.81399432215861
 20
154.459661756116
 30
0.0
 10
40.81399432215862
 20
154.3302381942839
 30
0.0
 10
40.81399432215862
 20
154.199494393364
 30
0.0
  0
ARC
  5
C3
330
1F
100
AcDbEntity
  8
0
  6
Continuous
 62
     7
370
    15
100
AcDbCircle
 10
70.8139943222
 20
117.2635093168
 30
0.0
 40
47.58431457505078
100
AcDbArc
 50
129.0840578538
 51
140.9159421462
  0
SPLINE
  5
C4
330
1F
100
AcDbEntity
  8
0
  6
Continuous
 62
     7
370
    15
100
AcDbSpline
210
0.0
220
0.0
230
1.0
 70
    24
 71
     3
 72
     8
 73
     4
 74
     0
 42
0.000000001
 43
0.00000001
 40
0.0
 40
0.0
 40
0.0
 40
0.0
 40
1.0
 40
1.0
 40
1.0
 40
1.0
 10
33.87800924557796
 20
147.2635093167833
 30
0.0
 10
33.74730509597108
 20
147.2635093167833
 30
0.0
 10
33.61776812895491
 20
147.2635093167833
 30
0.0
 10
33.51433283859157
 20
147.2635093167833
 30
0.0
  0
ARC
  5
C5
330
1F
100
AcDbEntity
  8
0
  6
Continuous
 62
     7
370
    15
100
AcDbCircle
 10
70.8139943222
 20
117.2635093168
 30
0.0
 40
47.86715728752539
100
AcDbArc
 50
128.8096103904
 51
141.1903896096
  0
SPLINE
  5
C6
330
1F
100
AcDbEntity
  8
0
  6
Continuous
 62
     7
370
    15
100
AcDbSpline
210
0.0
220
0.0
230
1.0
 70
     8
 71
     3
 72
    10
 73
     6
 74
     0
 42
0.000000001
 43
0.00000001
 40
0.0
 40
0.0
 40
0.0
 40
0.0
 40
0.5
 40
0.5
 40
1.0
 40
1.0
 40
1.0
 40
1.0
 10
116.4282957371468
 20
130.8135093167833
 30
0.0
 10
116.4922474259899
 20
130.8135093167833
 30
0.0
 10
116.553811764441
 20
130.7996634407585
 30
0.0
 10
116.66443711529
 20
130.7574976645711
 30
0.0
 10
116.7141238069595
 20
130.7290069643081
 30
0.0
 10
116.7576933836253
 20
130.696352029258
 30
0.0
  0
ARC
  5
C7
330
1F
100
AcDbEntity
  8
0
  6
Continuous
 62
     7
370
    15
100
AcDbCircle
 10
70.8139943222
 20
117.2635093168
 30
0.0
 40
47.86715728752539
100
AcDbArc
 50
343.7023380383
 51
16.2976619617
  0
SPLINE
  5
C8
330
1F
100
AcDbEntity
  8
0
  6
Continuous
 62
     7
370
    15
100
AcDbSpline
210
0.0
220
0.0
230
1.0
 70
     8
 71
     3
 72
    10
 73
     6
 74
     0
 42
0.000000001
 43
0.00000001
 40
0.0
 40
0.0
 40
0.0
 40
0.0
 40
0.5
 40
0.5
 40
1.0
 40
1.0
 40
1.0
 40
1.0
 10
116.7576933836253
 20
103.8306666043087
 30
0.0
 10
116.7141529922066
 20
103.7980335432914
 30
0.0
 10
116.6655983880888
 20
103.7700526570252
 30
0.0
 10
116.5541488523269
 20
103.7273958066502
 30
0.0
 10
116.4921905997378
 20
103.7135093167834
 30
0.0
 10
116.4282957371468
 20
103.7135093167834
 30
0.0
  0
ARC
  5
C9
330
1F
100
AcDbEntity
  8
0
  6
Continuous
 62
     7
370
    15
100
AcDbCircle
 10
70.8139943222
 20
117.2635093168
 30
0.0
 40
47.58431457505078
100
AcDbArc
 50
343.4556342686
 51
16.5443657314
  0
ARC
  5
CA
330
1F
100
AcDbEntity
  8
0
  6
Continuous
 62
     7
370
    15
100
AcDbCircle
 10
70.8139943222
 20
117.2635093168
 30
0.0
 40
47.58431457505076
100
AcDbArc
 50
163.4556342686
 51
196.5443657314
  0
SPLINE
  5
CB
330
1F
100
AcDbEntity
  8
0
  6
Continuous
 62
     7
370
    15
100
AcDbSpline
210
0.0
220
0.0
230
1.0
 70
     8
 71
     3
 72
    10
 73
     6
 74
     0
 42
0.000000001
 43
0.00000001
 40
0.0
 40
0.0
 40
0.0
 40
0.0
 40
0.5
 40
0.5
 40
1.0
 40
1.0
 40
1.0
 40
1.0
 10
25.19969290717046
 20
103.7135093167834
 30
0.0
 10
25.13574121832732
 20
103.7135093167834
 30
0.0
 10
25.07417687987622
 20
103.7273551928082
 30
0.0
 10
24.96355152902719
 20
103.7695209689956
 30
0.0
 10
24.91386483735777
 20
103.7980116692587
 30
0.0
 10
24.87029526069195
 20
103.8306666043087
 30
0.0
  0
ARC
  5
CC
330
1F
100
AcDbEntity
  8
0
  6
Continuous
 62
     7
370
    15
100
AcDbCircle
 10
70.8139943222
 20
117.2635093168
 30
0.0
 40
47.86715728752539
100
AcDbArc
 50
163.7023380383
 51
196.2976619617
  0
SPLINE
  5
CD
330
1F
100
AcDbEntity
  8
0
  6
Continuous
 62
     7
370
    15
100
AcDbSpline
210
0.0
220
0.0
230
1.0
 70
     8
 71
     3
 72
    10
 73
     6
 74
     0
 42
0.000000001
 43
0.00000001
 40
0.0
 40
0.0
 40
0.0
 40
0.0
 40
0.5
 40
0.5
 40
1.0
 40
1.0
 40
1.0
 40
1.0
 10
25.19969290717048
 20
130.8135093167833
 30
0.0
 10
25.13574121832736
 20
130.8135093167833
 30
0.0
 10
25.0741768798762
 20
130.7996634407585
 30
0.0
 10
24.96355152902721
 20
130.7574976645711
 30
0.0
 10
24.91386483735777
 20
130.7290069643081
 30
0.0
 10
24.87029526069195
 20
130.696352029258
 30
0.0
  0
SPLINE
  5
CE
330
1F
100
AcDbEntity
  8
0
  6
Continuous
 62
     7
370
    15
100
AcDbSpline
210
0.0
220
0.0
230
1.0
 70
     8
 71
     3
 72
    40
 73
    36
 74
     0
 42
0.000000001
 43
0.00000001
 40
0.0
 40
0.0
 40
0.0
 40
0.0
 40
0.0076138096090706
 40
0.015222703696619
 40
0.0228283796622113
 40
0.0304325370604607
 40
0.0380368764641707
 40
0.0456430983240686
 40
0.0532529018289472
 40
0.0608679837700325
 40
0.0919930035882894
 40
0.1231236538966525
 40
0.1547321881285151
 40
0.1863461940165317
 40
0.2182020912711853
 40
0.2500635030030784
 40
0.3137495787501998
 40
0.3769416086590435
 40
0.439168148565131
 40
0.5000004350472922
 40
0.5608327215294534
 40
0.6230592614355407
 40
0.6862512913443847
 40
0.7499373670915059
 40
0.7817932643700992
 40
0.813654676120411
 40
0.8452632104154371
 40
0.8768772163635395
 40
0.9080022357785864
 40
0.9391328857746177
 40
0.9513123423166135
 40
0.963481817855821
 40
0.9756482751522532
 40
0.9878186821461872
 40
1.0
 40
1.0
 40
1.0
 40
1.0
 10
116.4282957371468
 20
130.8135093167833
 30
0.0
 10
116.3597963263145
 20
131.040522074506
 30
0.0
 10
116.2228417282838
 20
131.4944010291422
 30
0.0
 10
116.0046116391467
 20
132.1710682503125
 30
0.0
 10
115.7771160177512
 20
132.8443389508794
 30
0.0
 10
115.5394310535831
 20
133.5139384816696
 30
0.0
 10
115.2918039075413
 20
134.17994062202
 30
0.0
 10
115.0341694774898
 20
134.8423241570388
 30
0.0
 10
114.7665412971422
 20
135.5010995920517
 30
0.0
 10
114.2033486471523
 20
136.830203327292
 30
0.0
 10
113.2783299749865
 20
138.8015040987019
 30
0.0
 10
111.8759172625358
 20
141.3683491781163
 30
0.0
 10
110.3103776544275
 20
143.8572990045236
 30
0.0
 10
108.579866199174
 20
146.2623284166191
 30
0.0
 10
106.6982117620093
 20
148.5614387743585
 30
0.0
 10
103.9963819949113
 20
151.4700326483096
 30
0.0
 10
100.2970182573923
 20
154.7706114947685
 30
0.0
 10
95.43674135225343
 20
158.1226608123426
 30
0.0
 10
90.28045365139889
 20
160.8109716013193
 30
0.0
 10
84.90728983588782
 20
162.8316002685921
 30
0.0
 10
79.33155316262115
 20
164.1972466698879
 30
0.0
 10
73.55787961548609
 20
164.8893534004395
 30
0.0
 10
67.65381296081279
 20
164.8664994677145
 30
0.0
 10
62.7371852353974
 20
164.2307484556647
 30
0.0
 10
58.8650394434501
 20
163.3553734294247
 30
0.0
 10
56.01411199195041
 20
162.520067644102
 30
0.0
 10
53.2278141738497
 20
161.5119016534167
 30
0.0
 10
50.53062874390826
 20
160.3414612589048
 30
0.0
 10
47.92378601241992
 20
159.0144759461311
 30
0.0
 10
45.92481408671389
 20
157.8374559185826
 30
0.0
 10
44.47434985282889
 20
156.8983822329306
 30
0.0
 10
43.53461759481569
 20
156.2577404295811
 30
0.0
 10
42.61105551831918
 20
155.5945586882863
 30
0.0
 10
41.7020990342269
 20
154.9107435003912
 30
0.0
 10
41.1101176391664
 20
154.4366482356189
 30
0.0
 10
40.81399432215863
 20
154.199494393364
 30
0.0
  0
SPLINE
  5
CF
330
1F
100
AcDbEntity
  8
0
  6
Continuous
 62
     7
370
    15
100
AcDbSpline
210
0.0
220
0.0
230
1.0
 70
     8
 71
     3
 72
    48
 73
    44
 74
     0
 42
0.000000001
 43
0.00000001
 40
0.0
 40
0.0
 40
0.0
 40
0.0
 40
0.0054347037865788
 40
0.0108647463477061
 40
0.0162911759166432
 40
0.0217150428214259
 40
0.0271373988792792
 40
0.0325592967867153
 40
0.037981789507076
 40
0.0434059296572976
 40
0.0488327688956858
 40
0.0542633573124739
 40
0.0596987428249262
 40
0.0907177253989547
 40
0.1217409090757452
 40
0.1535986684460869
 40
0.1854607425290368
 40
0.2177550902636995
 40
0.2500538118399324
 40
0.282348159626834
 40
0.314646881254197
 40
0.3465046407741307
 40
0.3783667150011463
 40
0.4403596830876957
 40
0.5000005600694934
 40
0.5596414370512913
 40
0.6216344051378407
 40
0.6534921645077113
 40
0.6853542385911362
 40
0.717648586324291
 40
0.7499473079020208
 40
0.7822416556861282
 40
0.8145403773162874
 40
0.8463981368338116
 40
0.8782602110632376
 40
0.9092791938587534
 40
0.9403023777537924
 40
0.9502622131366215
 40
0.9602093142095486
 40
0.9701501568332104
 40
0.9800912290989782
 40
0.990039018648895
 40
1.0
 40
1.0
 40
1.0
 40
1.0
 10
25.19969290717048
 20
103.7135093167834
 30
0.0
 10
25.26345340425368
 20
103.5019699803731
 30
0.0
 10
25.39091971244939
 20
103.0790727401709
 30
0.0
 10
25.5931832434596
 20
102.4483984979855
 30
0.0
 10
25.80342781195072
 20
101.8208210183346
 30
0.0
 10
26.02245327668877
 20
101.1965779669028
 30
0.0
 10
26.25004548001486
 20
100.5756058191186
 30
0.0
 10
26.48626176749449
 20
99.95792164506865
 30
0.0
 10
26.73108665035087
 20
99.34352107821985
 30
0.0
 10
26.98452459526335
 20
98.73240493849237
 30
0.0
 10
27.24657303826795
 20
98.12457472237399
 30
0.0
 10
27.51723756582011
 20
97.52002401523785
 30
0.0
 10
28.23451680615039
 20
95.9757254200903
 30
0.0
 10
29.50603033329853
 20
93.54128295104299
 30
0.0
 10
31.53979548362039
 20
90.30633729199344
 30
0.0
 10
33.84701854556782
 20
87.21685829440163
 30
0.0
 10
36.43398421142869
 20
84.28826848175216
 30
0.0
 10
39.26471363173236
 20
81.56836455731346
 30
0.0
 10
42.32537921991185
 20
79.08210264760828
 30
0.0
 10
45.58040808323481
 20
76.85601147027278
 30
0.0
 10
48.99355147799572
 20
74.91705101414132
 30
0.0
 10
52.53794550469711
 20
73.2710547578064
 30
0.0
 10
57.33818030666859
 20
71.5035688305107
 30
0.0
 10
63.43810260114666
 20
70.05820742387041
 30
0.0
 10
70.81399436400159
 20
69.4933529571879
 30
0.0
 10
78.18988587249811
 20
70.05820749357454
 30
0.0
 10
84.28963735781878
 20
71.50352796820034
 30
0.0
 10
89.08987977210423
 20
73.27098770286607
 30
0.0
 10
92.63412339175336
 20
74.91688919329486
 30
0.0
 10
96.04742852915497
 20
76.85591687630502
 30
0.0
 10
99.30232451816998
 20
79.08189007391444
 30
0.0
 10
102.3631411584269
 20
81.56824582835976
 30
0.0
 10
105.1937595058754
 20
84.28801349457162
 30
0.0
 10
107.7808609890173
 20
87.2167218663868
 30
0.0
 10
110.0879911434118
 20
90.306047856658
 30
0.0
 10
112.1218954348223
 20
93.54114890719264
 30
0.0
 10
113.4785995487954
 20
96.1387607763803
 30
0.0
 10
114.3400335437566
 20
98.02164820638396
 30
0.0
 10
114.8165803374075
 20
99.13770318077957
 30
0.0
 10
115.2643268667819
 20
100.2647973157889
 30
0.0
 10
115.6825660075295
 20
101.4031622394591
 30
0.0
 10
116.0739792118539
 20
102.5519937207753
 30
0.0
 10
116.3101380681096
 20
103.32616645926
 30
0.0
 10
116.4282957371468
 20
103.7135093167833
 30
0.0
  0
SPLINE
  5
D0
330
1F
100
AcDbEntity
  8
0
  6
Continuous
 62
     7
370
    15
100
AcDbSpline
210
0.0
220
0.0
230
1.0
 70
     8
 71
     3
 72
    27
 73
    23
 74
     0
 42
0.000000001
 43
0.00000001
 40
0.0
 40
0.0
 40
0.0
 40
0.0
 40
0.0385569892848211
 40
0.0770658329194701
 40
0.1155353026399639
 40
0.1539741971376514
 40
0.1923913361118491
 40
0.2307955542506346
 40
0.2691956951601454
 40
0.3076006052631416
 40
0.3460191276878565
 40
0.3844600961682111
 40
0.4229323289763935
 40
0.461444622908547
 40
0.5000057473438686
 40
0.5715713334491092
 40
0.6429967682524639
 40
0.7143384572505677
 40
0.7856530046539444
 40
0.8569970792753662
 40
0.9284272796518032
 40
1.0
 40
1.0
 40
1.0
 40
1.0
 10
33.87800924557796
 20
147.2635093167833
 30
0.0
 10
33.72713990974803
 20
147.0761041326114
 30
0.0
 10
33.42558962681868
 20
146.7015277748739
 30
0.0
 10
32.98430394731292
 20
146.1314170814563
 30
0.0
 10
32.55151682602743
 20
145.555775246085
 30
0.0
 10
32.12799280986518
 20
144.9739814105442
 30
0.0
 10
31.71352743160559
 20
144.3862017998653
 30
0.0
 10
31.30817551378645
 20
143.7923920307845
 30
0.0
 10
30.91192246639697
 20
143.1925641043468
 30
0.0
 10
30.52477227679913
 20
142.5867149171476
 30
0.0
 10
30.14672395704608
 20
141.9748454595756
 30
0.0
 10
29.77777781336257
 20
141.3569554678662
 30
0.0
 10
29.4179339136053
 20
140.7330456204598
 30
0.0
 10
29.06719194555774
 20
140.1031140941614
 30
0.0
 10
28.62826118762609
 20
139.286062945179
 30
0.0
 10
28.11361996250041
 20
138.2767073524221
 30
0.0
 10
27.53972874424694
 20
137.0685439514104
 30
0.0
 10
27.00075146095793
 20
135.8461192725325
 30
0.0
 10
26.49645988994019
 20
134.6095098445092
 30
0.0
 10
26.02772358093545
 20
133.3584584028389
 30
0.0
 10
25.59129368837962
 20
132.0939328606354
 30
0.0
 10
25.33031320060865
 20
131.2406006481813
 30
0.0
 10
25.19969290717049
 20
130.8135093167833
 30
0.0
  0
ARC
  5
D1
330
1F
100
AcDbEntity
  8
0
  6
Continuous
 62
     7
370
    15
100
AcDbCircle
 10
70.8139943222
 20
117.2635093168
 30
0.0
 40
47.86715728752539
100
AcDbArc
 50
196.2976619617
 51
343.7023380383
  0
ARC
  5
D2
330
1F
100
AcDbEntity
  8
0
  6
Continuous
 62
     7
370
    15
100
AcDbCircle
 10
70.8139943222
 20
117.2635093168
 30
0.0
 40
47.86715728752539
100
AcDbArc
 50
16.2976619617
 51
128.8096103904
  0
ARC
  5
D3
330
1F
100
AcDbEntity
  8
0
  6
Continuous
 62
     7
370
    15
100
AcDbCircle
 10
70.8139943222
 20
117.2635093168
 30
0.0
 40
47.86715728752539
100
AcDbArc
 50
141.1903896096
 51
163.7023380383
  0
ARC
  5
D4
330
1F
100
AcDbEntity
  8
0
  6
Continuous
 62
     7
370
    15
100
AcDbCircle
 10
70.8139943222
 20
117.2635093168
 30
0.0
 40
48.63284271247463
100
AcDbArc
 50
141.9122882504
 51
164.0342140175
  0
ARC
  5
D5
330
1F
100
AcDbEntity
  8
0
  6
Continuous
 62
     7
370
    15
100
AcDbCircle
 10
70.8139943222
 20
117.2635093168
 30
0.0
 40
48.63284271247463
100
AcDbArc
 50
128.0877117496
 51
141.9122882504
  0
ARC
  5
D6
330
1F
100
AcDbEntity
  8
0
  6
Continuous
 62
     7
370
    15
100
AcDbCircle
 10
70.8139943222
 20
117.2635093168
 30
0.0
 40
48.63284271247463
100
AcDbArc
 50
15.8741097166
 51
128.0877117496
  0
ARC
  5
D7
330
1F
100
AcDbEntity
  8
0
  6
Continuous
 62
     7
370
    15
100
AcDbCircle
 10
70.8139943222
 20
117.2635093168
 30
0.0
 40
48.63284271247463
100
AcDbArc
 50
344.1258902834
 51
15.8741097166
  0
ARC
  5
D8
330
1F
100
AcDbEntity
  8
0
  6
Continuous
 62
     7
370
    15
100
AcDbCircle
 10
70.8139943222
 20
117.2635093168
 30
0.0
 40
48.63284271247463
100
AcDbArc
 50
195.9657859825
 51
344.1258902834
  0
ARC
  5
D9
330
1F
100
AcDbEntity
  8
0
  6
Continuous
 62
     7
370
    15
100
AcDbCircle
 10
70.8139943222
 20
117.2635093168
 30
0.0
 40
48.63284271247462
100
AcDbArc
 50
164.0342140175
 51
195.9657859825
  0
SPLINE
  5
DA
330
1F
100
AcDbEntity
  8
0
  6
Continuous
 62
     7
370
    15
100
AcDbSpline
210
0.0
220
0.0
230
1.0
 70
    24
 71
     3
 72
     8
 73
     4
 74
     0
 42
0.000000001
 43
0.00000001
 40
0.0
 40
0.0
 40
0.0
 40
0.0
 40
1.0
 40
1.0
 40
1.0
 40
1.0
 10
40.81399432215863
 20
155.6895746891318
 30
0.0
 10
40.81399432215863
 20
155.6895746891318
 30
0.0
 10
40.81399432215862
 20
155.6280591407004
 30
0.0
 10
40.81399432215862
 20
155.5408314579193
 30
0.0
  0
SPLINE
  5
DB
330
1F
100
AcDbEntity
  8
0
  6
Continuous
 62
     7
370
    15
100
AcDbSpline
210
0.0
220
0.0
230
1.0
 70
    24
 71
     3
 72
     8
 73
     4
 74
     0
 42
0.000000001
 43
0.00000001
 40
0.0
 40
0.0
 40
0.0
 40
0.0
 40
1.0
 40
1.0
 40
1.0
 40
1.0
 10
32.53667218102268
 20
147.2635093167833
 30
0.0
 10
32.44939776480859
 20
147.2635093167833
 30
0.0
 10
32.38792894981011
 20
147.2635093167833
 30
0.0
 10
32.3879289498101
 20
147.2635093167833
 30
0.0
  0
ARC
  5
DC
330
1F
100
AcDbEntity
  8
0
  6
Continuous
 62
     7
370
    15
100
AcDbCircle
 10
70.8139943222
 20
117.2635093168
 30
0.0
 40
48.75000000000001
100
AcDbArc
 50
127.9798724449
 51
142.0201275551
  0
SPLINE
  5
DD
330
1F
100
AcDbEntity
  8
0
  6
Continuous
 62
     7
370
    15
100
AcDbSpline
210
0.0
220
0.0
230
1.0
 70
    24
 71
     3
 72
    10
 73
     6
 74
     0
 42
0.000000001
 43
0.00000001
 40
0.0
 40
0.0
 40
0.0
 40
0.0
 40
0.5
 40
0.5
 40
1.0
 40
1.0
 40
1.0
 40
1.0
 10
24.05710901773424
 20
103.8863995046752
 30
0.0
 10
24.03416749749712
 20
103.8462061724119
 30
0.0
 10
24.01404640727755
 20
103.8109542075753
 30
0.0
 10
23.98477713322103
 20
103.7596747088717
 30
0.0
 10
23.97603053570723
 20
103.744350750546
 30
0.0
 10
23.97603053570723
 20
103.744350750546
 30
0.0
  0
ARC
  5
DE
330
1F
100
AcDbEntity
  8
0
  6
Continuous
 62
     7
370
    15
100
AcDbCircle
 10
70.8139943222
 20
117.2635093168
 30
0.0
 40
48.75
100
AcDbArc
 50
163.8999153276
 51
196.1000846724
  0
SPLINE
  5
DF
330
1F
100
AcDbEntity
  8
0
  6
Continuous
 62
     7
370
    15
100
AcDbSpline
210
0.0
220
0.0
230
1.0
 70
    24
 71
     3
 72
    10
 73
     6
 74
     0
 42
0.000000001
 43
0.00000001
 40
0.0
 40
0.0
 40
0.0
 40
0.0
 40
0.5
 40
0.5
 40
1.0
 40
1.0
 40
1.0
 40
1.0
 10
24.05710901773424
 20
130.6406191288914
 30
0.0
 10
24.03416749749712
 20
130.6808124611547
 30
0.0
 10
24.01404640727755
 20
130.7160644259913
 30
0.0
 10
23.984777133221
 20
130.767343924695
 30
0.0
 10
23.97603053570723
 20
130.7826678830207
 30
0.0
 10
23.97603053570723
 20
130.7826678830207
 30
0.0
  0
SPLINE
  5
E0
330
1F
100
AcDbEntity
  8
0
  6
Continuous
 62
     7
370
    15
100
AcDbSpline
210
0.0
220
0.0
230
1.0
 70
    24
 71
     3
 72
     8
 73
     4
 74
     0
 42
0.000000001
 43
0.00000001
 40
0.0
 40
0.0
 40
0.0
 40
0.0
 40
1.0
 40
1.0
 40
1.0
 40
1.0
 10
117.6870227763673
 20
130.660587488196
 30
0.0
 10
117.6870227763673
 20
130.660587488196
 30
0.0
 10
117.6499261833011
 20
130.6234908951298
 30
0.0
 10
117.5922238452041
 20
130.5657885570328
 30
0.0
  0
ARC
  5
E1
330
1F
100
AcDbEntity
  8
0
  6
Continuous
 62
     7
370
    15
100
AcDbCircle
 10
70.8139943222
 20
117.2635093168
 30
0.0
 40
48.75000000000001
100
AcDbArc
 50
344.0491974398
 51
15.9508025602
  0
SPLINE
  5
E2
330
1F
100
AcDbEntity
  8
0
  6
Continuous
 62
     7
370
    15
100
AcDbSpline
210
0.0
220
0.0
230
1.0
 70
    24
 71
     3
 72
     8
 73
     4
 74
     0
 42
0.000000001
 43
0.00000001
 40
0.0
 40
0.0
 40
0.0
 40
0.0
 40
1.0
 40
1.0
 40
1.0
 40
1.0
 10
117.6870227763673
 20
103.8664311453706
 30
0.0
 10
117.6870227763673
 20
103.8664311453706
 30
0.0
 10
117.6499261833011
 20
103.9035277384368
 30
0.0
 10
117.5922238452041
 20
103.9612300765338
 30
0.0
  0
ARC
  5
E3
330
1F
100
AcDbEntity
  8
0
  6
Continuous
 62
     7
370
    15
100
AcDbCircle
 10
70.8139943222
 20
117.2635093168
 30
0.0
 40
48.75000000000001
100
AcDbArc
 50
142.0201275551
 51
163.8999153276
  0
ARC
  5
E4
330
1F
100
AcDbEntity
  8
0
  6
Continuous
 62
     7
370
    15
100
AcDbCircle
 10
70.8139943222
 20
117.2635093168
 30
0.0
 40
48.75000000000001
100
AcDbArc
 50
15.9508025602
 51
127.9798724449
  0
ARC
  5
E5
330
1F
100
AcDbEntity
  8
0
  6
Continuous
 62
     7
370
    15
100
AcDbCircle
 10
70.8139943222
 20
117.2635093168
 30
0.0
 40
48.75000000000001
100
AcDbArc
 50
196.1000846724
 51
344.0491974398
  0
ARC
  5
E6
330
1F
100
AcDbEntity
  8
0
  6
Continuous
 62
     7
370
    15
100
AcDbCircle
 10
70.8139943222
 20
117.2635093168
 30
0.0
 40
48.75
100
AcDbArc
 50
180.0
 51
196.1000846724
  0
ARC
  5
E7
330
1F
100
AcDbEntity
  8
0
  6
Continuous
 62
     7
370
    15
100
AcDbCircle
 10
70.8139943222
 20
117.2635093168
 30
0.0
 40
48.75
100
AcDbArc
 50
163.8999153276
 51
180.0
  0
INSERT
  5
F3
330
1F
100
AcDbEntity
  8
DIM
100
AcDbBlockReference
  2
SW_CENTERMARKSYMBOL_0
 10
70.8139943222
 20
117.2635093168
 30
0.0
  0
LINE
  5
F4
330
1F
100
AcDbEntity
  8
0
  6
Continuous
 62
     7
370
    15
100
AcDbLine
 10
252.7105626998
 20
68.5135093168
 30
0.0
 11
256.2972820107
 21
68.5135093168
 31
0.0
  0
LINE
  5
F5
330
1F
100
AcDbEntity
  8
0
  6
Continuous
 62
     7
370
    15
100
AcDbLine
 10
256.2972820107
 20
166.0135093168
 30
0.0
 11
252.7105626998
 21
166.0135093168
 31
0.0
  0
LINE
  5
F6
330
1F
100
AcDbEntity
  8
0
  6
Continuous
 62
     7
370
    15
100
AcDbLine
 10
252.7105626998
 20
166.0135093168
 30
0.0
 11
251.3629674356
 21
163.6794058512
 31
0.0
  0
LINE
  5
F7
330
1F
100
AcDbEntity
  8
0
  6
Continuous
 62
     7
370
    15
100
AcDbLine
 10
251.3629674356
 20
70.8476127824
 30
0.0
 11
252.7105626998
 21
68.5135093168
 31
0.0
  0
LINE
  5
F8
330
1F
100
AcDbEntity
  8
0
  6
Continuous
 62
     7
370
    15
100
AcDbLine
 10
246.2153721714
 20
68.5135093168
 30
0.0
 11
247.5629674356
 21
70.8476127824
 31
0.0
  0
LINE
  5
F9
330
1F
100
AcDbEntity
  8
0
  6
Continuous
 62
     7
370
    15
100
AcDbLine
 10
247.5629674356
 20
163.6794058512
 30
0.0
 11
246.2153721714
 21
166.0135093168
 31
0.0
  0
LINE
  5
FA
330
1F
100
AcDbEntity
  8
0
  6
Continuous
 62
     7
370
    15
100
AcDbLine
 10
242.7286528606
 20
68.5135093168
 30
0.0
 11
246.2153721714
 21
68.5135093168
 31
0.0
  0
LINE
  5
FB
330
1F
100
AcDbEntity
  8
0
  6
Continuous
 62
     7
370
    15
100
AcDbLine
 10
246.2153721714
 20
166.0135093168
 30
0.0
 11
242.7286528606
 21
166.0135093168
 31
0.0
  0
LINE
  5
FC
330
1F
100
AcDbEntity
  8
0
  6
Continuous
 62
     7
370
    15
100
AcDbLine
 10
256.5801247231
 20
68.6306666043
 30
0.0
 11
257.3458101481
 21
69.3963520293
 31
0.0
  0
LINE
  5
FD
330
1F
100
AcDbEntity
  8
0
  6
Continuous
 62
     7
370
    15
100
AcDbLine
 10
257.3458101481
 20
165.1306666043
 30
0.0
 11
256.5801247231
 21
165.8963520293
 31
0.0
  0
LINE
  5
FE
330
1F
100
AcDbEntity
  8
0
  6
Continuous
 62
     7
370
    15
100
AcDbLine
 10
242.4458101481
 20
165.8963520293
 30
0.0
 11
241.6801247231
 21
165.1306666043
 31
0.0
  0
LINE
  5
FF
330
1F
100
AcDbEntity
  8
0
  6
Continuous
 62
     7
370
    15
100
AcDbLine
 10
241.6801247231
 20
69.3963520293
 30
0.0
 11
242.4458101481
 21
68.6306666043
 31
0.0
  0
ARC
  5
100
330
1F
100
AcDbEntity
  8
0
  6
Continuous
 62
     7
370
    15
100
AcDbCircle
 10
256.2972820107
 20
68.9135093168
 30
0.0
 40
0.4000000000000093
100
AcDbArc
 50
270.0
 51
315.0
  0
ARC
  5
101
330
1F
100
AcDbEntity
  8
0
  6
Continuous
 62
     7
370
    15
100
AcDbCircle
 10
242.7286528606
 20
68.9135093168
 30
0.0
 40
0.4000000000000093
100
AcDbArc
 50
225.0
 51
270.0
  0
ARC
  5
102
330
1F
100
AcDbEntity
  8
0
  6
Continuous
 62
     7
370
    15
100
AcDbCircle
 10
256.2972820107
 20
165.6135093168
 30
0.0
 40
0.4000000000000193
100
AcDbArc
 50
45.0
 51
90.0
  0
ARC
  5
103
330
1F
100
AcDbEntity
  8
0
  6
Continuous
 62
     7
370
    15
100
AcDbCircle
 10
242.7286528606
 20
165.6135093168
 30
0.0
 40
0.4000000000000193
100
AcDbArc
 50
90.0
 51
135.0
  0
ARC
  5
104
330
1F
100
AcDbEntity
  8
0
  6
Continuous
 62
     7
370
    15
100
AcDbCircle
 10
257.0629674356
 20
69.6791947417
 30
0.0
 40
0.4000000000000341
100
AcDbArc
 50
315.0
 51
0.0
  0
ARC
  5
105
330
1F
100
AcDbEntity
  8
0
  6
Continuous
 62
     7
370
    15
100
AcDbCircle
 10
257.0629674356
 20
164.8478238918
 30
0.0
 40
0.4000000000000341
100
AcDbArc
 50
0.0
 51
45.0
  0
ARC
  5
106
330
1F
100
AcDbEntity
  8
0
  6
Continuous
 62
     7
370
    15
100
AcDbCircle
 10
241.9629674356
 20
69.6791947417
 30
0.0
 40
0.4000000000000093
100
AcDbArc
 50
180.0
 51
225.0
  0
ARC
  5
107
330
1F
100
AcDbEntity
  8
0
  6
Continuous
 62
     7
370
    15
100
AcDbCircle
 10
241.9629674356
 20
164.8478238918
 30
0.0
 40
0.4000000000000057
100
AcDbArc
 50
135.0
 51
180.0
  0
LINE
  5
108
330
1F
100
AcDbEntity
  8
0
  6
Continuous
 62
     7
370
    15
100
AcDbLine
 10
247.5629674356
 20
71.7635093168
 30
0.0
 11
251.3629674356
 21
71.7635093168
 31
0.0
  0
LINE
  5
109
330
1F
100
AcDbEntity
  8
0
  6
Continuous
 62
     7
370
    15
100
AcDbLine
 10
251.3629674356
 20
162.7635093168
 30
0.0
 11
247.5629674356
 21
162.7635093168
 31
0.0
  0
ARC
  5
10A
330
1F
100
AcDbEntity
  8
0
  6
Continuous
 62
     7
370
    15
100
AcDbCircle
 10
241.0629674356
 20
82.2635093168
 30
0.0
 40
0.5000000000000142
100
AcDbArc
 50
0.0
 51
90.0
  0
ARC
  5
10B
330
1F
100
AcDbEntity
  8
0
  6
Continuous
 62
     7
370
    15
100
AcDbCircle
 10
241.0629674356
 20
152.2635093168
 30
0.0
 40
0.5
100
AcDbArc
 50
270.0
 51
0.0
  0
LINE
  5
10C
330
1F
100
AcDbEntity
  8
0
  6
Continuous
 62
     7
370
    15
100
AcDbLine
 10
238.3629674356
 20
152.1885093168
 30
0.0
 11
137.4686592084
 21
137.4746171038
 31
0.0
  0
LINE
  5
10D
330
1F
100
AcDbEntity
  8
0
  6
Continuous
 62
     7
370
    15
100
AcDbLine
 10
137.4686592084
 20
97.0524015297
 30
0.0
 11
238.3629674356
 21
82.3385093168
 31
0.0
  0
LINE
  5
10E
330
1F
100
AcDbEntity
  8
0
  6
Continuous
 62
     7
370
    15
100
AcDbLine
 10
238.3629674356
 20
82.3385093168
 30
0.0
 11
239.2743828768
 21
82.7635093168
 31
0.0
  0
LINE
  5
10F
330
1F
100
AcDbEntity
  8
0
  6
Continuous
 62
     7
370
    15
100
AcDbLine
 10
239.2743828768
 20
151.7635093168
 30
0.0
 11
238.3629674356
 21
152.1885093168
 31
0.0
  0
LINE
  5
110
330
1F
100
AcDbEntity
  8
0
  6
Continuous
 62
     7
370
    15
100
AcDbLine
 10
239.2743828768
 20
82.7635093168
 30
0.0
 11
241.0629674356
 21
82.7635093168
 31
0.0
  0
LINE
  5
111
330
1F
100
AcDbEntity
  8
0
  6
Continuous
 62
     7
370
    15
100
AcDbLine
 10
241.0629674356
 20
151.7635093168
 30
0.0
 11
239.2743828768
 21
151.7635093168
 31
0.0
  0
ARC
  5
112
330
1F
100
AcDbEntity
  8
0
  6
Continuous
 62
     7
370
    15
100
AcDbCircle
 10
137.6129674356
 20
98.0419343162
 30
0.0
 40
1.000000000000014
100
AcDbArc
 50
180.0
 51
261.7027777778
  0
ARC
  5
113
330
1F
100
AcDbEntity
  8
0
  6
Continuous
 62
     7
370
    15
100
AcDbCircle
 10
137.6129674356
 20
136.4850843173
 30
0.0
 40
1.000000000000014
100
AcDbArc
 50
98.2972222222
 51
180.0
  0
ARC
  5
114
330
1F
100
AcDbEntity
  8
0
  6
Continuous
 62
     7
370
    15
100
AcDbCircle
 10
259.4629674356
 20
135.2635093168
 30
0.0
 40
2.0
100
AcDbArc
 50
180.0
 51
270.0
  0
ARC
  5
115
330
1F
100
AcDbEntity
  8
0
  6
Continuous
 62
     7
370
    15
100
AcDbCircle
 10
259.4629674356
 20
99.2635093168
 30
0.0
 40
2.0
100
AcDbArc
 50
90.0
 51
180.0
  0
LINE
  5
116
330
1F
100
AcDbEntity
  8
0
  6
Continuous
 62
     7
370
    15
100
AcDbLine
 10
259.4629674356
 20
101.2635093168
 30
0.0
 11
297.4969420318
 21
101.2635093168
 31
0.0
  0
LINE
  5
117
330
1F
100
AcDbEntity
  8
0
  6
Continuous
 62
     7
370
    15
100
AcDbLine
 10
297.4969420318
 20
133.2635093168
 30
0.0
 11
259.4629674356
 21
133.2635093168
 31
0.0
  0
LINE
  5
118
330
1F
100
AcDbEntity
  8
0
  6
Continuous
 62
     7
370
    15
100
AcDbLine
 10
297.4969420318
 20
101.2635093168
 30
0.0
 11
298.3629674356
 21
102.7635093168
 31
0.0
  0
LINE
  5
119
330
1F
100
AcDbEntity
  8
0
  6
Continuous
 62
     7
370
    15
100
AcDbLine
 10
298.3629674356
 20
131.7635093168
 30
0.0
 11
297.4969420318
 21
133.2635093168
 31
0.0
  0
LINE
  5
11A
330
1F
100
AcDbEntity
  8
0
  6
Continuous
 62
     7
370
    15
100
AcDbLine
 10
256.2972820107
 20
103.8664311454
 30
0.0
 11
256.2972820107
 21
130.6605874882
 31
0.0
  0
LINE
  5
11B
330
1F
100
AcDbEntity
  8
0
  6
Continuous
 62
     7
370
    15
100
AcDbLine
 10
252.7105626998
 20
68.5135093168
 30
0.0
 11
252.7105626998
 21
166.0135093168
 31
0.0
  0
SPLINE
  5
11C
330
1F
100
AcDbEntity
  8
0
  6
Continuous
 62
     7
370
    15
100
AcDbSpline
210
0.0
220
0.0
230
1.0
 70
     8
 71
     3
 72
     8
 73
     4
 74
     0
 42
0.000000001
 43
0.00000001
 40
0.0
 40
0.0
 40
0.0
 40
0.0
 40
1.0
 40
1.0
 40
1.0
 40
1.0
 10
256.2972820106748
 20
130.660587488196
 30
0.0
 10
256.4057990021258
 20
130.660587488196
 30
0.0
 10
256.5088398539881
 20
130.6234908951298
 30
0.0
 10
256.5801247231494
 20
130.5657885570328
 30
0.0
  0
LINE
  5
11D
330
1F
100
AcDbEntity
  8
0
  6
Continuous
 62
     7
370
    15
100
AcDbLine
 10
256.5801247231
 20
103.9612300765
 30
0.0
 11
256.5801247231
 21
130.565788557
 31
0.0
  0
SPLINE
  5
11E
330
1F
100
AcDbEntity
  8
0
  6
Continuous
 62
     7
370
    15
100
AcDbSpline
210
0.0
220
0.0
230
1.0
 70
     8
 71
     3
 72
     8
 73
     4
 74
     0
 42
0.000000001
 43
0.00000001
 40
0.0
 40
0.0
 40
0.0
 40
0.0
 40
1.0
 40
1.0
 40
1.0
 40
1.0
 10
256.5801247231494
 20
103.9612300765338
 30
0.0
 10
256.5088089109674
 20
103.9035026912612
 30
0.0
 10
256.4059077533307
 20
103.8664311453706
 30
0.0
 10
256.2972820106748
 20
103.8664311453706
 30
0.0
  0
LINE
  5
11F
330
1F
100
AcDbEntity
  8
0
  6
Continuous
 62
     7
370
    15
100
AcDbLine
 10
251.3629674356
 20
163.6794058512
 30
0.0
 11
251.3629674356
 21
70.8476127824
 31
0.0
  0
LINE
  5
120
330
1F
100
AcDbEntity
  8
0
  6
Continuous
 62
     7
370
    15
100
AcDbLine
 10
247.5629674356
 20
117.2635093168
 30
0.0
 11
247.5629674356
 21
163.6794058512
 31
0.0
  0
LINE
  5
121
330
1F
100
AcDbEntity
  8
0
  6
Continuous
 62
     7
370
    15
100
AcDbLine
 10
247.5629674356
 20
70.8476127824
 30
0.0
 11
247.5629674356
 21
117.2635093168
 31
0.0
  0
LINE
  5
122
330
1F
100
AcDbEntity
  8
0
  6
Continuous
 62
     7
370
    15
100
AcDbLine
 10
246.2153721714
 20
117.2635093168
 30
0.0
 11
246.2153721714
 21
166.0135093168
 31
0.0
  0
LINE
  5
123
330
1F
100
AcDbEntity
  8
0
  6
Continuous
 62
     7
370
    15
100
AcDbLine
 10
246.2153721714
 20
68.5135093168
 30
0.0
 11
246.2153721714
 21
117.2635093168
 31
0.0
  0
LINE
  5
124
330
1F
100
AcDbEntity
  8
0
  6
Continuous
 62
     7
370
    15
100
AcDbLine
 10
242.7286528606
 20
103.8664311454
 30
0.0
 11
242.7286528606
 21
130.6605874882
 31
0.0
  0
SPLINE
  5
125
330
1F
100
AcDbEntity
  8
0
  6
Continuous
 62
     7
370
    15
100
AcDbSpline
210
0.0
220
0.0
230
1.0
 70
     8
 71
     3
 72
     8
 73
     4
 74
     0
 42
0.000000001
 43
0.00000001
 40
0.0
 40
0.0
 40
0.0
 40
0.0
 40
1.0
 40
1.0
 40
1.0
 40
1.0
 10
242.7286528605732
 20
130.660587488196
 30
0.0
 10
242.6201358691222
 20
130.660587488196
 30
0.0
 10
242.5170950172599
 20
130.6234908951298
 30
0.0
 10
242.4458101480986
 20
130.5657885570328
 30
0.0
  0
SPLINE
  5
126
330
1F
100
AcDbEntity
  8
0
  6
Continuous
 62
     7
370
    15
100
AcDbSpline
210
0.0
220
0.0
230
1.0
 70
     8
 71
     3
 72
     8
 73
     4
 74
     0
 42
0.000000001
 43
0.00000001
 40
0.0
 40
0.0
 40
0.0
 40
0.0
 40
1.0
 40
1.0
 40
1.0
 40
1.0
 10
242.7286528605732
 20
103.8664311453706
 30
0.0
 10
242.6201358691222
 20
103.8664311453706
 30
0.0
 10
242.5170950172599
 20
103.9035277384368
 30
0.0
 10
242.4458101480986
 20
103.9612300765338
 30
0.0
  0
LINE
  5
127
330
1F
100
AcDbEntity
  8
0
  6
Continuous
 62
     7
370
    15
100
AcDbLine
 10
242.4458101481
 20
103.9612300765
 30
0.0
 11
242.4458101481
 21
130.565788557
 31
0.0
  0
LINE
  5
128
330
1F
100
AcDbEntity
  8
0
  6
Continuous
 62
     7
370
    15
100
AcDbLine
 10
257.3458101481
 20
104.4135093168
 30
0.0
 11
257.3458101481
 21
130.1135093168
 31
0.0
  0
LINE
  5
129
330
1F
100
AcDbEntity
  8
0
  6
Continuous
 62
     7
370
    15
100
AcDbLine
 10
241.6801247231
 20
103.8306666043
 30
0.0
 11
241.6801247231
 21
130.6963520293
 31
0.0
  0
SPLINE
  5
12A
330
1F
100
AcDbEntity
  8
0
  6
Continuous
 62
     7
370
    15
100
AcDbSpline
210
0.0
220
0.0
230
1.0
 70
    24
 71
     3
 72
     8
 73
     4
 74
     0
 42
0.000000001
 43
0.00000001
 40
0.0
 40
0.0
 40
0.0
 40
0.0
 40
1.0
 40
1.0
 40
1.0
 40
1.0
 10
257.462967435624
 20
130.1135093167833
 30
0.0
 10
257.462967435624
 20
130.1135093167833
 30
0.0
 10
257.4214237016715
 20
130.1135093167833
 30
0.0
 10
257.3458101480986
 20
130.1135093167833
 30
0.0
  0
LINE
  5
12B
330
1F
100
AcDbEntity
  8
0
  6
Continuous
 62
     7
370
    15
100
AcDbLine
 10
257.4629674356
 20
104.4135093168
 30
0.0
 11
257.4629674356
 21
130.1135093168
 31
0.0
  0
SPLINE
  5
12C
330
1F
100
AcDbEntity
  8
0
  6
Continuous
 62
     7
370
    15
100
AcDbSpline
210
0.0
220
0.0
230
1.0
 70
    24
 71
     3
 72
     8
 73
     4
 74
     0
 42
0.000000001
 43
0.00000001
 40
0.0
 40
0.0
 40
0.0
 40
0.0
 40
1.0
 40
1.0
 40
1.0
 40
1.0
 10
257.3458101480986
 20
104.4135093167833
 30
0.0
 10
257.4213981788532
 20
104.4135093167833
 30
0.0
 10
257.462967435624
 20
104.4135093167833
 30
0.0
 10
257.462967435624
 20
104.4135093167833
 30
0.0
  0
SPLINE
  5
12D
330
1F
100
AcDbEntity
  8
0
  6
Continuous
 62
     7
370
    15
100
AcDbSpline
210
0.0
220
0.0
230
1.0
 70
    24
 71
     3
 72
    10
 73
     6
 74
     0
 42
0.000000001
 43
0.00000001
 40
0.0
 40
0.0
 40
0.0
 40
0.0
 40
0.5
 40
0.5
 40
1.0
 40
1.0
 40
1.0
 40
1.0
 10
241.562967435624
 20
130.8135093167833
 30
0.0
 10
241.562967435624
 20
130.8135093167833
 30
0.0
 10
241.5768133116489
 20
130.7996634407585
 30
0.0
 10
241.6189790878362
 20
130.7574976645711
 30
0.0
 10
241.6474697880994
 20
130.7290069643081
 30
0.0
 10
241.6801247231494
 20
130.696352029258
 30
0.0
  0
SPLINE
  5
12E
330
1F
100
AcDbEntity
  8
0
  6
Continuous
 62
     7
370
    15
100
AcDbSpline
210
0.0
220
0.0
230
1.0
 70
    24
 71
     3
 72
    10
 73
     6
 74
     0
 42
0.000000001
 43
0.00000001
 40
0.0
 40
0.0
 40
0.0
 40
0.0
 40
0.5
 40
0.5
 40
1.0
 40
1.0
 40
1.0
 40
1.0
 10
241.6801247231494
 20
103.8306666043087
 30
0.0
 10
241.6474916621321
 20
103.7980335432914
 30
0.0
 10
241.6195107758659
 20
103.7700526570252
 30
0.0
 10
241.5768539254909
 20
103.7273958066502
 30
0.0
 10
241.562967435624
 20
103.7135093167834
 30
0.0
 10
241.562967435624
 20
103.7135093167834
 30
0.0
  0
LINE
  5
12F
330
1F
100
AcDbEntity
  8
0
  6
Continuous
 62
     7
370
    15
100
AcDbLine
 10
241.5629674356
 20
103.7135093168
 30
0.0
 11
241.5629674356
 21
130.8135093168
 31
0.0
  0
SPLINE
  5
130
330
1F
100
AcDbEntity
  8
0
  6
Continuous
 62
     7
370
    15
100
AcDbSpline
210
0.0
220
0.0
230
1.0
 70
    24
 71
     3
 72
    36
 73
    32
 74
     0
 42
0.000000001
 43
0.00000001
 40
0.0
 40
0.0
 40
0.0
 40
0.0
 40
0.010855060115309
 40
0.021700603247601
 40
0.0325387683476148
 40
0.0433716987364442
 40
0.0542015408431699
 40
0.0650304429332853
 40
0.0758605538316704
 40
0.0866940216439018
 40
0.0975329924797007
 40
0.1083796091823073
 40
0.1192360100675244
 40
0.181247834122235
 40
0.2432679244012066
 40
0.3069990489490812
 40
0.370738668921532
 40
0.4353656024873025
 40
0.5000011508910791
 40
0.5646280845655833
 40
0.6292636330748704
 40
0.6929947579300935
 40
0.7567343782029041
 40
0.8187462027125846
 40
0.8807662934441524
 40
0.9006583299602414
 40
0.9205248324912559
 40
0.9403790153804057
 40
0.9602341175685198
 40
0.9801033761588329
 40
1.0
 40
1.0
 40
1.0
 40
1.0
 10
257.462967435624
 20
104.4135093167833
 30
0.0
 10
257.462967435624
 20
104.198722442421
 30
0.0
 10
257.462967435624
 20
103.7693370043105
 30
0.0
 10
257.462967435624
 20
103.12884049421
 30
0.0
 10
257.462967435624
 20
102.4913902827813
 30
0.0
 10
257.462967435624
 20
101.8572166283089
 30
0.0
 10
257.462967435624
 20
101.2262579963207
 30
0.0
 10
257.462967435624
 20
100.5985309277364
 30
0.0
 10
257.462967435624
 20
99.97403120865772
 30
0.0
 10
257.462967435624
 20
99.3527596031326
 30
0.0
 10
257.462967435624
 20
98.73471770382776
 30
0.0
 10
257.462967435624
 20
98.1198987916862
 30
0.0
 10
257.462967435624
 20
96.54804113502747
 30
0.0
 10
257.462967435624
 20
94.06839184099535
 30
0.0
 10
257.462967435624
 20
90.76971878252235
 30
0.0
 10
257.462967435624
 20
87.6163418573413
 30
0.0
 10
257.462967435624
 20
84.62426914877476
 30
0.0
 10
257.462967435624
 20
81.84352294015933
 30
0.0
 10
257.462967435624
 20
79.30022363308306
 30
0.0
 10
257.462967435624
 20
77.0222121480148
 30
0.0
 10
257.462967435624
 20
75.037779652296
 30
0.0
 10
257.462967435624
 20
73.35302641522604
 30
0.0
 10
257.462967435624
 20
71.99016592167521
 30
0.0
 10
257.462967435624
 20
70.9379876010195
 30
0.0
 10
257.462967435624
 20
70.36448614896489
 30
0.0
 10
257.462967435624
 20
70.06845874828106
 30
0.0
 10
257.462967435624
 20
69.92644366283525
 30
0.0
 10
257.462967435624
 20
69.81584147027353
 30
0.0
 10
257.462967435624
 20
69.7374119410595
 30
0.0
 10
257.462967435624
 20
69.68829582925481
 30
0.0
 10
257.462967435624
 20
69.68222982903092
 30
0.0
 10
257.462967435624
 20
69.67919474173257
 30
0.0
  0
SPLINE
  5
131
330
1F
100
AcDbEntity
  8
0
  6
Continuous
 62
     7
370
    15
100
AcDbSpline
210
0.0
220
0.0
230
1.0
 70
    24
 71
     3
 72
    23
 73
    19
 74
     0
 42
0.000000001
 43
0.00000001
 40
0.0
 40
0.0
 40
0.0
 40
0.0
 40
0.0493441424397847
 40
0.1126391337887779
 40
0.175243299249941
 40
0.2371050695636286
 40
0.2989591199343765
 40
0.3615634382303969
 40
0.424865997370412
 40
0.4891594850324232
 40
0.5537405807095874
 40
0.6185525319731141
 40
0.6833570688697035
 40
0.7479382231567702
 40
0.8122390667280018
 40
0.8755340580753493
 40
0.9381401318495212
 40
0.9999999999999999
 40
0.9999999999999999
 40
0.9999999999999999
 40
0.9999999999999999
 10
257.462967435624
 20
164.8183357927502
 30
0.0
 10
257.462967435624
 20
164.8113887115209
 30
0.0
 10
257.462967435624
 20
164.795530431828
 30
0.0
 10
257.462967435624
 20
164.3887790189135
 30
0.0
 10
257.462967435624
 20
163.6789638050203
 30
0.0
 10
257.462967435624
 20
162.6625568795206
 30
0.0
 10
257.462967435624
 20
161.3556873944004
 30
0.0
 10
257.462967435624
 20
159.7489753854365
 30
0.0
 10
257.462967435624
 20
157.8361302527273
 30
0.0
 10
257.462967435624
 20
155.6245643410699
 30
0.0
 10
257.462967435624
 20
153.1270581017896
 30
0.0
 10
257.462967435624
 20
150.3701349499628
 30
0.0
 10
257.462967435624
 20
147.3798176886226
 30
0.0
 10
257.462967435624
 20
144.1855903862671
 30
0.0
 10
257.462967435624
 20
140.8297107513036
 30
0.0
 10
257.462967435624
 20
137.3466263930315
 30
0.0
 10
257.462967435624
 20
133.7812158941633
 30
0.0
 10
257.462967435624
 20
131.3311819795233
 30
0.0
 10
257.462967435624
 20
130.1135093167833
 30
0.0
  0
SPLINE
  5
132
330
1F
100
AcDbEntity
  8
0
  6
Continuous
 62
     7
370
    15
100
AcDbSpline
210
0.0
220
0.0
230
1.0
 70
    24
 71
     3
 72
    36
 73
    32
 74
     0
 42
0.000000001
 43
0.00000001
 40
0.0
 40
0.0
 40
0.0
 40
0.0
 40
0.0108663901689341
 40
0.0217235992681966
 40
0.0325737239450683
 40
0.0434188649555587
 40
0.0542611259525282
 40
0.0651026122653268
 40
0.0759454296745621
 40
0.0867916831855511
 40
0.0976434758040309
 40
0.1085029073176763
 40
0.1193720730869444
 40
0.1813968254445624
 40
0.2434299782168946
 40
0.3071319268816632
 40
0.3708425031356528
 40
0.4354174425585807
 40
0.5000011278075839
 40
0.5645760673323957
 40
0.6291597526862351
 40
0.692861701646248
 40
0.7565722781921773
 40
0.8185970309920263
 40
0.8806301842014286
 40
0.9005456124931797
 40
0.9204355775894111
 40
0.9403130284529501
 40
0.9601909385028826
 40
0.9800822802598312
 40
1.0
 40
1.0
 40
1.0
 40
1.0
 10
241.562967435624
 20
69.67919474173257
 30
0.0
 10
241.562967435624
 20
69.68007578861445
 30
0.0
 10
241.562967435624
 20
69.68183713797713
 30
0.0
 10
241.562967435624
 20
69.69613238482388
 30
0.0
 10
241.562967435624
 20
69.71896128134928
 30
0.0
 10
241.562967435624
 20
69.7511584002845
 30
0.0
 10
241.562967435624
 20
69.79250031585393
 30
0.0
 10
241.562967435624
 20
69.84304687381965
 30
0.0
 10
241.562967435624
 20
69.90278197725061
 30
0.0
 10
241.562967435624
 20
69.9717101495232
 30
0.0
 10
241.562967435624
 20
70.04982933138112
 30
0.0
 10
241.562967435624
 20
70.13714315237388
 30
0.0
 10
241.562967435624
 20
70.38497986675802
 30
0.0
 10
241.562967435624
 20
70.91062768181052
 30
0.0
 10
241.562967435624
 20
71.93901868828559
 30
0.0
 10
241.562967435624
 20
73.270968501576
 30
0.0
 10
241.562967435624
 20
74.91689441630673
 30
0.0
 10
241.562967435624
 20
76.85591546861933
 30
0.0
 10
241.562967435624
 20
79.08189045107825
 30
0.0
 10
241.562967435624
 20
81.56824572724278
 30
0.0
 10
241.562967435624
 20
84.28801352125781
 30
0.0
 10
241.562967435624
 20
87.21672185926919
 30
0.0
 10
241.562967435624
 20
90.30604785851381
 30
0.0
 10
241.562967435624
 20
93.54114890668421
 30
0.0
 10
241.562967435624
 20
96.13876077641912
 30
0.0
 10
241.562967435624
 20
98.02164820637847
 30
0.0
 10
241.562967435624
 20
99.13770318078105
 30
0.0
 10
241.562967435624
 20
100.2647973157885
 30
0.0
 10
241.562967435624
 20
101.4031622394593
 30
0.0
 10
241.562967435624
 20
102.5519937207752
 30
0.0
 10
241.562967435624
 20
103.32616645926
 30
0.0
 10
241.562967435624
 20
103.7135093167833
 30
0.0
  0
SPLINE
  5
133
330
1F
100
AcDbEntity
  8
0
  6
Continuous
 62
     7
370
    15
100
AcDbSpline
210
0.0
220
0.0
230
1.0
 70
    24
 71
     3
 72
    23
 73
    19
 74
     0
 42
0.000000001
 43
0.00000001
 40
0.0
 40
0.0
 40
0.0
 40
0.0
 40
0.0621371780016823
 40
0.1250125041989178
 40
0.18858029616004
 40
0.253127189537456
 40
0.3179582992717379
 40
0.3830175621109775
 40
0.4480693138239227
 40
0.5129004819881641
 40
0.5774548282112543
 40
0.6410149507156808
 40
0.70389205390056
 40
0.7660351298220105
 40
0.8281703793520515
 40
0.8910476401564842
 40
0.9546154321206017
 40
1.0
 40
1.0
 40
1.0
 40
1.0
 10
241.562967435624
 20
130.8135093167833
 30
0.0
 10
241.562967435624
 20
132.0164644766881
 30
0.0
 10
241.562967435624
 20
134.4366651007755
 30
0.0
 10
241.562967435624
 20
137.9535095696661
 30
0.0
 10
241.562967435624
 20
141.3848509326899
 30
0.0
 10
241.562967435624
 20
144.6866455957646
 30
0.0
 10
241.562967435624
 20
147.8255460917183
 30
0.0
 10
241.562967435624
 20
150.7605017387288
 30
0.0
 10
241.562967435624
 20
153.4630775691779
 30
0.0
 10
241.562967435624
 20
155.9082389819508
 30
0.0
 10
241.562967435624
 20
158.070362279317
 30
0.0
 10
241.562967435624
 20
159.9372874633744
 30
0.0
 10
241.562967435624
 20
161.5021420623877
 30
0.0
 10
241.562967435624
 20
162.7707885261791
 30
0.0
 10
241.562967435624
 20
163.7528778114872
 30
0.0
 10
241.562967435624
 20
164.4309239096256
 30
0.0
 10
241.562967435624
 20
164.8070530405262
 30
0.0
 10
241.562967435624
 20
164.8118633231401
 30
0.0
 10
241.562967435624
 20
164.8138670667774
 30
0.0
  0
LINE
  5
134
330
1F
100
AcDbEntity
  8
0
  6
Continuous
 62
     7
370
    15
100
AcDbLine
 10
238.3629674356
 20
82.3385093168
 30
0.0
 11
238.3629674356
 21
152.1885093168
 31
0.0
  0
LINE
  5
135
330
1F
100
AcDbEntity
  8
0
  6
Continuous
 62
     7
370
    15
100
AcDbLine
 10
239.2743828768
 20
117.2635093168
 30
0.0
 11
239.2743828768
 21
151.7635093168
 31
0.0
  0
LINE
  5
136
330
1F
100
AcDbEntity
  8
0
  6
Continuous
 62
     7
370
    15
100
AcDbLine
 10
239.2743828768
 20
82.7635093168
 30
0.0
 11
239.2743828768
 21
117.2635093168
 31
0.0
  0
SPLINE
  5
137
330
1F
100
AcDbEntity
  8
0
  6
Continuous
 62
     7
370
    15
100
AcDbSpline
210
0.0
220
0.0
230
1.0
 70
    24
 71
     3
 72
    10
 73
     6
 74
     0
 42
0.000000001
 43
0.00000001
 40
0.0
 40
0.0
 40
0.0
 40
0.0
 40
0.4999999999999997
 40
0.4999999999999997
 40
0.9999999999999999
 40
0.9999999999999999
 40
0.9999999999999999
 40
0.9999999999999999
 10
136.612967435624
 20
136.4850843173287
 30
0.0
 10
136.612967435624
 20
136.4850843173286
 30
0.0
 10
136.612967435624
 20
134.4598578912597
 30
0.0
 10
136.612967435624
 20
127.2505727982496
 30
0.0
 10
136.612967435624
 20
122.3612436935578
 30
0.0
 10
136.612967435624
 20
117.2635093167833
 30
0.0
  0
SPLINE
  5
138
330
1F
100
AcDbEntity
  8
0
  6
Continuous
 62
     7
370
    15
100
AcDbSpline
210
0.0
220
0.0
230
1.0
 70
    24
 71
     3
 72
    10
 73
     6
 74
     0
 42
0.000000001
 43
0.00000001
 40
0.0
 40
0.0
 40
0.0
 40
0.0
 40
0.4999999999999999
 40
0.4999999999999999
 40
0.9999999999999999
 40
0.9999999999999999
 40
0.9999999999999999
 40
0.9999999999999999
 10
136.612967435624
 20
117.2635093167833
 30
0.0
 10
136.612967435624
 20
112.1657749400089
 30
0.0
 10
136.612967435624
 20
107.2764458353166
 30
0.0
 10
136.612967435624
 20
100.0671607423067
 30
0.0
 10
136.612967435624
 20
98.04193431623781
 30
0.0
 10
136.612967435624
 20
98.04193431623794
 30
0.0
  0
LINE
  5
139
330
1F
100
AcDbEntity
  8
0
  6
Continuous
 62
     7
370
    15
100
AcDbLine
 10
297.4969420318
 20
117.2635093168
 30
0.0
 11
297.4969420318
 21
133.2635093168
 31
0.0
  0
LINE
  5
13A
330
1F
100
AcDbEntity
  8
0
  6
Continuous
 62
     7
370
    15
100
AcDbLine
 10
297.4969420318
 20
101.2635093168
 30
0.0
 11
297.4969420318
 21
117.2635093168
 31
0.0
  0
LINE
  5
13B
330
1F
100
AcDbEntity
  8
0
  6
Continuous
 62
     7
370
    15
100
AcDbLine
 10
298.3629674356
 20
117.2635093168
 30
0.0
 11
298.3629674356
 21
131.7635093168
 31
0.0
  0
LINE
  5
13C
330
1F
100
AcDbEntity
  8
0
  6
Continuous
 62
     7
370
    15
100
AcDbLine
 10
298.3629674356
 20
102.7635093168
 30
0.0
 11
298.3629674356
 21
117.2635093168
 31
0.0
  0
LINE
  5
13D
330
1F
100
AcDbEntity
  8
0
  6
Continuous
 62
     8
370
    15
100
AcDbLine
 10
256.2972820107
 20
130.6605874882
 30
0.0
 11
256.2972820107
 21
166.0135093168
 31
0.0
  0
LINE
  5
13E
330
1F
100
AcDbEntity
  8
0
  6
Continuous
 62
     8
370
    15
100
AcDbLine
 10
256.2972820107
 20
68.5135093168
 30
0.0
 11
256.2972820107
 21
103.8664311454
 31
0.0
  0
LINE
  5
13F
330
1F
100
AcDbEntity
  8
0
  6
Continuous
 62
     8
370
    15
100
AcDbLine
 10
242.7286528606
 20
68.5135093168
 30
0.0
 11
242.7286528606
 21
103.8664311454
 31
0.0
  0
LINE
  5
140
330
1F
100
AcDbEntity
  8
0
  6
Continuous
 62
     8
370
    15
100
AcDbLine
 10
242.7286528606
 20
166.0135093168
 30
0.0
 11
242.7286528606
 21
130.6605874882
 31
0.0
  0
LINE
  5
141
330
1F
100
AcDbEntity
  8
0
  6
Continuous
 62
     8
370
    15
100
AcDbLine
 10
257.3458101481
 20
165.1306666043
 30
0.0
 11
257.3458101481
 21
130.1135093168
 31
0.0
  0
LINE
  5
142
330
1F
100
AcDbEntity
  8
0
  6
Continuous
 62
     8
370
    15
100
AcDbLine
 10
257.3458101481
 20
104.4135093168
 30
0.0
 11
257.3458101481
 21
69.3963520293
 31
0.0
  0
LINE
  5
143
330
1F
100
AcDbEntity
  8
0
  6
Continuous
 62
     8
370
    15
100
AcDbLine
 10
256.5801247231
 20
130.565788557
 30
0.0
 11
256.5801247231
 21
165.8963520293
 31
0.0
  0
LINE
  5
144
330
1F
100
AcDbEntity
  8
0
  6
Continuous
 62
     8
370
    15
100
AcDbLine
 10
256.5801247231
 20
103.9612300765
 30
0.0
 11
256.5801247231
 21
68.6306666043
 31
0.0
  0
LINE
  5
145
330
1F
100
AcDbEntity
  8
0
  6
Continuous
 62
     8
370
    15
100
AcDbLine
 10
241.6801247231
 20
69.3963520293
 30
0.0
 11
241.6801247231
 21
103.8306666043
 31
0.0
  0
LINE
  5
146
330
1F
100
AcDbEntity
  8
0
  6
Continuous
 62
     8
370
    15
100
AcDbLine
 10
241.6801247231
 20
130.6963520293
 30
0.0
 11
241.6801247231
 21
165.1306666043
 31
0.0
  0
LINE
  5
147
330
1F
100
AcDbEntity
  8
0
  6
Continuous
 62
     8
370
    15
100
AcDbLine
 10
242.4458101481
 20
130.565788557
 30
0.0
 11
242.4458101481
 21
165.8963520293
 31
0.0
  0
LINE
  5
148
330
1F
100
AcDbEntity
  8
0
  6
Continuous
 62
     8
370
    15
100
AcDbLine
 10
242.4458101481
 20
68.6306666043
 30
0.0
 11
242.4458101481
 21
103.9612300765
 31
0.0
  0
LINE
  5
149
330
1F
100
AcDbEntity
  8
0
  6
Continuous
 62
     8
370
    15
100
AcDbLine
 10
241.0629674356
 20
82.7635093168
 30
0.0
 11
241.0629674356
 21
151.7635093168
 31
0.0
  0
LINE
  5
14A
330
1F
100
AcDbEntity
  8
0
  6
Continuous
 62
     8
370
    15
100
AcDbLine
 10
137.4686592084
 20
137.4746171038
 30
0.0
 11
137.4686592084
 21
97.0524015297
 31
0.0
  0
LINE
  5
14B
330
1F
100
AcDbEntity
  8
0
  6
Continuous
 62
     8
370
    15
100
AcDbLine
 10
259.4629674356
 20
133.2635093168
 30
0.0
 11
259.4629674356
 21
101.2635093168
 31
0.0
  0
DIMENSION
  5
14C
330
1F
100
AcDbEntity
  8
DIM
100
AcDbDimension
  2
_D
 10
307.1127988937
 20
101.2635093168
 30
0.0
 11
307.1127988937
 21
117.2635093168
 31
0.0
 70
   160
  1
%%c<>
 71
     2
 42
-1.0
  3
SLDDIMSTYLE0
100
AcDbAlignedDimension
 13
297.4969420318
 23
133.2635093168
 33
0.0
 14
297.4969420318
 24
101.2635093168
 34
0.0
 50
90.0
100
AcDbRotatedDimension
  0
DIMENSION
  5
158
330
1F
100
AcDbEntity
  8
DIM
100
AcDbDimension
  2
_D_1
 10
132.1008953034
 20
68.5135093168
 30
0.0
 11
132.1008953034
 21
117.2635093168
 31
0.0
 70
   160
  1
%%c<>
 71
     2
 42
-1.0
  3
SLDDIMSTYLE1
100
AcDbAlignedDimension
 13
242.7286528606
 23
166.0135093168
 33
0.0
 14
242.7286528606
 24
68.5135093168
 34
0.0
 50
90.0
100
AcDbRotatedDimension
  0
DIMENSION
  5
164
330
1F
100
AcDbEntity
  8
DIM
100
AcDbDimension
  2
_D_2
 10
298.3629674356
 20
47.3086861038
 30
0.0
 11
217.4879674356
 21
47.3086861038
 31
0.0
 70
   160
  1
<>
 71
     2
 42
-1.0
  3
SLDDIMSTYLE0
100
AcDbAlignedDimension
 13
136.6129674356
 23
98.0419343162
 33
0.0
 14
298.3629674356
 24
102.7635093168
 34
0.0
 50
0.0
100
AcDbRotatedDimension
  0
DIMENSION
  5
16E
330
1F
100
AcDbEntity
  8
DIM
100
AcDbDimension
  2
_D_3
 10
298.3629674356
 20
57.5134093168
 30
0.0
 11
268.3629674356
 21
57.5134093168
 31
0.0
 70
   160
  1
<>
 71
     2
 42
-1.0
  3
SLDDIMSTYLE0
100
AcDbAlignedDimension
 13
238.3629674356
 23
82.3385093168
 33
0.0
 14
298.3629674356
 24
102.7635093168
 34
0.0
100
AcDbRotatedDimension
  0
LINE
  5
178
330
1F
100
AcDbEntity
  8
DIM
  6
CENTERX2
 48
1.8181818182
370
     0
100
AcDbLine
 10
133.9774715566
 20
117.2635093168
 30
0.0
 11
298.2521463333
 21
117.2635093168
 31
0.0
  0
ENDSEC
  0
SECTION
  2
OBJECTS
  0
DICTIONARY
  5
C
330
0
100
AcDbDictionary
281
     1
  3
ACAD_GROUP
350
D
  3
ACAD_LAYOUT
350
1A
  3
ACAD_MLINESTYLE
350
17
  3
ACAD_PLOTSETTINGS
350
19
  3
ACAD_PLOTSTYLENAME
350
E
  3
ACAD_SCALELIST
350
47
  0
DICTIONARY
  5
D
102
{ACAD_REACTORS
330
C
102
}
330
C
100
AcDbDictionary
281
     1
  0
DICTIONARY
  5
1A
102
{ACAD_REACTORS
330
C
102
}
330
C
100
AcDbDictionary
281
     1
  3
Layout1
350
1E
  3
Layout2
350
26
  3
Model
350
22
  0
DICTIONARY
  5
17
102
{ACAD_REACTORS
330
C
102
}
330
C
100
AcDbDictionary
281
     1
  3
Standard
350
18
  0
DICTIONARY
  5
19
102
{ACAD_REACTORS
330
C
102
}
330
C
100
AcDbDictionary
281
     1
  0
ACDBDICTIONARYWDFLT
  5
E
102
{ACAD_REACTORS
330
C
102
}
330
C
100
AcDbDictionary
281
     1
  3
Normal
350
F
100
AcDbDictionaryWithDefault
340
F
  0
DICTIONARY
  5
47
102
{ACAD_REACTORS
330
C
102
}
330
C
100
AcDbDictionary
281
     1
  3
A0
350
48
  3
A1
350
49
  3
A2
350
4A
  3
A3
350
4B
  3
A4
350
4C
  3
A5
350
4D
  3
A6
350
4E
  3
A7
350
4F
  3
A8
350
50
  3
A9
350
51
  3
B0
350
52
  3
B1
350
53
  3
B2
350
54
  3
B3
350
55
  3
B4
350
56
  3
B5
350
57
  3
B6
350
58
  3
B7
350
59
  3
B8
350
5A
  3
B9
350
5B
  3
C0
350
5C
  3
C1
350
5D
  3
C2
350
5E
  3
C3
350
5F
  3
C4
350
60
  3
C5
350
61
  3
C6
350
62
  3
C7
350
63
  3
C8
350
64
  3
C9
350
65
  3
D0
350
66
  3
D1
350
67
  3
D2
350
68
  0
LAYOUT
  5
1E
102
{ACAD_REACTORS
330
1A
102
}
330
1A
100
AcDbPlotSettings
  1

  2
none_device
  4

  6

 40
0.0
 41
0.0
 42
0.0
 43
0.0
 44
0.0
 45
0.0
 46
0.0
 47
0.0
 48
0.0
 49
0.0
140
0.0
141
0.0
142
1.0
143
1.0
 70
   688
 72
     1
 73
     0
 74
     5
  7

 75
    16
147
1.0
148
0.0
149
0.0
100
AcDbLayout
  1
Layout1
 70
     1
 71
     1
 10
0.0
 20
0.0
 11
420.0
 21
297.0
 12
0.0
 22
0.0
 32
0.0
 14
1.0000000000E+20
 24
1.0000000000E+20
 34
1.0000000000E+20
 15
-1.0000000000E+20
 25
-1.0000000000E+20
 35
-1.0000000000E+20
146
0.0
 13
0.0
 23
0.0
 33
0.0
 16
1.0
 26
0.0
 36
0.0
 17
0.0
 27
1.0
 37
0.0
 76
     0
330
1B
  0
LAYOUT
  5
26
102
{ACAD_REACTORS
330
1A
102
}
330
1A
100
AcDbPlotSettings
  1

  2
none_device
  4

  6

 40
0.0
 41
0.0
 42
0.0
 43
0.0
 44
0.0
 45
0.0
 46
0.0
 47
0.0
 48
0.0
 49
0.0
140
0.0
141
0.0
142
1.0
143
1.0
 70
   688
 72
     1
 73
     0
 74
     5
  7

 75
    16
147
1.0
148
0.0
149
0.0
100
AcDbLayout
  1
Layout2
 70
     1
 71
     2
 10
0.0
 20
0.0
 11
0.0
 21
0.0
 12
0.0
 22
0.0
 32
0.0
 14
0.0
 24
0.0
 34
0.0
 15
0.0
 25
0.0
 35
0.0
146
0.0
 13
0.0
 23
0.0
 33
0.0
 16
1.0
 26
0.0
 36
0.0
 17
0.0
 27
1.0
 37
0.0
 76
     0
330
23
  0
LAYOUT
  5
22
102
{ACAD_REACTORS
330
1A
102
}
330
1A
100
AcDbPlotSettings
  1

  2
none_device
  4
Letter_(8.50_x_11.00_Inches)
  6

 40
6.35
 41
6.35
 42
6.35000508
 43
6.35000508
 44
215.9
 45
279.4
 46
0.0
 47
0.0
 48
0.0
 49
0.0
140
0.0
141
0.0
142
1.0
143
1.0
 70
  1712
 72
     1
 73
     0
 74
     0
  7

 75
     0
147
1.0
148
0.0
149
0.0
100
AcDbLayout
  1
Model
 70
     1
 71
     0
 10
0.0
 20
0.0
 11
326.7
 21
231.0
 12
0.0
 22
0.0
 32
0.0
 14
0.0
 24
0.0
 34
0.0
 15
326.7
 25
231.0
 35
0.0
146
0.0
 13
0.0
 23
0.0
 33
0.0
 16
1.0
 26
0.0
 36
0.0
 17
0.0
 27
1.0
 37
0.0
 76
     0
330
1F
331
29
  0
MLINESTYLE
  5
18
102
{ACAD_REACTORS
330
17
102
}
330
17
100
AcDbMlineStyle
  2
Standard
 70
     0
  3

 62
   256
 51
90.0
 52
90.0
 71
     2
 49
0.5
 62
   256
  6
BYLAYER
 49
-0.5
 62
   256
  6
BYLAYER
  0
ACDBPLACEHOLDER
  5
F
102
{ACAD_REACTORS
330
E
102
}
330
E
  0
SCALE
  5
48
102
{ACAD_REACTORS
330
47
102
}
330
47
100
AcDbScale
 70
     0
300
1:1
140
1.0
141
1.0
290
     1
  0
SCALE
  5
49
102
{ACAD_REACTORS
330
47
102
}
330
47
100
AcDbScale
 70
     0
300
1:2
140
1.0
141
2.0
290
     0
  0
SCALE
  5
4A
102
{ACAD_REACTORS
330
47
102
}
330
47
100
AcDbScale
 70
     0
300
1:4
140
1.0
141
4.0
290
     0
  0
SCALE
  5
4B
102
{ACAD_REACTORS
330
47
102
}
330
47
100
AcDbScale
 70
     0
300
1:5
140
1.0
141
5.0
290
     0
  0
SCALE
  5
4C
102
{ACAD_REACTORS
330
47
102
}
330
47
100
AcDbScale
 70
     0
300
1:8
140
1.0
141
8.0
290
     0
  0
SCALE
  5
4D
102
{ACAD_REACTORS
330
47
102
}
330
47
100
AcDbScale
 70
     0
300
1:10
140
1.0
141
10.0
290
     0
  0
SCALE
  5
4E
102
{ACAD_REACTORS
330
47
102
}
330
47
100
AcDbScale
 70
     0
300
1:16
140
1.0
141
16.0
290
     0
  0
SCALE
  5
4F
102
{ACAD_REACTORS
330
47
102
}
330
47
100
AcDbScale
 70
     0
300
1:20
140
1.0
141
20.0
290
     0
  0
SCALE
  5
50
102
{ACAD_REACTORS
330
47
102
}
330
47
100
AcDbScale
 70
     0
300
1:30
140
1.0
141
30.0
290
     0
  0
SCALE
  5
51
102
{ACAD_REACTORS
330
47
102
}
330
47
100
AcDbScale
 70
     0
300
1:40
140
1.0
141
40.0
290
     0
  0
SCALE
  5
52
102
{ACAD_REACTORS
330
47
102
}
330
47
100
AcDbScale
 70
     0
300
1:50
140
1.0
141
50.0
290
     0
  0
SCALE
  5
53
102
{ACAD_REACTORS
330
47
102
}
330
47
100
AcDbScale
 70
     0
300
1:100
140
1.0
141
100.0
290
     0
  0
SCALE
  5
54
102
{ACAD_REACTORS
330
47
102
}
330
47
100
AcDbScale
 70
     0
300
2:1
140
2.0
141
1.0
290
     0
  0
SCALE
  5
55
102
{ACAD_REACTORS
330
47
102
}
330
47
100
AcDbScale
 70
     0
300
4:1
140
4.0
141
1.0
290
     0
  0
SCALE
  5
56
102
{ACAD_REACTORS
330
47
102
}
330
47
100
AcDbScale
 70
     0
300
8:1
140
8.0
141
1.0
290
     0
  0
SCALE
  5
57
102
{ACAD_REACTORS
330
47
102
}
330
47
100
AcDbScale
 70
     0
300
10:1
140
10.0
141
1.0
290
     0
  0
SCALE
  5
58
102
{ACAD_REACTORS
330
47
102
}
330
47
100
AcDbScale
 70
     0
300
100:1
140
100.0
141
1.0
290
     0
  0
SCALE
  5
59
102
{ACAD_REACTORS
330
47
102
}
330
47
100
AcDbScale
 70
     0
300
1/128" = 1'-0"
140
0.0078125
141
12.0
290
     0
  0
SCALE
  5
5A
102
{ACAD_REACTORS
330
47
102
}
330
47
100
AcDbScale
 70
     0
300
1/64" = 1'-0"
140
0.015625
141
12.0
290
     0
  0
SCALE
  5
5B
102
{ACAD_REACTORS
330
47
102
}
330
47
100
AcDbScale
 70
     0
300
1/32" = 1'-0"
140
0.03125
141
12.0
290
     0
  0
SCALE
  5
5C
102
{ACAD_REACTORS
330
47
102
}
330
47
100
AcDbScale
 70
     0
300
1/16" = 1'-0"
140
0.0625
141
12.0
290
     0
  0
SCALE
  5
5D
102
{ACAD_REACTORS
330
47
102
}
330
47
100
AcDbScale
 70
     0
300
3/32" = 1'-0"
140
0.09375
141
12.0
290
     0
  0
SCALE
  5
5E
102
{ACAD_REACTORS
330
47
102
}
330
47
100
AcDbScale
 70
     0
300
1/8" = 1'-0"
140
0.125
141
12.0
290
     0
  0
SCALE
  5
5F
102
{ACAD_REACTORS
330
47
102
}
330
47
100
AcDbScale
 70
     0
300
3/16" = 1'-0"
140
0.1875
141
12.0
290
     0
  0
SCALE
  5
60
102
{ACAD_REACTORS
330
47
102
}
330
47
100
AcDbScale
 70
     0
300
1/4" = 1'-0"
140
0.25
141
12.0
290
     0
  0
SCALE
  5
61
102
{ACAD_REACTORS
330
47
102
}
330
47
100
AcDbScale
 70
     0
300
3/8" = 1'-0"
140
0.375
141
12.0
290
     0
  0
SCALE
  5
62
102
{ACAD_REACTORS
330
47
102
}
330
47
100
AcDbScale
 70
     0
300
1/2" = 1'-0"
140
0.5
141
12.0
290
     0
  0
SCALE
  5
63
102
{ACAD_REACTORS
330
47
102
}
330
47
100
AcDbScale
 70
     0
300
3/4" = 1'-0"
140
0.75
141
12.0
290
     0
  0
SCALE
  5
64
102
{ACAD_REACTORS
330
47
102
}
330
47
100
AcDbScale
 70
     0
300
1" = 1'-0"
140
1.0
141
12.0
290
     0
  0
SCALE
  5
65
102
{ACAD_REACTORS
330
47
102
}
330
47
100
AcDbScale
 70
     0
300
1-1/2" = 1'-0"
140
1.5
141
12.0
290
     0
  0
SCALE
  5
66
102
{ACAD_REACTORS
330
47
102
}
330
47
100
AcDbScale
 70
     0
300
3" = 1'-0"
140
3.0
141
12.0
290
     0
  0
SCALE
  5
67
102
{ACAD_REACTORS
330
47
102
}
330
47
100
AcDbScale
 70
     0
300
6" = 1'-0"
140
6.0
141
12.0
290
     0
  0
SCALE
  5
68
102
{ACAD_REACTORS
330
47
102
}
330
47
100
AcDbScale
 70
     0
300
1'-0" = 1'-0"
140
12.0
141
12.0
290
     0
  0
ENDSEC
  0
EOF
