  0
SECTION
  2
HEADER
  9
$ACADVER
  1
AC1015
  9
$ACADMAINTVER
 70
     6
  9
$DWGCODEPAGE
  3
ANSI_1252
  9
$INSBASE
 10
0.0
 20
0.0
 30
0.0
  9
$EXTMIN
 10
0.0
 20
0.0
 30
0.0
  9
$EXTMAX
 10
424.2857142857
 20
300.0
 30
0.0
  9
$LIMMIN
 10
0.0
 20
0.0
  9
$LIMMAX
 10
424.2857142857
 20
300.0
  9
$ORTHOMODE
 70
     0
  9
$REGENMODE
 70
     1
  9
$FILLMODE
 70
     1
  9
$QTEXTMODE
 70
     0
  9
$MIRRTEXT
 70
     1
  9
$LTSCALE
 40
1.4285714286
  9
$ATTMODE
 70
     1
  9
$TEXTSIZE
 40
5.5436507937
  9
$TRACEWID
 40
1.0
  9
$TEXTSTYLE
  7
Standard
  9
$CLAYER
  8
0
  9
$CELTYPE
  6
ByLayer
  9
$CECOLOR
 62
   256
  9
$CELTSCALE
 40
1.0
  9
$DISPSILH
 70
     0
  9
$DIMSCALE
 40
1.0
  9
$DIMASZ
 40
4.7171428571
  9
$DIMEXO
 40
1.4285714286
  9
$DIMDLI
 40
3.75
  9
$DIMRND
 40
0.0
  9
$DIMDLE
 40
0.0
  9
$DIMEXE
 40
1.4285714286
  9
$DIMTP
 40
0.0
  9
$DIMTM
 40
0.0
  9
$DIMTXT
 40
5.5436507937
  9
$DIMCEN
 40
2.5
  9
$DIMTSZ
 40
0.0
  9
$DIMTOL
 70
     0
  9
$DIMLIM
 70
     0
  9
$DIMTIH
 70
     1
  9
$DIMTOH
 70
     1
  9
$DIMSE1
 70
     0
  9
$DIMSE2
 70
     0
  9
$DIMTAD
 70
     1
  9
$DIMZIN
 70
     0
  9
$DIMBLK
  1

  9
$DIMASO
 70
     1
  9
$DIMSHO
 70
     1
  9
$DIMPOST
  1

  9
$DIMAPOST
  1

  9
$DIMALT
 70
     0
  9
$DIMALTD
 70
     3
  9
$DIMALTF
 40
0.0393700787
  9
$DIMLFAC
 40
1.0
  9
$DIMTOFL
 70
     1
  9
$DIMTVP
 40
0.0
  9
$DIMTIX
 70
     0
  9
$DIMSOXD
 70
     0
  9
$DIMSAH
 70
     0
  9
$DIMBLK1
  1

  9
$DIMBLK2
  1

  9
$DIMSTYLE
  2
ISO-25
  9
$DIMCLRD
 70
     0
  9
$DIMCLRE
 70
     0
  9
$DIMCLRT
 70
     0
  9
$DIMTFAC
 40
1.0
  9
$DIMGAP
 40
2.1771428571
  9
$DIMJUST
 70
     0
  9
$DIMSD1
 70
     0
  9
$DIMSD2
 70
     0
  9
$DIMTOLJ
 70
     0
  9
$DIMTZIN
 70
     0
  9
$DIMALTZ
 70
     0
  9
$DIMALTTZ
 70
     0
  9
$DIMUPT
 70
     0
  9
$DIMDEC
 70
     2
  9
$DIMTDEC
 70
     2
  9
$DIMALTU
 70
     2
  9
$DIMALTTD
 70
     3
  9
$DIMTXSTY
  7
Standard
  9
$DIMAUNIT
 70
     0
  9
$DIMADEC
 70
     2
  9
$DIMALTRND
 40
0.0
  9
$DIMAZIN
 70
     0
  9
$DIMDSEP
 70
    44
  9
$DIMATFIT
 70
     3
  9
$DIMFRAC
 70
     0
  9
$DIMLDRBLK
  1

  9
$DIMLUNIT
 70
     2
  9
$DIMLWD
 70
    -2
  9
$DIMLWE
 70
    -2
  9
$DIMTMOVE
 70
     0
  9
$LUNITS
 70
     2
  9
$LUPREC
 70
     2
  9
$SKETCHINC
 40
1.0
  9
$FILLETRAD
 40
10.0
  9
$AUNITS
 70
     1
  9
$AUPREC
 70
     2
  9
$MENU
  1
.
  9
$ELEVATION
 40
0.0
  9
$PELEVATION
 40
0.0
  9
$THICKNESS
 40
0.0
  9
$LIMCHECK
 70
     0
  9
$CHAMFERA
 40
0.0
  9
$CHAMFERB
 40
0.0
  9
$CHAMFERC
 40
0.0
  9
$CHAMFERD
 40
0.0
  9
$SKPOLY
 70
     0
  9
$TDCREATE
 40
2458601.668333275
  9
$TDUCREATE
 40
2458601.439166609
  9
$TDUPDATE
 40
2458601.668334085
  9
$TDUUPDATE
 40
2458601.439167419
  9
$TDINDWG
 40
0.0000000116
  9
$TDUSRTIMER
 40
0.0000000116
  9
$USRTIMER
 70
     1
  9
$ANGBASE
 50
0.0
  9
$ANGDIR
 70
     0
  9
$PDMODE
 70
     0
  9
$PDSIZE
 40
-1.0
  9
$PLINEWID
 40
0.0
  9
$SPLFRAME
 70
     0
  9
$SPLINETYPE
 70
     6
  9
$SPLINESEGS
 70
     8
  9
$HANDSEED
  5
144
  9
$SURFTAB1
 70
     6
  9
$SURFTAB2
 70
     6
  9
$SURFTYPE
 70
     6
  9
$SURFU
 70
     6
  9
$SURFV
 70
     6
  9
$UCSBASE
  2

  9
$UCSNAME
  2

  9
$UCSORG
 10
0.0
 20
0.0
 30
0.0
  9
$UCSXDIR
 10
1.0
 20
0.0
 30
0.0
  9
$UCSYDIR
 10
0.0
 20
1.0
 30
0.0
  9
$UCSORTHOREF
  2

  9
$UCSORTHOVIEW
 70
     0
  9
$UCSORGTOP
 10
0.0
 20
0.0
 30
0.0
  9
$UCSORGBOTTOM
 10
0.0
 20
0.0
 30
0.0
  9
$UCSORGLEFT
 10
0.0
 20
0.0
 30
0.0
  9
$UCSORGRIGHT
 10
0.0
 20
0.0
 30
0.0
  9
$UCSORGFRONT
 10
0.0
 20
0.0
 30
0.0
  9
$UCSORGBACK
 10
0.0
 20
0.0
 30
0.0
  9
$PUCSBASE
  2

  9
$PUCSNAME
  2

  9
$PUCSORG
 10
0.0
 20
0.0
 30
0.0
  9
$PUCSXDIR
 10
1.0
 20
0.0
 30
0.0
  9
$PUCSYDIR
 10
0.0
 20
1.0
 30
0.0
  9
$PUCSORTHOREF
  2

  9
$PUCSORTHOVIEW
 70
     0
  9
$PUCSORGTOP
 10
0.0
 20
0.0
 30
0.0
  9
$PUCSORGBOTTOM
 10
0.0
 20
0.0
 30
0.0
  9
$PUCSORGLEFT
 10
0.0
 20
0.0
 30
0.0
  9
$PUCSORGRIGHT
 10
0.0
 20
0.0
 30
0.0
  9
$PUCSORGFRONT
 10
0.0
 20
0.0
 30
0.0
  9
$PUCSORGBACK
 10
0.0
 20
0.0
 30
0.0
  9
$USERI1
 70
     0
  9
$USERI2
 70
     0
  9
$USERI3
 70
     0
  9
$USERI4
 70
     0
  9
$USERI5
 70
     0
  9
$USERR1
 40
0.0
  9
$USERR2
 40
0.0
  9
$USERR3
 40
0.0
  9
$USERR4
 40
0.0
  9
$USERR5
 40
0.0
  9
$WORLDVIEW
 70
     1
  9
$SHADEDGE
 70
     3
  9
$SHADEDIF
 70
    70
  9
$TILEMODE
 70
     1
  9
$MAXACTVP
 70
    64
  9
$PINSBASE
 10
0.0
 20
0.0
 30
0.0
  9
$PLIMCHECK
 70
     0
  9
$PEXTMIN
 10
1.0000000000E+20
 20
1.0000000000E+20
 30
1.0000000000E+20
  9
$PEXTMAX
 10
-1.0000000000E+20
 20
-1.0000000000E+20
 30
-1.0000000000E+20
  9
$PLIMMIN
 10
0.0
 20
0.0
  9
$PLIMMAX
 10
420.0
 20
297.0
  9
$UNITMODE
 70
     0
  9
$VISRETAIN
 70
     1
  9
$PLINEGEN
 70
     0
  9
$PSLTSCALE
 70
     1
  9
$TREEDEPTH
 70
  3020
  9
$CMLSTYLE
  2
Standard
  9
$CMLJUST
 70
     0
  9
$CMLSCALE
 40
20.0
  9
$PROXYGRAPHICS
 70
     1
  9
$MEASUREMENT
 70
     1
  9
$CELWEIGHT
370
    -1
  9
$ENDCAPS
280
     0
  9
$JOINSTYLE
280
     0
  9
$LWDISPLAY
290
     1
  9
$INSUNITS
 70
     4
  9
$HYPERLINKBASE
  1

  9
$STYLESHEET
  1

  9
$XEDIT
290
     1
  9
$CEPSNTYPE
380
     0
  9
$PSTYLEMODE
290
     1
  9
$FINGERPRINTGUID
  2
{07B572C9-A293-4506-A257-7C24E70B47D4}
  9
$VERSIONGUID
  2
{FAEB1C32-E019-11D5-929B-00C0DF256EC4}
  9
$EXTNAMES
290
     1
  9
$PSVPSCALE
 40
0.0
  9
$OLESTARTUP
290
     0
  0
ENDSEC
  0
SECTION
  2
CLASSES
  0
CLASS
  1
ACDBDICTIONARYWDFLT
  2
AcDbDictionaryWithDefault
  3
ObjectDBX Classes
 90
        0
280
     0
281
     0
  0
CLASS
  1
VISUALSTYLE
  2
AcDbVisualStyle
  3
ObjectDBX Classes
 90
     4095
280
     0
281
     0
  0
CLASS
  1
MATERIAL
  2
AcDbMaterial
  3
ObjectDBX Classes
 90
     1153
280
     0
281
     0
  0
CLASS
  1
SCALE
  2
AcDbScale
  3
ObjectDBX Classes
 90
     1153
280
     0
281
     0
  0
CLASS
  1
SUN
  2
AcDbSun
  3
SCENEOE
 90
     1153
280
     0
281
     0
  0
CLASS
  1
ACDBPLACEHOLDER
  2
AcDbPlaceHolder
  3
ObjectDBX Classes
 90
        0
280
     0
281
     0
  0
CLASS
  1
LAYOUT
  2
AcDbLayout
  3
ObjectDBX Classes
 90
        0
280
     0
281
     0
  0
ENDSEC
  0
SECTION
  2
TABLES
  0
TABLE
  2
VPORT
  5
8
330
0
100
AcDbSymbolTable
 70
     1
  0
VPORT
  5
29
330
8
100
AcDbSymbolTableRecord
100
AcDbViewportTableRecord
  2
*Active
 70
     0
 10
0.0
 20
0.0
 11
1.0
 21
1.0
 12
212.1428571429
 22
150.0
 13
0.0
 23
0.0
 14
10.0
 24
10.0
 15
10.0
 25
10.0
 16
0.0
 26
0.0
 36
1.0
 17
0.0
 27
0.0
 37
0.0
 40
300.0
 41
1.4142857143
 42
50.0
 43
0.0
 44
0.0
 50
0.0
 51
0.0
 71
     0
 72
  2000
 73
     1
 74
     3
 75
     0
 76
     0
 77
     0
 78
     0
281
     0
 65
     1
110
0.0
120
0.0
130
0.0
111
1.0
121
0.0
131
0.0
112
0.0
122
1.0
132
0.0
 79
     0
146
0.0
  0
ENDTAB
  0
TABLE
  2
LTYPE
  5
5
330
0
100
AcDbSymbolTable
 70
     6
  0
LTYPE
  5
14
330
5
100
AcDbSymbolTableRecord
100
AcDbLinetypeTableRecord
  2
ByBlock
 70
     0
  3

 72
    65
 73
     0
 40
0.0
  0
LTYPE
  5
15
330
5
100
AcDbSymbolTableRecord
100
AcDbLinetypeTableRecord
  2
ByLayer
 70
     0
  3

 72
    65
 73
     0
 40
0.0
  0
LTYPE
  5
16
330
5
100
AcDbSymbolTableRecord
100
AcDbLinetypeTableRecord
  2
Continuous
 70
     0
  3
Solid line
 72
    65
 73
     0
 40
0.0
  0
LTYPE
  5
6A
330
5
100
AcDbSymbolTableRecord
100
AcDbLinetypeTableRecord
  2
HIDDEN
 70
     0
  3
Hidden __ __ __ __ __ __ __ __ __ __ __ __ __ __
 72
    65
 73
     2
 40
1.905
 49
1.27
 74
     0
 49
-0.635
 74
     0
  0
LTYPE
  5
6B
330
5
100
AcDbSymbolTableRecord
100
AcDbLinetypeTableRecord
  2
PHANTOM
 70
     0
  3
Phantom ______  __  __  ______  __  __  ______
 72
    65
 73
     6
 40
12.7
 49
6.35
 74
     0
 49
-1.27
 74
     0
 49
1.27
 74
     0
 49
-1.27
 74
     0
 49
1.27
 74
     0
 49
-1.27
 74
     0
  0
LTYPE
  5
6C
330
5
100
AcDbSymbolTableRecord
100
AcDbLinetypeTableRecord
  2
CENTER
 70
     0
  3
Center ____ _ ____ _ ____ _ ____ _ ____ _ ____
 72
    65
 73
     4
 40
10.16
 49
6.35
 74
     0
 49
-1.27
 74
     0
 49
1.27
 74
     0
 49
-1.27
 74
     0
  0
LTYPE
  5
6D
330
5
100
AcDbSymbolTableRecord
100
AcDbLinetypeTableRecord
  2
CENTERX2
 70
     0
  3
Center (2x) ________  __  ________  __  _____
 72
    65
 73
     4
 40
20.32
 49
12.7
 74
     0
 49
-2.54
 74
     0
 49
2.54
 74
     0
 49
-2.54
 74
     0
  0
LTYPE
  5
6E
330
5
100
AcDbSymbolTableRecord
100
AcDbLinetypeTableRecord
  2
DOT2
 70
     0
  3
Dot (.5x) ........................................
 72
    65
 73
     2
 40
0.635
 49
0.0
 74
     0
 49
-0.635
 74
     0
  0
ENDTAB
  0
TABLE
  2
LAYER
  5
2
330
0
100
AcDbSymbolTable
 70
     8
  0
LAYER
  5
10
330
2
100
AcDbSymbolTableRecord
100
AcDbLayerTableRecord
  2
0
 70
     0
 62
     7
  6
Continuous
370
    -3
390
F
  0
LAYER
  5
6F
330
2
100
AcDbSymbolTableRecord
100
AcDbLayerTableRecord
  2
FORMAT
 70
     0
 62
     7
  6
Continuous
370
    -3
390
F
  0
LAYER
  5
70
330
2
100
AcDbSymbolTableRecord
100
AcDbLayerTableRecord
  2
SLD-0
 70
     0
 62
     2
  6
Continuous
370
    -3
390
F
  0
LAYER
  5
71
330
2
100
AcDbSymbolTableRecord
100
AcDbLayerTableRecord
  2
DIM
 70
     0
 62
   179
  6
Continuous
370
    -3
390
F
  0
LAYER
  5
72
330
2
100
AcDbSymbolTableRecord
100
AcDbLayerTableRecord
  2
SLD-DEFPOINTS
 70
     0
 62
   179
  6
Continuous
370
    -3
390
F
  0
LAYER
  5
73
330
2
100
AcDbSymbolTableRecord
100
AcDbLayerTableRecord
  2
HAT
 70
     0
 62
   135
  6
Continuous
370
    -3
390
F
  0
LAYER
  5
74
330
2
100
AcDbSymbolTableRecord
100
AcDbLayerTableRecord
  2
JOB
 70
     0
 62
   201
  6
Continuous
370
    -3
390
F
  0
LAYER
  5
75
330
2
100
AcDbSymbolTableRecord
100
AcDbLayerTableRecord
  2
INSPECTION_REPORT
 70
     0
 62
   255
  6
Continuous
370
    -3
390
F
  0
ENDTAB
  0
TABLE
  2
STYLE
  5
3
330
0
100
AcDbSymbolTable
 70
     4
  0
STYLE
  5
11
330
3
100
AcDbSymbolTableRecord
100
AcDbTextStyleTableRecord
  2
Standard
 70
     0
 40
0.0
 41
1.0
 50
0.0
 71
     0
 42
5.5436507937
  3
txt
  4

  0
STYLE
  5
96
330
3
100
AcDbSymbolTableRecord
100
AcDbTextStyleTableRecord
  2
SLDTEXTSTYLE0
 70
     0
 40
0.0
 41
0.7
 50
0.0
 71
     0
 42
5.5436507937
  3
TXT
  4

  0
STYLE
  5
98
330
3
100
AcDbSymbolTableRecord
100
AcDbTextStyleTableRecord
  2
SLDTEXTSTYLE1
 70
     0
 40
0.0
 41
0.75
 50
0.0
 71
     0
 42
5.5436507937
  3
TXT
  4

  0
STYLE
  5
AB
330
3
100
AcDbSymbolTableRecord
100
AcDbTextStyleTableRecord
  2
SLDTEXTSTYLE2
 70
     0
 40
0.0
 41
0.6875
 50
0.0
 71
     0
 42
5.5436507937
  3
TXT
  4

  0
ENDTAB
  0
TABLE
  2
VIEW
  5
6
330
0
100
AcDbSymbolTable
 70
     0
  0
ENDTAB
  0
TABLE
  2
UCS
  5
7
330
0
100
AcDbSymbolTable
 70
     0
  0
ENDTAB
  0
TABLE
  2
APPID
  5
9
330
0
100
AcDbSymbolTable
 70
     1
  0
APPID
  5
12
330
9
100
AcDbSymbolTableRecord
100
AcDbRegAppTableRecord
  2
ACAD
 70
     0
  0
ENDTAB
  0
TABLE
  2
DIMSTYLE
  5
A
330
0
100
AcDbSymbolTable
 70
     3
100
AcDbDimStyleTable
  0
DIMSTYLE
105
27
330
A
100
AcDbSymbolTableRecord
100
AcDbDimStyleTableRecord
  2
ISO-25
 70
     0
 41
2.5
 42
0.625
 43
3.75
 44
1.25
 73
     0
 74
     0
 77
     1
 78
     8
140
2.5
141
2.5
143
0.0393700787
147
0.625
171
     3
172
     1
178
     0
271
     2
272
     2
274
     3
278
    44
283
     0
284
     8
340
11
  0
DIMSTYLE
105
118
102
{ACAD_REACTORS
330
117
330
12E
102
}
330
A
100
AcDbSymbolTableRecord
100
AcDbDimStyleTableRecord
  2
SLDDIMSTYLE0
 70
     0
 41
4.7171428571
 44
0.0
 45
0.000000001
 73
     0
 74
     0
 77
     1
 78
    12
 79
     3
140
4.1577380952
144
1.0
147
1.0394345238
173
     1
178
     0
271
     2
272
     2
276
     2
284
    12
340
96
  0
DIMSTYLE
105
124
102
{ACAD_REACTORS
330
123
330
138
102
}
330
A
100
AcDbSymbolTableRecord
100
AcDbDimStyleTableRecord
  2
SLDDIMSTYLE1
 70
     0
 41
4.7171428571
 44
0.0
 45
0.000000001
 73
     0
 74
     0
 77
     1
 78
     4
 79
     1
140
4.1577380952
144
1.0
147
1.0394345238
173
     1
178
     0
271
     2
272
     2
276
     2
284
    12
340
96
  0
ENDTAB
  0
TABLE
  2
BLOCK_RECORD
  5
1
330
0
100
AcDbSymbolTable
 70
     6
  0
BLOCK_RECORD
  5
1F
330
1
100
AcDbSymbolTableRecord
100
AcDbBlockTableRecord
  2
*Model_Space
340
22
  0
BLOCK_RECORD
  5
1B
330
1
100
AcDbSymbolTableRecord
100
AcDbBlockTableRecord
  2
*Paper_Space
340
1E
  0
BLOCK_RECORD
  5
23
330
1
100
AcDbSymbolTableRecord
100
AcDbBlockTableRecord
  2
*Paper_Space0
340
26
  0
BLOCK_RECORD
  5
C6
330
1
100
AcDbSymbolTableRecord
100
AcDbBlockTableRecord
  2
SW_CENTERMARKSYMBOL_0
340
0
102
{BLKREFS
331
D1
102
}
  0
BLOCK_RECORD
  5
119
330
1
100
AcDbSymbolTableRecord
100
AcDbBlockTableRecord
  2
_D
340
0
  0
BLOCK_RECORD
  5
125
330
1
100
AcDbSymbolTableRecord
100
AcDbBlockTableRecord
  2
_D_1
340
0
  0
BLOCK_RECORD
  5
12F
330
1
100
AcDbSymbolTableRecord
100
AcDbBlockTableRecord
  2
_D_2
340
0
  0
BLOCK_RECORD
  5
139
330
1
100
AcDbSymbolTableRecord
100
AcDbBlockTableRecord
  2
_D_3
340
0
  0
ENDTAB
  0
ENDSEC
  0
SECTION
  2
BLOCKS
  0
BLOCK
  5
20
330
1F
100
AcDbEntity
  8
0
100
AcDbBlockBegin
  2
*Model_Space
 70
     0
 10
0.0
 20
0.0
 30
0.0
  3
*Model_Space
  1
*Model_Space
  0
ENDBLK
  5
21
330
1F
100
AcDbEntity
  8
0
100
AcDbBlockEnd
  0
BLOCK
  5
1C
330
1B
100
AcDbEntity
 67
     1
  8
0
100
AcDbBlockBegin
  2
*Paper_Space
 70
     0
 10
0.0
 20
0.0
 30
0.0
  3
*Paper_Space
  1
*Paper_Space
  0
ENDBLK
  5
1D
330
1B
100
AcDbEntity
 67
     1
  8
0
100
AcDbBlockEnd
  0
BLOCK
  5
24
330
23
100
AcDbEntity
  8
0
100
AcDbBlockBegin
  2
*Paper_Space0
 70
     0
 10
0.0
 20
0.0
 30
0.0
  3
*Paper_Space0
  1
*Paper_Space0
  0
ENDBLK
  5
25
330
23
100
AcDbEntity
  8
0
100
AcDbBlockEnd
  0
BLOCK
  5
C7
330
C6
100
AcDbEntity
  8
0
100
AcDbBlockBegin
  2
SW_CENTERMARKSYMBOL_0
 70
     0
 10
0.0
 20
0.0
 30
0.0
  3
SW_CENTERMARKSYMBOL_0
  1
SW_CENTERMARKSYMBOL_0
  0
LINE
  5
C9
330
C6
100
AcDbEntity
  8
DIM
 62
     0
100
AcDbLine
 10
0.0
 20
0.0
 30
0.0
 11
0.0
 21
2.5
 31
0.0
  0
LINE
  5
CA
330
C6
100
AcDbEntity
  8
DIM
 62
     0
100
AcDbLine
 10
0.0
 20
0.0
 30
0.0
 11
-2.5
 21
0.0
 31
0.0
  0
LINE
  5
CB
330
C6
100
AcDbEntity
  8
DIM
 62
     0
100
AcDbLine
 10
0.0
 20
0.0
 30
0.0
 11
0.0
 21
-2.5
 31
0.0
  0
LINE
  5
CC
330
C6
100
AcDbEntity
  8
DIM
 62
     0
100
AcDbLine
 10
0.0
 20
0.0
 30
0.0
 11
2.5
 21
0.0
 31
0.0
  0
LINE
  5
CD
330
C6
100
AcDbEntity
  8
DIM
 62
     0
100
AcDbLine
 10
0.0
 20
5.0
 30
0.0
 11
0.0
 21
34.25
 31
0.0
  0
LINE
  5
CE
330
C6
100
AcDbEntity
  8
DIM
 62
     0
100
AcDbLine
 10
-5.0
 20
0.0
 30
0.0
 11
-34.25
 21
0.0
 31
0.0
  0
LINE
  5
CF
330
C6
100
AcDbEntity
  8
DIM
 62
     0
100
AcDbLine
 10
0.0
 20
-5.0
 30
0.0
 11
0.0
 21
-34.25
 31
0.0
  0
LINE
  5
D0
330
C6
100
AcDbEntity
  8
DIM
 62
     0
100
AcDbLine
 10
5.0
 20
0.0
 30
0.0
 11
34.25
 21
0.0
 31
0.0
  0
ENDBLK
  5
C8
330
C6
100
AcDbEntity
  8
0
100
AcDbBlockEnd
  0
BLOCK
  5
11A
330
119
100
AcDbEntity
  8
0
100
AcDbBlockBegin
  2
_D
 70
     0
 10
0.0
 20
0.0
 30
0.0
  3
_D
  1
_D
  0
SOLID
  5
11C
330
119
100
AcDbEntity
  8
DIM
100
AcDbTrace
 10
344.8882530408
 20
191.1467179997
 30
0.0
 11
344.1625387551
 21
186.4295751425
 31
0.0
 12
345.6139673265
 22
186.4295751425
 32
0.0
 13
345.6139673265
 23
186.4295751425
 33
0.0
  0
SOLID
  5
11D
330
119
100
AcDbEntity
  8
DIM
100
AcDbTrace
 10
344.8882530408
 20
119.1467179997
 30
0.0
 11
345.6139673265
 21
123.8638608568
 31
0.0
 12
344.1625387551
 22
123.8638608568
 32
0.0
 13
344.1625387551
 23
123.8638608568
 33
0.0
  0
LINE
  5
11E
330
119
100
AcDbEntity
  8
DIM
100
AcDbLine
 10
329.4390305736
 20
191.1467179997
 30
0.0
 11
346.3168244694
 21
191.1467179997
 31
0.0
  0
LINE
  5
11F
330
119
100
AcDbEntity
  8
DIM
100
AcDbLine
 10
329.4390305736
 20
119.1467179997
 30
0.0
 11
346.3168244694
 21
119.1467179997
 31
0.0
  0
LINE
  5
120
330
119
100
AcDbEntity
  8
DIM
100
AcDbLine
 10
344.8882530408
 20
191.1467179997
 30
0.0
 11
344.8882530408
 21
119.1467179997
 31
0.0
  0
MTEXT
  5
121
330
119
100
AcDbEntity
  8
DIM
100
AcDbMText
 10
339.5286466592
 20
149.1216549927
 30
0.0
 40
4.1577380952
 41
0.0
 71
     1
 72
     1
  1
%%c
  7
SLDTEXTSTYLE0
 11
-7.044195017643634E-15
 21
1.0
 31
0.0
 73
     1
 44
1.0
  0
MTEXT
  5
122
330
119
100
AcDbEntity
  8
DIM
100
AcDbMText
 10
339.5286466592
 20
155.5511348493
 30
0.0
 40
4.1577380952
 41
0.0
 71
     1
 72
     1
  1
72
  7
SLDTEXTSTYLE0
 11
-7.044195017643634E-15
 21
1.0
 31
0.0
 73
     1
 44
1.0
  0
ENDBLK
  5
11B
330
119
100
AcDbEntity
  8
0
100
AcDbBlockEnd
  0
BLOCK
  5
126
330
125
100
AcDbEntity
  8
0
100
AcDbBlockBegin
  2
_D_1
 70
     0
 10
0.0
 20
0.0
 30
0.0
  3
_D_1
  1
_D_1
  0
SOLID
  5
128
330
125
100
AcDbEntity
  8
DIM
100
AcDbTrace
 10
167.610459145
 20
96.2895751425
 30
0.0
 11
172.3276020021
 21
95.5638608568
 31
0.0
 12
172.3276020021
 22
97.0152894283
 32
0.0
 13
172.3276020021
 23
97.0152894283
 33
0.0
  0
SOLID
  5
129
330
125
100
AcDbEntity
  8
DIM
100
AcDbTrace
 10
336.010459145
 20
96.2895751425
 30
0.0
 11
331.2933162878
 21
97.0152894283
 31
0.0
 12
331.2933162878
 22
95.5638608568
 32
0.0
 13
331.2933162878
 23
95.5638608568
 33
0.0
  0
LINE
  5
12A
330
125
100
AcDbEntity
  8
DIM
100
AcDbLine
 10
167.610459145
 20
153.7181465711
 30
0.0
 11
167.610459145
 21
94.861003714
 31
0.0
  0
LINE
  5
12B
330
125
100
AcDbEntity
  8
DIM
100
AcDbLine
 10
336.010459145
 20
125.7181465711
 30
0.0
 11
336.010459145
 21
94.861003714
 31
0.0
  0
LINE
  5
12C
330
125
100
AcDbEntity
  8
DIM
100
AcDbLine
 10
167.610459145
 20
96.2895751425
 30
0.0
 11
336.010459145
 21
96.2895751425
 31
0.0
  0
MTEXT
  5
12D
330
125
100
AcDbEntity
  8
DIM
100
AcDbMText
 10
244.0454979736
 20
101.6491815242
 30
0.0
 40
4.1577380952
 41
0.0
 71
     1
 72
     1
  1
168.40
  7
SLDTEXTSTYLE0
 73
     1
 44
1.0
  0
ENDBLK
  5
127
330
125
100
AcDbEntity
  8
0
100
AcDbBlockEnd
  0
BLOCK
  5
130
330
12F
100
AcDbEntity
  8
0
100
AcDbBlockBegin
  2
_D_2
 70
     0
 10
0.0
 20
0.0
 30
0.0
  3
_D_2
  1
_D_2
  0
SOLID
  5
132
330
12F
100
AcDbEntity
  8
DIM
100
AcDbTrace
 10
236.010459145
 20
104.5163171703
 30
0.0
 11
240.7276020021
 21
103.7906028846
 31
0.0
 12
240.7276020021
 22
105.242031456
 32
0.0
 13
240.7276020021
 23
105.242031456
 33
0.0
  0
SOLID
  5
133
330
12F
100
AcDbEntity
  8
DIM
100
AcDbTrace
 10
336.010459145
 20
104.5163171703
 30
0.0
 11
331.2933162878
 21
105.242031456
 31
0.0
 12
331.2933162878
 22
103.7906028846
 32
0.0
 13
331.2933162878
 23
103.7906028846
 33
0.0
  0
LINE
  5
134
330
12F
100
AcDbEntity
  8
DIM
100
AcDbLine
 10
236.010459145
 20
131.4931465711
 30
0.0
 11
236.010459145
 21
103.0877457418
 31
0.0
  0
LINE
  5
135
330
12F
100
AcDbEntity
  8
DIM
100
AcDbLine
 10
336.010459145
 20
125.7181465711
 30
0.0
 11
336.010459145
 21
103.0877457418
 31
0.0
  0
LINE
  5
136
330
12F
100
AcDbEntity
  8
DIM
100
AcDbLine
 10
236.010459145
 20
104.5163171703
 30
0.0
 11
336.010459145
 21
104.5163171703
 31
0.0
  0
MTEXT
  5
137
330
12F
100
AcDbEntity
  8
DIM
100
AcDbMText
 10
281.7949745269
 20
109.8759235519
 30
0.0
 40
4.1577380952
 41
0.0
 71
     1
 72
     1
  1
100
  7
SLDTEXTSTYLE0
 73
     1
 44
1.0
  0
ENDBLK
  5
131
330
12F
100
AcDbEntity
  8
0
100
AcDbBlockEnd
  0
BLOCK
  5
13A
330
139
100
AcDbEntity
  8
0
100
AcDbBlockBegin
  2
_D_3
 70
     0
 10
0.0
 20
0.0
 30
0.0
  3
_D_3
  1
_D_3
  0
SOLID
  5
13C
330
139
100
AcDbEntity
  8
DIM
100
AcDbTrace
 10
162.8337182273
 20
186.8967179997
 30
0.0
 11
162.1080039416
 21
182.1795751425
 31
0.0
 12
163.5594325131
 22
182.1795751425
 32
0.0
 13
163.5594325131
 23
182.1795751425
 33
0.0
  0
SOLID
  5
13D
330
139
100
AcDbEntity
  8
DIM
100
AcDbTrace
 10
162.8337182273
 20
123.3967179997
 30
0.0
 11
163.5594325131
 21
128.1138608568
 31
0.0
 12
162.1080039416
 22
128.1138608568
 32
0.0
 13
162.1080039416
 23
128.1138608568
 33
0.0
  0
LINE
  5
13E
330
139
100
AcDbEntity
  8
DIM
100
AcDbLine
 10
238.7818877164
 20
186.8967179997
 30
0.0
 11
161.4051467988
 21
186.8967179997
 31
0.0
  0
LINE
  5
13F
330
139
100
AcDbEntity
  8
DIM
100
AcDbLine
 10
238.7818877164
 20
123.3967179997
 30
0.0
 11
161.4051467988
 21
123.3967179997
 31
0.0
  0
LINE
  5
140
330
139
100
AcDbEntity
  8
DIM
100
AcDbLine
 10
162.8337182273
 20
186.8967179997
 30
0.0
 11
162.8337182273
 21
123.3967179997
 31
0.0
  0
MTEXT
  5
141
330
139
100
AcDbEntity
  8
DIM
100
AcDbMText
 10
157.4741118457
 20
145.5721784394
 30
0.0
 40
4.1577380952
 41
0.0
 71
     1
 72
     1
  1
%%c
  7
SLDTEXTSTYLE0
 11
-7.044195017643634E-15
 21
1.0
 31
0.0
 73
     1
 44
1.0
  0
MTEXT
  5
142
330
139
100
AcDbEntity
  8
DIM
100
AcDbMText
 10
157.4741118457
 20
152.001658296
 30
0.0
 40
4.1577380952
 41
0.0
 71
     1
 72
     1
  1
63.50
  7
SLDTEXTSTYLE0
 11
-7.044195017643634E-15
 21
1.0
 31
0.0
 73
     1
 44
1.0
  0
ENDBLK
  5
13B
330
139
100
AcDbEntity
  8
0
100
AcDbBlockEnd
  0
ENDSEC
  0
SECTION
  2
ENTITIES
  0
LINE
  5
76
330
1F
100
AcDbEntity
  8
DIM
100
AcDbLine
 10
149.5777495557
 20
13.9871306526
 30
0.0
 11
149.5777495557
 21
6.8442735098
 31
0.0
  0
LINE
  5
77
330
1F
100
AcDbEntity
  8
DIM
100
AcDbLine
 10
363.5280024219
 20
13.9871306526
 30
0.0
 11
363.5280024219
 21
6.8442735098
 31
0.0
  0
LINE
  5
78
330
1F
100
AcDbEntity
  8
DIM
100
AcDbLine
 10
339.2167284737
 20
13.9871306526
 30
0.0
 11
339.2167284737
 21
6.8442735098
 31
0.0
  0
LINE
  5
79
330
1F
100
AcDbEntity
  8
DIM
100
AcDbLine
 10
398.4348924129
 20
6.8442735098
 30
0.0
 11
398.4348924129
 21
13.9871306526
 31
0.0
  0
LINE
  5
7A
330
1F
100
AcDbEntity
  8
DIM
100
AcDbLine
 10
160.7206066986
 20
13.9871306526
 30
0.0
 11
160.7206066986
 21
6.8442735098
 31
0.0
  0
LINE
  5
7B
330
1F
100
AcDbEntity
  8
DIM
100
AcDbLine
 10
188.1362530326
 20
13.9871306526
 30
0.0
 11
188.1362530326
 21
6.8442735098
 31
0.0
  0
LINE
  5
7C
330
1F
100
AcDbEntity
  8
DIM
100
AcDbLine
 10
417.0063209843
 20
6.8442735098
 30
0.0
 11
417.0063209843
 21
110.0585592241
 31
0.0
  0
LINE
  5
7D
330
1F
100
AcDbEntity
  8
DIM
100
AcDbLine
 10
408.3128638495
 20
85.7728449384
 30
0.0
 11
417.0063209843
 21
85.7728449384
 31
0.0
  0
LINE
  5
7E
330
1F
100
AcDbEntity
  8
DIM
100
AcDbLine
 10
213.0047869322
 20
12.9157020812
 30
0.0
 11
213.0047869322
 21
6.8442735098
 31
0.0
  0
LINE
  5
7F
330
1F
100
AcDbEntity
  8
DIM
100
AcDbLine
 10
281.0913559435
 20
13.9871306526
 30
0.0
 11
281.0913559435
 21
6.8442735098
 31
0.0
  0
LINE
  5
80
330
1F
100
AcDbEntity
  8
DIM
100
AcDbLine
 10
213.0047869322
 20
13.9871306526
 30
0.0
 11
213.0047869322
 21
12.9157020812
 31
0.0
  0
LINE
  5
81
330
1F
100
AcDbEntity
  8
DIM
100
AcDbLine
 10
409.8634638414
 20
25.0584563669
 30
0.0
 11
417.0063209843
 21
25.0584563669
 31
0.0
  0
LINE
  5
82
330
1F
100
AcDbEntity
  8
DIM
100
AcDbLine
 10
409.8634638414
 20
285.4157020812
 30
0.0
 11
14.1491781271
 21
285.4157020812
 31
0.0
  0
LINE
  5
83
330
1F
100
AcDbEntity
  8
DIM
100
AcDbLine
 10
417.0063209843
 20
292.5585592241
 30
0.0
 11
7.0063209843
 21
292.5585592241
 31
0.0
  0
LINE
  5
84
330
1F
100
AcDbEntity
  8
DIM
100
AcDbLine
 10
14.1491781271
 20
285.4157020812
 30
0.0
 11
14.1491781271
 21
13.9871306526
 31
0.0
  0
LINE
  5
85
330
1F
100
AcDbEntity
  8
DIM
100
AcDbLine
 10
7.0063209843
 20
292.5585592241
 30
0.0
 11
7.0063209843
 21
6.8442735098
 31
0.0
  0
LINE
  5
86
330
1F
100
AcDbEntity
  8
DIM
100
AcDbLine
 10
14.1491781271
 20
78.2728449384
 30
0.0
 11
7.0063209843
 21
78.2728449384
 31
0.0
  0
LINE
  5
87
330
1F
100
AcDbEntity
  8
DIM
100
AcDbLine
 10
7.0063209843
 20
149.7014163669
 30
0.0
 11
14.1491781271
 21
149.7014163669
 31
0.0
  0
LINE
  5
88
330
1F
100
AcDbEntity
  8
DIM
100
AcDbLine
 10
7.0063209843
 20
6.8442735098
 30
0.0
 11
417.0063209843
 21
6.8442735098
 31
0.0
  0
LINE
  5
89
330
1F
100
AcDbEntity
  8
DIM
100
AcDbLine
 10
14.1491781271
 20
13.9871306526
 30
0.0
 11
417.0063209843
 21
13.9871306526
 31
0.0
  0
LINE
  5
8A
330
1F
100
AcDbEntity
  8
DIM
100
AcDbLine
 10
69.1491781271
 20
6.8442735098
 30
0.0
 11
69.1491781271
 21
13.9871306526
 31
0.0
  0
LINE
  5
8B
330
1F
100
AcDbEntity
  8
DIM
100
AcDbLine
 10
140.5777495557
 20
13.9871306526
 30
0.0
 11
140.5777495557
 21
6.8442735098
 31
0.0
  0
LINE
  5
8C
330
1F
100
AcDbEntity
  8
DIM
100
AcDbLine
 10
14.1491781271
 20
221.1299877955
 30
0.0
 11
7.0063209843
 21
221.1299877955
 31
0.0
  0
LINE
  5
8D
330
1F
100
AcDbEntity
  8
DIM
100
AcDbLine
 10
69.1491781271
 20
285.4157020812
 30
0.0
 11
69.1491781271
 21
292.5585592241
 31
0.0
  0
LINE
  5
8E
330
1F
100
AcDbEntity
  8
DIM
100
AcDbLine
 10
140.5777495557
 20
292.5585592241
 30
0.0
 11
140.5777495557
 21
285.4157020812
 31
0.0
  0
LINE
  5
8F
330
1F
100
AcDbEntity
  8
DIM
100
AcDbLine
 10
212.0063209843
 20
292.5585592241
 30
0.0
 11
212.0063209843
 21
285.4157020812
 31
0.0
  0
LINE
  5
90
330
1F
100
AcDbEntity
  8
DIM
100
AcDbLine
 10
409.8634638414
 20
13.9871306526
 30
0.0
 11
409.8634638414
 21
285.4157020812
 31
0.0
  0
LINE
  5
91
330
1F
100
AcDbEntity
  8
DIM
100
AcDbLine
 10
417.0063209843
 20
110.0585592241
 30
0.0
 11
417.0063209843
 21
292.5585592241
 31
0.0
  0
LINE
  5
92
330
1F
100
AcDbEntity
  8
DIM
100
AcDbLine
 10
417.0063209843
 20
149.7014163669
 30
0.0
 11
409.8634638414
 21
149.7014163669
 31
0.0
  0
LINE
  5
93
330
1F
100
AcDbEntity
  8
DIM
100
AcDbLine
 10
283.4348924129
 20
292.5585592241
 30
0.0
 11
283.4348924129
 21
285.4157020812
 31
0.0
  0
LINE
  5
94
330
1F
100
AcDbEntity
  8
DIM
100
AcDbLine
 10
354.8634638414
 20
285.4157020812
 30
0.0
 11
354.8634638414
 21
292.5585592241
 31
0.0
  0
LINE
  5
95
330
1F
100
AcDbEntity
  8
DIM
100
AcDbLine
 10
409.8634638414
 20
221.1299877955
 30
0.0
 11
417.0063209843
 21
221.1299877955
 31
0.0
  0
MTEXT
  5
97
330
1F
100
AcDbEntity
  8
DIM
100
AcDbMText
 10
18.2462024792
 20
276.9889321903
 30
0.0
 40
6.0476190476
 41
0.0
 71
     1
 72
     1
  1
SK 40 WE32 100 AD/6.3G15000 SL
  7
SLDTEXTSTYLE0
 73
     1
 44
1.0
  0
MTEXT
  5
99
330
1F
100
AcDbEntity
  8
DIM
 62
     7
100
AcDbMText
 10
282.4753980666
 20
11.1456450376
 30
0.0
 40
2.1408571429
 41
0.0
 71
     1
 72
     1
  1
WEIGHT:
  7
SLDTEXTSTYLE1
 73
     1
 44
1.0
  0
MTEXT
  5
9A
330
1F
100
AcDbEntity
  8
DIM
 62
     7
100
AcDbMText
 10
412.2815382211
 20
117.0580192975
 30
0.0
 40
2.6458333333
 41
0.0
 71
     1
 72
     1
  1
C
  7
SLDTEXTSTYLE1
 73
     1
 44
1.0
  0
MTEXT
  5
9B
330
1F
100
AcDbEntity
  8
DIM
 62
     7
100
AcDbMText
 10
404.3479723135
 20
21.2199742623
 30
0.0
 40
4.1577380952
 41
0.0
 71
     1
 72
     1
  1
A4
  7
SLDTEXTSTYLE1
 73
     1
 44
1.0
  0
MTEXT
  5
9C
330
1F
100
AcDbEntity
  8
DIM
 62
     7
100
AcDbMText
 10
389.3872790795
 20
290.6557255149
 30
0.0
 40
2.6458333333
 41
0.0
 71
     1
 72
     1
  1
6
  7
SLDTEXTSTYLE1
 73
     1
 44
1.0
  0
MTEXT
  5
9D
330
1F
100
AcDbEntity
  8
DIM
 62
     7
100
AcDbMText
 10
317.958707651
 20
290.6557255149
 30
0.0
 40
2.6458333333
 41
0.0
 71
     1
 72
     1
  1
5
  7
SLDTEXTSTYLE1
 73
     1
 44
1.0
  0
MTEXT
  5
9E
330
1F
100
AcDbEntity
  8
DIM
 62
     7
100
AcDbMText
 10
412.244427651
 20
258.512868372
 30
0.0
 40
2.6458333333
 41
0.0
 71
     1
 72
     1
  1
A
  7
SLDTEXTSTYLE1
 73
     1
 44
1.0
  0
MTEXT
  5
9F
330
1F
100
AcDbEntity
  8
DIM
 62
     7
100
AcDbMText
 10
412.244427651
 20
187.0842969434
 30
0.0
 40
2.6458333333
 41
0.0
 71
     1
 72
     1
  1
B
  7
SLDTEXTSTYLE1
 73
     1
 44
1.0
  0
MTEXT
  5
A0
330
1F
100
AcDbEntity
  8
DIM
 62
     7
100
AcDbMText
 10
246.5301362224
 20
290.6557255149
 30
0.0
 40
2.6458333333
 41
0.0
 71
     1
 72
     1
  1
4
  7
SLDTEXTSTYLE1
 73
     1
 44
1.0
  0
MTEXT
  5
A1
330
1F
100
AcDbEntity
  8
DIM
 62
     7
100
AcDbMText
 10
32.8396600319
 20
290.6557255149
 30
0.0
 40
2.6458333333
 41
0.0
 71
     1
 72
     1
  1
1
  7
SLDTEXTSTYLE1
 73
     1
 44
1.0
  0
MTEXT
  5
A2
330
1F
100
AcDbEntity
  8
DIM
 62
     7
100
AcDbMText
 10
103.6729933652
 20
290.6557255149
 30
0.0
 40
2.6458333333
 41
0.0
 71
     1
 72
     1
  1
2
  7
SLDTEXTSTYLE1
 73
     1
 44
1.0
  0
MTEXT
  5
A3
330
1F
100
AcDbEntity
  8
DIM
 62
     7
100
AcDbMText
 10
175.1015647938
 20
290.6557255149
 30
0.0
 40
2.6458333333
 41
0.0
 71
     1
 72
     1
  1
3
  7
SLDTEXTSTYLE1
 73
     1
 44
1.0
  0
MTEXT
  5
A4
330
1F
100
AcDbEntity
  8
DIM
 62
     7
100
AcDbMText
 10
9.3872733652
 20
258.512868372
 30
0.0
 40
2.6458333333
 41
0.0
 71
     1
 72
     1
  1
A
  7
SLDTEXTSTYLE1
 73
     1
 44
1.0
  0
MTEXT
  5
A5
330
1F
100
AcDbEntity
  8
DIM
 62
     7
100
AcDbMText
 10
103.6729933652
 20
12.0842969434
 30
0.0
 40
2.6458333333
 41
0.0
 71
     1
 72
     1
  1
2
  7
SLDTEXTSTYLE1
 73
     1
 44
1.0
  0
MTEXT
  5
A6
330
1F
100
AcDbEntity
  8
DIM
 62
     7
100
AcDbMText
 10
32.8396600319
 20
12.0842969434
 30
0.0
 40
2.6458333333
 41
0.0
 71
     1
 72
     1
  1
1
  7
SLDTEXTSTYLE1
 73
     1
 44
1.0
  0
MTEXT
  5
A7
330
1F
100
AcDbEntity
  8
DIM
 62
     7
100
AcDbMText
 10
9.3872733652
 20
44.2271540863
 30
0.0
 40
2.6458333333
 41
0.0
 71
     1
 72
     1
  1
D
  7
SLDTEXTSTYLE1
 73
     1
 44
1.0
  0
MTEXT
  5
A8
330
1F
100
AcDbEntity
  8
DIM
 62
     7
100
AcDbMText
 10
9.3872733652
 20
115.6557255149
 30
0.0
 40
2.6458333333
 41
0.0
 71
     1
 72
     1
  1
C
  7
SLDTEXTSTYLE1
 73
     1
 44
1.0
  0
MTEXT
  5
A9
330
1F
100
AcDbEntity
  8
DIM
 62
     7
100
AcDbMText
 10
9.3872733652
 20
187.0842969434
 30
0.0
 40
2.6458333333
 41
0.0
 71
     1
 72
     1
  1
B
  7
SLDTEXTSTYLE1
 73
     1
 44
1.0
  0
MTEXT
  5
AA
330
1F
100
AcDbEntity
  8
DIM
 62
     7
100
AcDbMText
 10
412.2815382211
 20
117.0580192975
 30
0.0
 40
2.6458333333
 41
0.0
 71
     1
 72
     1
  1
C
  7
SLDTEXTSTYLE1
 73
     1
 44
1.0
  0
MTEXT
  5
AC
330
1F
100
AcDbEntity
  8
DIM
 62
     7
100
AcDbMText
 10
366.4648083036
 20
10.9872553306
 30
0.0
 40
2.1428571429
 41
0.0
 71
     1
 72
     1
  1
SHEET 1 OF 1
  7
SLDTEXTSTYLE2
 73
     1
 44
1.0
  0
MTEXT
  5
AD
330
1F
100
AcDbEntity
  8
DIM
 62
     7
100
AcDbMText
 10
214.8168291192
 20
11.2190964052
 30
0.0
 40
2.1428571429
 41
0.0
 71
     1
 72
     1
  1
MATERIAL:
  7
SLDTEXTSTYLE1
 73
     1
 44
1.0
  0
MTEXT
  5
AE
330
1F
100
AcDbEntity
  8
DIM
 62
     7
100
AcDbMText
 10
389.3872790795
 20
290.6557255149
 30
0.0
 40
2.6458333333
 41
0.0
 71
     1
 72
     1
  1
6
  7
SLDTEXTSTYLE1
 73
     1
 44
1.0
  0
MTEXT
  5
AF
330
1F
100
AcDbEntity
  8
DIM
 62
     7
100
AcDbMText
 10
317.958707651
 20
290.6557255149
 30
0.0
 40
2.6458333333
 41
0.0
 71
     1
 72
     1
  1
5
  7
SLDTEXTSTYLE1
 73
     1
 44
1.0
  0
MTEXT
  5
B0
330
1F
100
AcDbEntity
  8
DIM
 62
     7
100
AcDbMText
 10
412.244427651
 20
258.512868372
 30
0.0
 40
2.6458333333
 41
0.0
 71
     1
 72
     1
  1
A
  7
SLDTEXTSTYLE1
 73
     1
 44
1.0
  0
MTEXT
  5
B1
330
1F
100
AcDbEntity
  8
DIM
 62
     7
100
AcDbMText
 10
412.244427651
 20
187.0842969434
 30
0.0
 40
2.6458333333
 41
0.0
 71
     1
 72
     1
  1
B
  7
SLDTEXTSTYLE1
 73
     1
 44
1.0
  0
MTEXT
  5
B2
330
1F
100
AcDbEntity
  8
DIM
 62
     7
100
AcDbMText
 10
246.5301362224
 20
290.6557255149
 30
0.0
 40
2.6458333333
 41
0.0
 71
     1
 72
     1
  1
4
  7
SLDTEXTSTYLE1
 73
     1
 44
1.0
  0
MTEXT
  5
B3
330
1F
100
AcDbEntity
  8
DIM
 62
     7
100
AcDbMText
 10
32.8396600319
 20
290.6557255149
 30
0.0
 40
2.6458333333
 41
0.0
 71
     1
 72
     1
  1
1
  7
SLDTEXTSTYLE1
 73
     1
 44
1.0
  0
MTEXT
  5
B4
330
1F
100
AcDbEntity
  8
DIM
 62
     7
100
AcDbMText
 10
103.6729933652
 20
290.6557255149
 30
0.0
 40
2.6458333333
 41
0.0
 71
     1
 72
     1
  1
2
  7
SLDTEXTSTYLE1
 73
     1
 44
1.0
  0
MTEXT
  5
B5
330
1F
100
AcDbEntity
  8
DIM
 62
     7
100
AcDbMText
 10
175.1015647938
 20
290.6557255149
 30
0.0
 40
2.6458333333
 41
0.0
 71
     1
 72
     1
  1
3
  7
SLDTEXTSTYLE1
 73
     1
 44
1.0
  0
MTEXT
  5
B6
330
1F
100
AcDbEntity
  8
DIM
 62
     7
100
AcDbMText
 10
9.3872733652
 20
258.512868372
 30
0.0
 40
2.6458333333
 41
0.0
 71
     1
 72
     1
  1
A
  7
SLDTEXTSTYLE1
 73
     1
 44
1.0
  0
MTEXT
  5
B7
330
1F
100
AcDbEntity
  8
DIM
 62
     7
100
AcDbMText
 10
103.6729933652
 20
12.0842969434
 30
0.0
 40
2.6458333333
 41
0.0
 71
     1
 72
     1
  1
2
  7
SLDTEXTSTYLE1
 73
     1
 44
1.0
  0
MTEXT
  5
B8
330
1F
100
AcDbEntity
  8
DIM
 62
     7
100
AcDbMText
 10
32.8396600319
 20
12.0842969434
 30
0.0
 40
2.6458333333
 41
0.0
 71
     1
 72
     1
  1
1
  7
SLDTEXTSTYLE1
 73
     1
 44
1.0
  0
MTEXT
  5
B9
330
1F
100
AcDbEntity
  8
DIM
 62
     7
100
AcDbMText
 10
9.3872733652
 20
44.2271540863
 30
0.0
 40
2.6458333333
 41
0.0
 71
     1
 72
     1
  1
D
  7
SLDTEXTSTYLE1
 73
     1
 44
1.0
  0
MTEXT
  5
BA
330
1F
100
AcDbEntity
  8
DIM
 62
     7
100
AcDbMText
 10
9.3872733652
 20
115.6557255149
 30
0.0
 40
2.6458333333
 41
0.0
 71
     1
 72
     1
  1
C
  7
SLDTEXTSTYLE1
 73
     1
 44
1.0
  0
MTEXT
  5
BB
330
1F
100
AcDbEntity
  8
DIM
 62
     7
100
AcDbMText
 10
9.3872733652
 20
187.0842969434
 30
0.0
 40
2.6458333333
 41
0.0
 71
     1
 72
     1
  1
B
  7
SLDTEXTSTYLE1
 73
     1
 44
1.0
  0
SPLINE
  5
BC
330
1F
100
AcDbEntity
  8
0
  6
Continuous
 62
     7
370
    15
100
AcDbSpline
210
0.0
220
0.0
230
1.0
 70
     8
 71
     3
 72
    14
 73
    10
 74
     0
 42
0.000000001
 43
0.00000001
 40
0.0
 40
0.0
 40
0.0
 40
0.0
 40
0.25
 40
0.25
 40
0.5
 40
0.5
 40
0.75
 40
0.75
 40
1.0
 40
1.0
 40
1.0
 40
1.0
 10
108.2632566323377
 20
155.146717999691
 30
0.0
 10
108.2632566323377
 20
152.1272705966234
 30
0.0
 10
107.063691448895
 20
149.2312640618053
 30
0.0
 10
102.7935479806045
 20
144.9611205935148
 30
0.0
 10
99.89754144578643
 20
143.761555410072
 30
0.0
 10
93.85864663965113
 20
143.761555410072
 30
0.0
 10
90.96264010483308
 20
144.9611205935148
 30
0.0
 10
86.69249663654259
 20
149.2312640618053
 30
0.0
 10
85.49293145309986
 20
152.1272705966234
 30
0.0
 10
85.49293145309984
 20
155.146717999691
 30
0.0
  0
SPLINE
  5
BD
330
1F
100
AcDbEntity
  8
0
  6
Continuous
 62
     7
370
    15
100
AcDbSpline
210
0.0
220
0.0
230
1.0
 70
     8
 71
     3
 72
    14
 73
    10
 74
     0
 42
0.000000001
 43
0.00000001
 40
0.0
 40
0.0
 40
0.0
 40
0.0
 40
0.25
 40
0.25
 40
0.5
 40
0.5
 40
0.75
 40
0.75
 40
1.0
 40
1.0
 40
1.0
 40
1.0
 10
85.49293145309984
 20
155.146717999691
 30
0.0
 10
85.49293145309984
 20
158.1661654027587
 30
0.0
 10
86.6924966365426
 20
161.0621719375767
 30
0.0
 10
90.96264010483308
 20
165.3323154058672
 30
0.0
 10
93.85864663965113
 20
166.5318805893099
 30
0.0
 10
99.89754144578643
 20
166.5318805893099
 30
0.0
 10
102.7935479806045
 20
165.3323154058672
 30
0.0
 10
107.063691448895
 20
161.0621719375767
 30
0.0
 10
108.2632566323377
 20
158.1661654027587
 30
0.0
 10
108.2632566323377
 20
155.146717999691
 30
0.0
  0
CIRCLE
  5
BE
330
1F
100
AcDbEntity
  8
0
  6
Continuous
 62
     7
370
    15
100
AcDbCircle
 10
96.8780940427
 20
155.1467179997
 30
0.0
 40
12.37469537611112
  0
CIRCLE
  5
BF
330
1F
100
AcDbEntity
  8
0
  6
Continuous
 62
     7
370
    15
100
AcDbCircle
 10
96.8780940427
 20
155.1467179997
 30
0.0
 40
22.22499999999999
  0
SPLINE
  5
C0
330
1F
100
AcDbEntity
  8
0
  6
Continuous
 62
     7
370
    15
100
AcDbSpline
210
0.0
220
0.0
230
1.0
 70
     8
 71
     3
 72
    47
 73
    43
 74
     0
 42
0.000000001
 43
0.00000001
 40
0.0
 40
0.0
 40
0.0
 40
0.0
 40
0.0064865058599544
 40
0.0129638156775974
 40
0.0194346018868018
 40
0.0259015450089971
 40
0.0323673303453013
 40
0.0388346446390101
 40
0.0453061727291163
 40
0.0517845942156699
 40
0.0582725801576112
 40
0.0891442126942977
 40
0.1200232680972888
 40
0.1521817500082456
 40
0.1843476848298072
 40
0.2171904404488881
 40
0.250040807568759
 40
0.282883563405296
 40
0.315733930742997
 40
0.3478924132540137
 40
0.3800583486754345
 40
0.4109299807251642
 40
0.4418090357728578
 40
0.5000011037995962
 40
0.5581931718263348
 40
0.5890648043627151
 40
0.6199438597660143
 40
0.6521023416767789
 40
0.684268276498532
 40
0.7171110321176541
 40
0.749961399237487
 40
0.7828041550742094
 40
0.815654522411723
 40
0.8478130049227987
 40
0.8799789403441611
 40
0.9108505723940962
 40
0.9417296274415853
 40
0.953398157213752
 40
0.9650438067132959
 40
0.9766822203186435
 40
0.9883290715666286
 40
1.0
 40
1.0
 40
1.0
 40
1.0
 10
74.37809404271879
 20
155.146717999691
 30
0.0
 10
74.37898502549267
 20
155.2994813533208
 30
0.0
 10
74.38076572787732
 20
155.6047914850783
 30
0.0
 10
74.39519851390214
 20
156.0623069929556
 30
0.0
 10
74.41824656159295
 20
156.5189849253763
 30
0.0
 10
74.45075078496008
 20
156.9748251226559
 30
0.0
 10
74.49248607595734
 20
157.4298271644654
 30
0.0
 10
74.5435129910757
 20
157.8839914753304
 30
0.0
 10
74.60381412230709
 20
158.3373153643008
 30
0.0
 10
74.67339830796023
 20
158.789807788669
 30
0.0
 10
74.8509628836089
 20
159.80685228309
 30
0.0
 10
75.21975448808413
 20
161.3740092492491
 30
0.0
 10
75.93499385309612
 20
163.4702625064822
 30
0.0
 10
76.86532381737288
 20
165.5145047292851
 30
0.0
 10
78.02191631221554
 20
167.4935155949162
 30
0.0
 10
79.38248685993916
 20
169.3587674071824
 30
0.0
 10
80.94003076074628
 20
171.0845276700954
 30
0.0
 10
82.66590486493
 20
172.6422113394912
 30
0.0
 10
84.53099535177253
 20
174.0027017295269
 30
0.0
 10
86.51016615559112
 20
175.1594063621779
 30
0.0
 10
88.554161745202
 20
176.0896944939622
 30
0.0
 10
90.65085621441312
 20
176.8049881741998
 30
0.0
 10
93.4040679742784
 20
177.4533662728753
 30
0.0
 10
96.87809392472346
 20
177.7730390241174
 30
0.0
 10
100.3519453709052
 20
177.4533817435908
 30
0.0
 10
103.1051625066005
 20
176.8050378516803
 30
0.0
 10
105.2017010069671
 20
176.0898237115695
 30
0.0
 10
107.2458637588822
 20
175.1594867260403
 30
0.0
 10
109.2248963012127
 20
174.0028961213279
 30
0.0
 10
111.0901422000692
 20
172.6423251532098
 30
0.0
 10
112.8159040082211
 20
171.0847810045106
 30
0.0
 10
114.3735874520324
 20
169.3589083151085
 30
0.0
 10
115.7340772037115
 20
167.4938124540579
 30
0.0
 10
116.8907845588125
 20
165.5146613361562
 30
0.0
 10
117.8210626070968
 20
163.4705935631834
 30
0.0
 10
118.5363924988649
 20
161.3741581297686
 30
0.0
 10
118.933170717311
 20
159.6881056664935
 30
0.0
 10
119.1425579810329
 20
158.4289317849361
 30
0.0
 10
119.247948769617
 20
157.6123363540979
 30
0.0
 10
119.3226706263461
 20
156.7929550035026
 30
0.0
 10
119.3694483750841
 20
155.9707671366539
 30
0.0
 10
119.3752101703594
 20
155.4215900661743
 30
0.0
 10
119.3780940427188
 20
155.146717999691
 30
0.0
  0
SPLINE
  5
C1
330
1F
100
AcDbEntity
  8
0
  6
Continuous
 62
     7
370
    15
100
AcDbSpline
210
0.0
220
0.0
230
1.0
 70
     8
 71
     3
 72
    47
 73
    43
 74
     0
 42
0.000000001
 43
0.00000001
 40
0.0
 40
0.0
 40
0.0
 40
0.0
 40
0.0064865058600646
 40
0.0129638156777903
 40
0.0194346018870498
 40
0.0259015450092725
 40
0.0323673303455768
 40
0.0388346446392581
 40
0.0453061727293097
 40
0.0517845942157816
 40
0.0582725801576143
 40
0.0891442126948909
 40
0.1200232680972924
 40
0.1521817500083951
 40
0.1843476848298058
 40
0.2171904404485402
 40
0.2500408075687574
 40
0.2828835634052776
 40
0.3157339307429991
 40
0.3478924132542638
 40
0.3800583486754358
 40
0.4109299807257716
 40
0.4418090357728632
 40
0.5000011037996017
 40
0.5581931718263402
 40
0.5890648043636169
 40
0.6199438597660184
 40
0.6521023416771926
 40
0.6842682764985326
 40
0.7171110321177041
 40
0.7499613992374872
 40
0.7828041550742053
 40
0.8156545224117233
 40
0.8478130049224891
 40
0.8799789403441584
 40
0.9108505723936514
 40
0.941729627441584
 40
0.9533981572136628
 40
0.9650438067131625
 40
0.9766822203185102
 40
0.9883290715665397
 40
1.0
 40
1.0
 40
1.0
 40
1.0
 10
119.3780940427188
 20
155.146717999691
 30
0.0
 10
119.3772030599449
 20
154.9939546460586
 30
0.0
 10
119.3754223575603
 20
154.6886445142966
 30
0.0
 10
119.3609895715355
 20
154.2311290064134
 30
0.0
 10
119.3379415238447
 20
153.7744510739889
 30
0.0
 10
119.3054373004776
 20
153.3186108767073
 30
0.0
 10
119.2637020094803
 20
152.8636088348977
 30
0.0
 10
119.212675094362
 20
152.4094445240347
 30
0.0
 10
119.1523739631306
 20
151.9561206350681
 30
0.0
 10
119.0827897774775
 20
151.5036282107058
 30
0.0
 10
118.9052252018236
 20
150.4865837162762
 30
0.0
 10
118.5364335973504
 20
148.9194267501194
 30
0.0
 10
117.8211942323356
 20
146.8231734928833
 30
0.0
 10
116.8908642680579
 20
144.7789312700964
 30
0.0
 10
115.7342717732254
 20
142.7999204044692
 30
0.0
 10
114.3737012255032
 20
140.9346685922061
 30
0.0
 10
112.816157324697
 20
139.2089083292931
 30
0.0
 10
111.0902832205106
 20
137.6512246598878
 30
0.0
 10
109.2251927336602
 20
136.2907342698527
 30
0.0
 10
107.246021929841
 20
135.1340296372017
 30
0.0
 10
105.2020263402167
 20
134.2037415054132
 30
0.0
 10
103.105331871012
 20
133.4884478251734
 30
0.0
 10
100.3521201111443
 20
132.8400697265079
 30
0.0
 10
96.87809416071441
 20
132.5203969752641
 30
0.0
 10
93.4042427145109
 20
132.8400542557921
 30
0.0
 10
90.65102557881725
 20
133.4883981477097
 30
0.0
 10
88.55448707844151
 20
134.2036122878229
 30
0.0
 10
86.51032432654856
 20
135.1339492733498
 30
0.0
 10
84.53129178421538
 20
136.2905398780593
 30
0.0
 10
82.666045885368
 20
137.6511108461737
 30
0.0
 10
80.94028407721555
 20
139.2086549948719
 30
0.0
 10
79.38260063340557
 20
140.9345276842736
 30
0.0
 10
78.02211088172953
 20
142.7996235453176
 30
0.0
 10
76.86540352663155
 20
144.778774663221
 30
0.0
 10
75.93512547834713
 20
146.822842436182
 30
0.0
 10
75.21979558657353
 20
148.9192778696028
 30
0.0
 10
74.82301736812983
 20
150.6053303328764
 30
0.0
 10
74.61363010440436
 20
151.8645042144406
 30
0.0
 10
74.50823931582046
 20
152.6810996452757
 30
0.0
 10
74.43351745909138
 20
153.500480995871
 30
0.0
 10
74.38673971035341
 20
154.3226688627228
 30
0.0
 10
74.38097791507816
 20
154.8718459332056
 30
0.0
 10
74.37809404271879
 20
155.146717999691
 30
0.0
  0
CIRCLE
  5
C2
330
1F
100
AcDbEntity
  8
0
  6
Continuous
 62
     7
370
    15
100
AcDbCircle
 10
96.8780940427
 20
155.1467179997
 30
0.0
 40
30.74999999999996
  0
CIRCLE
  5
C3
330
1F
100
AcDbEntity
  8
0
  6
Continuous
 62
     7
370
    15
100
AcDbCircle
 10
96.8780940427
 20
155.1467179997
 30
0.0
 40
31.74999999999996
  0
CIRCLE
  5
C4
330
1F
100
AcDbEntity
  8
0
  6
Continuous
 62
     7
370
    15
100
AcDbCircle
 10
96.8780940427
 20
155.1467179997
 30
0.0
 40
35.00000000000001
  0
CIRCLE
  5
C5
330
1F
100
AcDbEntity
  8
0
  6
Continuous
 62
     7
370
    15
100
AcDbCircle
 10
96.8780940427
 20
155.1467179997
 30
0.0
 40
35.99999999999999
  0
INSERT
  5
D1
330
1F
100
AcDbEntity
  8
DIM
100
AcDbBlockReference
  2
SW_CENTERMARKSYMBOL_0
 10
96.8780940427
 20
155.1467179997
 30
0.0
  0
LINE
  5
D2
330
1F
100
AcDbEntity
  8
0
  6
Continuous
 62
     7
370
    15
100
AcDbLine
 10
328.010459145
 20
119.1467179997
 30
0.0
 11
336.010459145
 21
127.1467179997
 31
0.0
  0
LINE
  5
D3
330
1F
100
AcDbEntity
  8
0
  6
Continuous
 62
     7
370
    15
100
AcDbLine
 10
336.010459145
 20
183.1467179997
 30
0.0
 11
328.010459145
 21
191.1467179997
 31
0.0
  0
LINE
  5
D4
330
1F
100
AcDbEntity
  8
0
  6
Continuous
 62
     7
370
    15
100
AcDbLine
 10
272.510459145
 20
119.1467179997
 30
0.0
 11
328.010459145
 21
119.1467179997
 31
0.0
  0
LINE
  5
D5
330
1F
100
AcDbEntity
  8
0
  6
Continuous
 62
     7
370
    15
100
AcDbLine
 10
328.010459145
 20
191.1467179997
 30
0.0
 11
272.510459145
 21
191.1467179997
 31
0.0
  0
LINE
  5
D6
330
1F
100
AcDbEntity
  8
0
  6
Continuous
 62
     7
370
    15
100
AcDbLine
 10
272.510459145
 20
191.1467179997
 30
0.0
 11
271.510459145
 21
190.1467179997
 31
0.0
  0
LINE
  5
D7
330
1F
100
AcDbEntity
  8
0
  6
Continuous
 62
     7
370
    15
100
AcDbLine
 10
271.510459145
 20
120.1467179997
 30
0.0
 11
272.510459145
 21
119.1467179997
 31
0.0
  0
LINE
  5
D8
330
1F
100
AcDbEntity
  8
0
  6
Continuous
 62
     7
370
    15
100
AcDbLine
 10
254.110459145
 20
123.3967179997
 30
0.0
 11
255.110459145
 21
124.3967179997
 31
0.0
  0
LINE
  5
D9
330
1F
100
AcDbEntity
  8
0
  6
Continuous
 62
     7
370
    15
100
AcDbLine
 10
255.110459145
 20
185.8967179997
 30
0.0
 11
254.110459145
 21
186.8967179997
 31
0.0
  0
LINE
  5
DA
330
1F
100
AcDbEntity
  8
0
  6
Continuous
 62
     7
370
    15
100
AcDbLine
 10
250.632295787
 20
123.3967179997
 30
0.0
 11
254.110459145
 21
123.3967179997
 31
0.0
  0
LINE
  5
DB
330
1F
100
AcDbEntity
  8
0
  6
Continuous
 62
     7
370
    15
100
AcDbLine
 10
254.110459145
 20
186.8967179997
 30
0.0
 11
250.632295787
 21
186.8967179997
 31
0.0
  0
LINE
  5
DC
330
1F
100
AcDbEntity
  8
0
  6
Continuous
 62
     7
370
    15
100
AcDbLine
 10
250.632295787
 20
186.8967179997
 30
0.0
 11
249.010459145
 21
184.0876145341
 31
0.0
  0
LINE
  5
DD
330
1F
100
AcDbEntity
  8
0
  6
Continuous
 62
     7
370
    15
100
AcDbLine
 10
249.010459145
 20
126.2058214653
 30
0.0
 11
250.632295787
 21
123.3967179997
 31
0.0
  0
LINE
  5
DE
330
1F
100
AcDbEntity
  8
0
  6
Continuous
 62
     7
370
    15
100
AcDbLine
 10
243.5886225029
 20
123.3967179997
 30
0.0
 11
245.210459145
 21
126.2058214653
 31
0.0
  0
LINE
  5
DF
330
1F
100
AcDbEntity
  8
0
  6
Continuous
 62
     7
370
    15
100
AcDbLine
 10
245.210459145
 20
184.0876145341
 30
0.0
 11
243.5886225029
 21
186.8967179997
 31
0.0
  0
LINE
  5
E0
330
1F
100
AcDbEntity
  8
0
  6
Continuous
 62
     7
370
    15
100
AcDbLine
 10
240.210459145
 20
123.3967179997
 30
0.0
 11
243.5886225029
 21
123.3967179997
 31
0.0
  0
LINE
  5
E1
330
1F
100
AcDbEntity
  8
0
  6
Continuous
 62
     7
370
    15
100
AcDbLine
 10
243.5886225029
 20
186.8967179997
 30
0.0
 11
240.210459145
 21
186.8967179997
 31
0.0
  0
LINE
  5
E2
330
1F
100
AcDbEntity
  8
0
  6
Continuous
 62
     7
370
    15
100
AcDbLine
 10
240.210459145
 20
186.8967179997
 30
0.0
 11
239.210459145
 21
185.8967179997
 31
0.0
  0
LINE
  5
E3
330
1F
100
AcDbEntity
  8
0
  6
Continuous
 62
     7
370
    15
100
AcDbLine
 10
239.210459145
 20
124.3967179997
 30
0.0
 11
240.210459145
 21
123.3967179997
 31
0.0
  0
LINE
  5
E4
330
1F
100
AcDbEntity
  8
0
  6
Continuous
 62
     7
370
    15
100
AcDbLine
 10
245.210459145
 20
127.1467179997
 30
0.0
 11
249.010459145
 21
127.1467179997
 31
0.0
  0
LINE
  5
E5
330
1F
100
AcDbEntity
  8
0
  6
Continuous
 62
     7
370
    15
100
AcDbLine
 10
249.010459145
 20
183.1467179997
 30
0.0
 11
245.210459145
 21
183.1467179997
 31
0.0
  0
ARC
  5
E6
330
1F
100
AcDbEntity
  8
0
  6
Continuous
 62
     7
370
    15
100
AcDbCircle
 10
271.110459145
 20
129.9967179997
 30
0.0
 40
0.4000000000000341
100
AcDbArc
 50
0.0
 51
90.0
  0
ARC
  5
E7
330
1F
100
AcDbEntity
  8
0
  6
Continuous
 62
     7
370
    15
100
AcDbCircle
 10
271.110459145
 20
180.2967179997
 30
0.0
 40
0.4000000000000341
100
AcDbArc
 50
270.0
 51
0.0
  0
LINE
  5
E8
330
1F
100
AcDbEntity
  8
0
  6
Continuous
 62
     7
370
    15
100
AcDbLine
 10
256.110459145
 20
130.3967179997
 30
0.0
 11
271.110459145
 21
130.3967179997
 31
0.0
  0
LINE
  5
E9
330
1F
100
AcDbEntity
  8
0
  6
Continuous
 62
     7
370
    15
100
AcDbLine
 10
271.110459145
 20
179.8967179997
 30
0.0
 11
256.110459145
 21
179.8967179997
 31
0.0
  0
ARC
  5
EA
330
1F
100
AcDbEntity
  8
0
  6
Continuous
 62
     7
370
    15
100
AcDbCircle
 10
256.110459145
 20
129.3967179997
 30
0.0
 40
1.000000000000028
100
AcDbArc
 50
90.0
 51
180.0
  0
ARC
  5
EB
330
1F
100
AcDbEntity
  8
0
  6
Continuous
 62
     7
370
    15
100
AcDbCircle
 10
256.110459145
 20
180.8967179997
 30
0.0
 40
1.000000000000028
100
AcDbArc
 50
180.0
 51
270.0
  0
ARC
  5
EC
330
1F
100
AcDbEntity
  8
0
  6
Continuous
 62
     7
370
    15
100
AcDbCircle
 10
238.710459145
 20
132.6467179997
 30
0.0
 40
0.5000000000000284
100
AcDbArc
 50
0.0
 51
90.0
  0
ARC
  5
ED
330
1F
100
AcDbEntity
  8
0
  6
Continuous
 62
     7
370
    15
100
AcDbCircle
 10
238.710459145
 20
177.6467179997
 30
0.0
 40
0.5000000000000284
100
AcDbArc
 50
270.0
 51
0.0
  0
LINE
  5
EE
330
1F
100
AcDbEntity
  8
0
  6
Continuous
 62
     7
370
    15
100
AcDbLine
 10
236.010459145
 20
132.9217179997
 30
0.0
 11
236.4929732021
 21
133.1467179997
 31
0.0
  0
LINE
  5
EF
330
1F
100
AcDbEntity
  8
0
  6
Continuous
 62
     7
370
    15
100
AcDbLine
 10
236.4929732021
 20
177.1467179997
 30
0.0
 11
236.010459145
 21
177.3717179997
 31
0.0
  0
LINE
  5
F0
330
1F
100
AcDbEntity
  8
0
  6
Continuous
 62
     7
370
    15
100
AcDbLine
 10
236.010459145
 20
177.3717179997
 30
0.0
 11
168.4661509177
 21
167.5214133758
 31
0.0
  0
LINE
  5
F1
330
1F
100
AcDbEntity
  8
0
  6
Continuous
 62
     7
370
    15
100
AcDbLine
 10
168.4661509177
 20
142.7720226236
 30
0.0
 11
236.010459145
 21
132.9217179997
 31
0.0
  0
LINE
  5
F2
330
1F
100
AcDbEntity
  8
0
  6
Continuous
 62
     7
370
    15
100
AcDbLine
 10
236.4929732021
 20
133.1467179997
 30
0.0
 11
238.710459145
 21
133.1467179997
 31
0.0
  0
LINE
  5
F3
330
1F
100
AcDbEntity
  8
0
  6
Continuous
 62
     7
370
    15
100
AcDbLine
 10
238.710459145
 20
177.1467179997
 30
0.0
 11
236.4929732021
 21
177.1467179997
 31
0.0
  0
ARC
  5
F4
330
1F
100
AcDbEntity
  8
0
  6
Continuous
 62
     7
370
    15
100
AcDbCircle
 10
168.610459145
 20
143.7615554101
 30
0.0
 40
1.0
100
AcDbArc
 50
180.0
 51
261.7027777778
  0
ARC
  5
F5
330
1F
100
AcDbEntity
  8
0
  6
Continuous
 62
     7
370
    15
100
AcDbCircle
 10
168.610459145
 20
166.5318805893
 30
0.0
 40
1.0
100
AcDbArc
 50
98.2972222222
 51
180.0
  0
LINE
  5
F6
330
1F
100
AcDbEntity
  8
0
  6
Continuous
 62
     7
370
    15
100
AcDbLine
 10
336.010459145
 20
155.1467179997
 30
0.0
 11
336.010459145
 21
183.1467179997
 31
0.0
  0
LINE
  5
F7
330
1F
100
AcDbEntity
  8
0
  6
Continuous
 62
     7
370
    15
100
AcDbLine
 10
336.010459145
 20
127.1467179997
 30
0.0
 11
336.010459145
 21
155.1467179997
 31
0.0
  0
LINE
  5
F8
330
1F
100
AcDbEntity
  8
0
  6
Continuous
 62
     7
370
    15
100
AcDbLine
 10
328.010459145
 20
155.1467179997
 30
0.0
 11
328.010459145
 21
191.1467179997
 31
0.0
  0
LINE
  5
F9
330
1F
100
AcDbEntity
  8
0
  6
Continuous
 62
     7
370
    15
100
AcDbLine
 10
328.010459145
 20
119.1467179997
 30
0.0
 11
328.010459145
 21
155.1467179997
 31
0.0
  0
LINE
  5
FA
330
1F
100
AcDbEntity
  8
0
  6
Continuous
 62
     7
370
    15
100
AcDbLine
 10
272.510459145
 20
155.1467179997
 30
0.0
 11
272.510459145
 21
119.1467179997
 31
0.0
  0
LINE
  5
FB
330
1F
100
AcDbEntity
  8
0
  6
Continuous
 62
     7
370
    15
100
AcDbLine
 10
272.510459145
 20
191.1467179997
 30
0.0
 11
272.510459145
 21
155.1467179997
 31
0.0
  0
LINE
  5
FC
330
1F
100
AcDbEntity
  8
0
  6
Continuous
 62
     7
370
    15
100
AcDbLine
 10
271.510459145
 20
190.1467179997
 30
0.0
 11
271.510459145
 21
120.1467179997
 31
0.0
  0
LINE
  5
FD
330
1F
100
AcDbEntity
  8
0
  6
Continuous
 62
     7
370
    15
100
AcDbLine
 10
255.110459145
 20
185.8967179997
 30
0.0
 11
255.110459145
 21
124.3967179997
 31
0.0
  0
LINE
  5
FE
330
1F
100
AcDbEntity
  8
0
  6
Continuous
 62
     7
370
    15
100
AcDbLine
 10
254.110459145
 20
186.8967179997
 30
0.0
 11
254.110459145
 21
123.3967179997
 31
0.0
  0
LINE
  5
FF
330
1F
100
AcDbEntity
  8
0
  6
Continuous
 62
     7
370
    15
100
AcDbLine
 10
250.632295787
 20
123.3967179997
 30
0.0
 11
250.632295787
 21
186.8967179997
 31
0.0
  0
LINE
  5
100
330
1F
100
AcDbEntity
  8
0
  6
Continuous
 62
     7
370
    15
100
AcDbLine
 10
249.010459145
 20
184.0876145341
 30
0.0
 11
249.010459145
 21
126.2058214653
 31
0.0
  0
LINE
  5
101
330
1F
100
AcDbEntity
  8
0
  6
Continuous
 62
     7
370
    15
100
AcDbLine
 10
245.210459145
 20
155.1467179997
 30
0.0
 11
245.210459145
 21
184.0876145341
 31
0.0
  0
LINE
  5
102
330
1F
100
AcDbEntity
  8
0
  6
Continuous
 62
     7
370
    15
100
AcDbLine
 10
245.210459145
 20
126.2058214653
 30
0.0
 11
245.210459145
 21
155.1467179997
 31
0.0
  0
LINE
  5
103
330
1F
100
AcDbEntity
  8
0
  6
Continuous
 62
     7
370
    15
100
AcDbLine
 10
243.5886225029
 20
155.1467179997
 30
0.0
 11
243.5886225029
 21
123.3967179997
 31
0.0
  0
LINE
  5
104
330
1F
100
AcDbEntity
  8
0
  6
Continuous
 62
     7
370
    15
100
AcDbLine
 10
243.5886225029
 20
186.8967179997
 30
0.0
 11
243.5886225029
 21
155.1467179997
 31
0.0
  0
LINE
  5
105
330
1F
100
AcDbEntity
  8
0
  6
Continuous
 62
     7
370
    15
100
AcDbLine
 10
240.210459145
 20
186.8967179997
 30
0.0
 11
240.210459145
 21
123.3967179997
 31
0.0
  0
LINE
  5
106
330
1F
100
AcDbEntity
  8
0
  6
Continuous
 62
     7
370
    15
100
AcDbLine
 10
239.210459145
 20
185.8967179997
 30
0.0
 11
239.210459145
 21
124.3967179997
 31
0.0
  0
SPLINE
  5
107
330
1F
100
AcDbEntity
  8
0
  6
Continuous
 62
     7
370
    15
100
AcDbSpline
210
0.0
220
0.0
230
1.0
 70
     8
 71
     3
 72
    14
 73
    10
 74
     0
 42
0.000000001
 43
0.00000001
 40
0.0
 40
0.0
 40
0.0
 40
0.0
 40
0.25
 40
0.25
 40
0.5
 40
0.5
 40
0.75
 40
0.75
 40
1.0
 40
1.0
 40
1.0
 40
1.0
 10
256.1104591449879
 20
163.1343647119586
 30
0.0
 10
255.9762366361807
 20
163.1511684732718
 30
0.0
 10
255.8423832400427
 20
163.1643224308904
 30
0.0
 10
255.5965643263118
 20
163.1829730633883
 30
0.0
 10
255.4846493901813
 20
163.1885332503944
 30
0.0
 10
255.3024342569513
 20
163.1949449114045
 30
0.0
 10
255.2308769171036
 20
163.1959604067497
 30
0.0
 10
255.1348856472665
 20
163.1968240308821
 30
0.0
 10
255.1104591449881
 20
163.1967179996909
 30
0.0
 10
255.1104591449879
 20
163.1967179996909
 30
0.0
  0
LINE
  5
108
330
1F
100
AcDbEntity
  8
0
  6
Continuous
 62
     7
370
    15
100
AcDbLine
 10
256.110459145
 20
163.134364712
 30
0.0
 11
256.110459145
 21
147.1590712874
 31
0.0
  0
SPLINE
  5
109
330
1F
100
AcDbEntity
  8
0
  6
Continuous
 62
     7
370
    15
100
AcDbSpline
210
0.0
220
0.0
230
1.0
 70
     8
 71
     3
 72
    16
 73
    12
 74
     0
 42
0.000000001
 43
0.00000001
 40
0.0
 40
0.0
 40
0.0
 40
0.0
 40
0.2499999999999991
 40
0.2499999999999991
 40
0.4999999999999982
 40
0.4999999999999982
 40
0.6250000000000002
 40
0.6250000000000002
 40
0.7500000000000022
 40
0.7500000000000022
 40
1.0
 40
1.0
 40
1.0
 40
1.0
 10
255.1104591449879
 20
147.096717999691
 30
0.0
 10
255.1104591449879
 20
147.096717999691
 30
0.0
 10
255.1347555719127
 20
147.0966110617368
 30
0.0
 10
255.2309188072405
 20
147.0974757062432
 30
0.0
 10
255.3019080531277
 20
147.0984762845077
 30
0.0
 10
255.4388695671308
 20
147.1032900338148
 30
0.0
 10
255.4888524158503
 20
147.1054311216213
 30
0.0
 10
255.5978022659966
 20
147.1112981098996
 30
0.0
 10
255.6573875874515
 20
147.1150833636885
 30
0.0
 10
255.8414427191269
 20
147.1290309514218
 30
0.0
 10
255.9760630265395
 20
147.142245791343
 30
0.0
 10
256.1104591449879
 20
147.1590712874233
 30
0.0
  0
LINE
  5
10A
330
1F
100
AcDbEntity
  8
0
  6
Continuous
 62
     7
370
    15
100
AcDbLine
 10
236.010459145
 20
155.1467179997
 30
0.0
 11
236.010459145
 21
132.9217179997
 31
0.0
  0
LINE
  5
10B
330
1F
100
AcDbEntity
  8
0
  6
Continuous
 62
     7
370
    15
100
AcDbLine
 10
236.010459145
 20
177.3717179997
 30
0.0
 11
236.010459145
 21
155.1467179997
 31
0.0
  0
LINE
  5
10C
330
1F
100
AcDbEntity
  8
0
  6
Continuous
 62
     7
370
    15
100
AcDbLine
 10
236.4929732021
 20
155.1467179997
 30
0.0
 11
236.4929732021
 21
133.1467179997
 31
0.0
  0
LINE
  5
10D
330
1F
100
AcDbEntity
  8
0
  6
Continuous
 62
     7
370
    15
100
AcDbLine
 10
236.4929732021
 20
177.1467179997
 30
0.0
 11
236.4929732021
 21
155.1467179997
 31
0.0
  0
SPLINE
  5
10E
330
1F
100
AcDbEntity
  8
0
  6
Continuous
 62
     7
370
    15
100
AcDbSpline
210
0.0
220
0.0
230
1.0
 70
    24
 71
     3
 72
    10
 73
     6
 74
     0
 42
0.000000001
 43
0.00000001
 40
0.0
 40
0.0
 40
0.0
 40
0.0
 40
0.4999999999999997
 40
0.4999999999999997
 40
0.9999999999999999
 40
0.9999999999999999
 40
0.9999999999999999
 40
0.9999999999999999
 10
167.6104591449879
 20
166.5318805893099
 30
0.0
 10
167.6104591449879
 20
166.5318805893098
 30
0.0
 10
167.6104591449879
 20
165.3323154058671
 30
0.0
 10
167.6104591449879
 20
161.0621719375766
 30
0.0
 10
167.6104591449879
 20
158.1661654027587
 30
0.0
 10
167.6104591449879
 20
155.146717999691
 30
0.0
  0
SPLINE
  5
10F
330
1F
100
AcDbEntity
  8
0
  6
Continuous
 62
     7
370
    15
100
AcDbSpline
210
0.0
220
0.0
230
1.0
 70
    24
 71
     3
 72
    10
 73
     6
 74
     0
 42
0.000000001
 43
0.00000001
 40
0.0
 40
0.0
 40
0.0
 40
0.0
 40
0.5
 40
0.5
 40
1.0
 40
1.0
 40
1.0
 40
1.0
 10
167.6104591449879
 20
155.146717999691
 30
0.0
 10
167.6104591449879
 20
152.1272705966234
 30
0.0
 10
167.6104591449879
 20
149.2312640618052
 30
0.0
 10
167.6104591449879
 20
144.9611205935147
 30
0.0
 10
167.6104591449879
 20
143.761555410072
 30
0.0
 10
167.6104591449879
 20
143.761555410072
 30
0.0
  0
LINE
  5
110
330
1F
100
AcDbEntity
  8
0
  6
Continuous
 62
     8
370
    15
100
AcDbLine
 10
271.110459145
 20
155.1467179997
 30
0.0
 11
271.110459145
 21
179.8967179997
 31
0.0
  0
LINE
  5
111
330
1F
100
AcDbEntity
  8
0
  6
Continuous
 62
     8
370
    15
100
AcDbLine
 10
271.110459145
 20
130.3967179997
 30
0.0
 11
271.110459145
 21
155.1467179997
 31
0.0
  0
LINE
  5
112
330
1F
100
AcDbEntity
  8
0
  6
Continuous
 62
     8
370
    15
100
AcDbLine
 10
256.110459145
 20
147.1590712874
 30
0.0
 11
256.110459145
 21
130.3967179997
 31
0.0
  0
LINE
  5
113
330
1F
100
AcDbEntity
  8
0
  6
Continuous
 62
     8
370
    15
100
AcDbLine
 10
256.110459145
 20
179.8967179997
 30
0.0
 11
256.110459145
 21
163.134364712
 31
0.0
  0
LINE
  5
114
330
1F
100
AcDbEntity
  8
0
  6
Continuous
 62
     8
370
    15
100
AcDbLine
 10
238.710459145
 20
155.1467179997
 30
0.0
 11
238.710459145
 21
177.1467179997
 31
0.0
  0
LINE
  5
115
330
1F
100
AcDbEntity
  8
0
  6
Continuous
 62
     8
370
    15
100
AcDbLine
 10
238.710459145
 20
133.1467179997
 30
0.0
 11
238.710459145
 21
155.1467179997
 31
0.0
  0
LINE
  5
116
330
1F
100
AcDbEntity
  8
0
  6
Continuous
 62
     8
370
    15
100
AcDbLine
 10
168.4661509177
 20
167.5214133758
 30
0.0
 11
168.4661509177
 21
142.7720226236
 31
0.0
  0
DIMENSION
  5
117
330
1F
100
AcDbEntity
  8
DIM
100
AcDbDimension
  2
_D
 10
344.8882530408
 20
119.1467179997
 30
0.0
 11
344.8882530408
 21
155.1467179997
 31
0.0
 70
   160
  1
%%c<>
 71
     2
 42
-1.0
  3
SLDDIMSTYLE0
100
AcDbAlignedDimension
 13
328.010459145
 23
191.1467179997
 33
0.0
 14
328.010459145
 24
119.1467179997
 34
0.0
 50
90.0
100
AcDbRotatedDimension
  0
DIMENSION
  5
123
330
1F
100
AcDbEntity
  8
DIM
100
AcDbDimension
  2
_D_1
 10
336.010459145
 20
96.2895751425
 30
0.0
 11
251.810459145
 21
96.2895751425
 31
0.0
 70
   160
  1
<>
 71
     2
 42
-1.0
  3
SLDDIMSTYLE1
100
AcDbAlignedDimension
 13
167.610459145
 23
155.1467179997
 33
0.0
 14
336.010459145
 24
127.1467179997
 34
0.0
 50
0.0
100
AcDbRotatedDimension
  0
DIMENSION
  5
12E
330
1F
100
AcDbEntity
  8
DIM
100
AcDbDimension
  2
_D_2
 10
336.010459145
 20
104.5163171703
 30
0.0
 11
286.010459145
 21
104.5163171703
 31
0.0
 70
   160
  1
<>
 71
     2
 42
-1.0
  3
SLDDIMSTYLE0
100
AcDbAlignedDimension
 13
236.010459145
 23
132.9217179997
 33
0.0
 14
336.010459145
 24
127.1467179997
 34
0.0
100
AcDbRotatedDimension
  0
DIMENSION
  5
138
330
1F
100
AcDbEntity
  8
DIM
100
AcDbDimension
  2
_D_3
 10
162.8337182273
 20
123.3967179997
 30
0.0
 11
162.8337182273
 21
155.1467179997
 31
0.0
 70
   160
  1
%%c<>
 71
     2
 42
-1.0
  3
SLDDIMSTYLE1
100
AcDbAlignedDimension
 13
240.210459145
 23
186.8967179997
 33
0.0
 14
240.210459145
 24
123.3967179997
 34
0.0
 50
90.0
100
AcDbRotatedDimension
  0
LINE
  5
143
330
1F
100
AcDbEntity
  8
DIM
  6
CENTERX2
 48
1.4
370
     0
100
AcDbLine
 10
165.4030560746
 20
155.1467179997
 30
0.0
 11
335.8254909337
 21
155.1467179997
 31
0.0
  0
ENDSEC
  0
SECTION
  2
OBJECTS
  0
DICTIONARY
  5
C
330
0
100
AcDbDictionary
281
     1
  3
ACAD_GROUP
350
D
  3
ACAD_LAYOUT
350
1A
  3
ACAD_MLINESTYLE
350
17
  3
ACAD_PLOTSETTINGS
350
19
  3
ACAD_PLOTSTYLENAME
350
E
  3
ACAD_SCALELIST
350
47
  0
DICTIONARY
  5
D
102
{ACAD_REACTORS
330
C
102
}
330
C
100
AcDbDictionary
281
     1
  0
DICTIONARY
  5
1A
102
{ACAD_REACTORS
330
C
102
}
330
C
100
AcDbDictionary
281
     1
  3
Layout1
350
1E
  3
Layout2
350
26
  3
Model
350
22
  0
DICTIONARY
  5
17
102
{ACAD_REACTORS
330
C
102
}
330
C
100
AcDbDictionary
281
     1
  3
Standard
350
18
  0
DICTIONARY
  5
19
102
{ACAD_REACTORS
330
C
102
}
330
C
100
AcDbDictionary
281
     1
  0
ACDBDICTIONARYWDFLT
  5
E
102
{ACAD_REACTORS
330
C
102
}
330
C
100
AcDbDictionary
281
     1
  3
Normal
350
F
100
AcDbDictionaryWithDefault
340
F
  0
DICTIONARY
  5
47
102
{ACAD_REACTORS
330
C
102
}
330
C
100
AcDbDictionary
281
     1
  3
A0
350
48
  3
A1
350
49
  3
A2
350
4A
  3
A3
350
4B
  3
A4
350
4C
  3
A5
350
4D
  3
A6
350
4E
  3
A7
350
4F
  3
A8
350
50
  3
A9
350
51
  3
B0
350
52
  3
B1
350
53
  3
B2
350
54
  3
B3
350
55
  3
B4
350
56
  3
B5
350
57
  3
B6
350
58
  3
B7
350
59
  3
B8
350
5A
  3
B9
350
5B
  3
C0
350
5C
  3
C1
350
5D
  3
C2
350
5E
  3
C3
350
5F
  3
C4
350
60
  3
C5
350
61
  3
C6
350
62
  3
C7
350
63
  3
C8
350
64
  3
C9
350
65
  3
D0
350
66
  3
D1
350
67
  3
D2
350
68
  0
LAYOUT
  5
1E
102
{ACAD_REACTORS
330
1A
102
}
330
1A
100
AcDbPlotSettings
  1

  2
none_device
  4

  6

 40
0.0
 41
0.0
 42
0.0
 43
0.0
 44
0.0
 45
0.0
 46
0.0
 47
0.0
 48
0.0
 49
0.0
140
0.0
141
0.0
142
1.0
143
1.0
 70
   688
 72
     1
 73
     0
 74
     5
  7

 75
    16
147
1.0
148
0.0
149
0.0
100
AcDbLayout
  1
Layout1
 70
     1
 71
     1
 10
0.0
 20
0.0
 11
420.0
 21
297.0
 12
0.0
 22
0.0
 32
0.0
 14
1.0000000000E+20
 24
1.0000000000E+20
 34
1.0000000000E+20
 15
-1.0000000000E+20
 25
-1.0000000000E+20
 35
-1.0000000000E+20
146
0.0
 13
0.0
 23
0.0
 33
0.0
 16
1.0
 26
0.0
 36
0.0
 17
0.0
 27
1.0
 37
0.0
 76
     0
330
1B
  0
LAYOUT
  5
26
102
{ACAD_REACTORS
330
1A
102
}
330
1A
100
AcDbPlotSettings
  1

  2
none_device
  4

  6

 40
0.0
 41
0.0
 42
0.0
 43
0.0
 44
0.0
 45
0.0
 46
0.0
 47
0.0
 48
0.0
 49
0.0
140
0.0
141
0.0
142
1.0
143
1.0
 70
   688
 72
     1
 73
     0
 74
     5
  7

 75
    16
147
1.0
148
0.0
149
0.0
100
AcDbLayout
  1
Layout2
 70
     1
 71
     2
 10
0.0
 20
0.0
 11
0.0
 21
0.0
 12
0.0
 22
0.0
 32
0.0
 14
0.0
 24
0.0
 34
0.0
 15
0.0
 25
0.0
 35
0.0
146
0.0
 13
0.0
 23
0.0
 33
0.0
 16
1.0
 26
0.0
 36
0.0
 17
0.0
 27
1.0
 37
0.0
 76
     0
330
23
  0
LAYOUT
  5
22
102
{ACAD_REACTORS
330
1A
102
}
330
1A
100
AcDbPlotSettings
  1

  2
none_device
  4
Letter_(8.50_x_11.00_Inches)
  6

 40
6.35
 41
6.35
 42
6.35000508
 43
6.35000508
 44
215.9
 45
279.4
 46
0.0
 47
0.0
 48
0.0
 49
0.0
140
0.0
141
0.0
142
1.0
143
1.0
 70
  1712
 72
     1
 73
     0
 74
     0
  7

 75
     0
147
1.0
148
0.0
149
0.0
100
AcDbLayout
  1
Model
 70
     1
 71
     0
 10
0.0
 20
0.0
 11
424.2857142857
 21
300.0
 12
0.0
 22
0.0
 32
0.0
 14
0.0
 24
0.0
 34
0.0
 15
424.2857142857
 25
300.0
 35
0.0
146
0.0
 13
0.0
 23
0.0
 33
0.0
 16
1.0
 26
0.0
 36
0.0
 17
0.0
 27
1.0
 37
0.0
 76
     0
330
1F
331
29
  0
MLINESTYLE
  5
18
102
{ACAD_REACTORS
330
17
102
}
330
17
100
AcDbMlineStyle
  2
Standard
 70
     0
  3

 62
   256
 51
90.0
 52
90.0
 71
     2
 49
0.5
 62
   256
  6
BYLAYER
 49
-0.5
 62
   256
  6
BYLAYER
  0
ACDBPLACEHOLDER
  5
F
102
{ACAD_REACTORS
330
E
102
}
330
E
  0
SCALE
  5
48
102
{ACAD_REACTORS
330
47
102
}
330
47
100
AcDbScale
 70
     0
300
1:1
140
1.0
141
1.0
290
     1
  0
SCALE
  5
49
102
{ACAD_REACTORS
330
47
102
}
330
47
100
AcDbScale
 70
     0
300
1:2
140
1.0
141
2.0
290
     0
  0
SCALE
  5
4A
102
{ACAD_REACTORS
330
47
102
}
330
47
100
AcDbScale
 70
     0
300
1:4
140
1.0
141
4.0
290
     0
  0
SCALE
  5
4B
102
{ACAD_REACTORS
330
47
102
}
330
47
100
AcDbScale
 70
     0
300
1:5
140
1.0
141
5.0
290
     0
  0
SCALE
  5
4C
102
{ACAD_REACTORS
330
47
102
}
330
47
100
AcDbScale
 70
     0
300
1:8
140
1.0
141
8.0
290
     0
  0
SCALE
  5
4D
102
{ACAD_REACTORS
330
47
102
}
330
47
100
AcDbScale
 70
     0
300
1:10
140
1.0
141
10.0
290
     0
  0
SCALE
  5
4E
102
{ACAD_REACTORS
330
47
102
}
330
47
100
AcDbScale
 70
     0
300
1:16
140
1.0
141
16.0
290
     0
  0
SCALE
  5
4F
102
{ACAD_REACTORS
330
47
102
}
330
47
100
AcDbScale
 70
     0
300
1:20
140
1.0
141
20.0
290
     0
  0
SCALE
  5
50
102
{ACAD_REACTORS
330
47
102
}
330
47
100
AcDbScale
 70
     0
300
1:30
140
1.0
141
30.0
290
     0
  0
SCALE
  5
51
102
{ACAD_REACTORS
330
47
102
}
330
47
100
AcDbScale
 70
     0
300
1:40
140
1.0
141
40.0
290
     0
  0
SCALE
  5
52
102
{ACAD_REACTORS
330
47
102
}
330
47
100
AcDbScale
 70
     0
300
1:50
140
1.0
141
50.0
290
     0
  0
SCALE
  5
53
102
{ACAD_REACTORS
330
47
102
}
330
47
100
AcDbScale
 70
     0
300
1:100
140
1.0
141
100.0
290
     0
  0
SCALE
  5
54
102
{ACAD_REACTORS
330
47
102
}
330
47
100
AcDbScale
 70
     0
300
2:1
140
2.0
141
1.0
290
     0
  0
SCALE
  5
55
102
{ACAD_REACTORS
330
47
102
}
330
47
100
AcDbScale
 70
     0
300
4:1
140
4.0
141
1.0
290
     0
  0
SCALE
  5
56
102
{ACAD_REACTORS
330
47
102
}
330
47
100
AcDbScale
 70
     0
300
8:1
140
8.0
141
1.0
290
     0
  0
SCALE
  5
57
102
{ACAD_REACTORS
330
47
102
}
330
47
100
AcDbScale
 70
     0
300
10:1
140
10.0
141
1.0
290
     0
  0
SCALE
  5
58
102
{ACAD_REACTORS
330
47
102
}
330
47
100
AcDbScale
 70
     0
300
100:1
140
100.0
141
1.0
290
     0
  0
SCALE
  5
59
102
{ACAD_REACTORS
330
47
102
}
330
47
100
AcDbScale
 70
     0
300
1/128" = 1'-0"
140
0.0078125
141
12.0
290
     0
  0
SCALE
  5
5A
102
{ACAD_REACTORS
330
47
102
}
330
47
100
AcDbScale
 70
     0
300
1/64" = 1'-0"
140
0.015625
141
12.0
290
     0
  0
SCALE
  5
5B
102
{ACAD_REACTORS
330
47
102
}
330
47
100
AcDbScale
 70
     0
300
1/32" = 1'-0"
140
0.03125
141
12.0
290
     0
  0
SCALE
  5
5C
102
{ACAD_REACTORS
330
47
102
}
330
47
100
AcDbScale
 70
     0
300
1/16" = 1'-0"
140
0.0625
141
12.0
290
     0
  0
SCALE
  5
5D
102
{ACAD_REACTORS
330
47
102
}
330
47
100
AcDbScale
 70
     0
300
3/32" = 1'-0"
140
0.09375
141
12.0
290
     0
  0
SCALE
  5
5E
102
{ACAD_REACTORS
330
47
102
}
330
47
100
AcDbScale
 70
     0
300
1/8" = 1'-0"
140
0.125
141
12.0
290
     0
  0
SCALE
  5
5F
102
{ACAD_REACTORS
330
47
102
}
330
47
100
AcDbScale
 70
     0
300
3/16" = 1'-0"
140
0.1875
141
12.0
290
     0
  0
SCALE
  5
60
102
{ACAD_REACTORS
330
47
102
}
330
47
100
AcDbScale
 70
     0
300
1/4" = 1'-0"
140
0.25
141
12.0
290
     0
  0
SCALE
  5
61
102
{ACAD_REACTORS
330
47
102
}
330
47
100
AcDbScale
 70
     0
300
3/8" = 1'-0"
140
0.375
141
12.0
290
     0
  0
SCALE
  5
62
102
{ACAD_REACTORS
330
47
102
}
330
47
100
AcDbScale
 70
     0
300
1/2" = 1'-0"
140
0.5
141
12.0
290
     0
  0
SCALE
  5
63
102
{ACAD_REACTORS
330
47
102
}
330
47
100
AcDbScale
 70
     0
300
3/4" = 1'-0"
140
0.75
141
12.0
290
     0
  0
SCALE
  5
64
102
{ACAD_REACTORS
330
47
102
}
330
47
100
AcDbScale
 70
     0
300
1" = 1'-0"
140
1.0
141
12.0
290
     0
  0
SCALE
  5
65
102
{ACAD_REACTORS
330
47
102
}
330
47
100
AcDbScale
 70
     0
300
1-1/2" = 1'-0"
140
1.5
141
12.0
290
     0
  0
SCALE
  5
66
102
{ACAD_REACTORS
330
47
102
}
330
47
100
AcDbScale
 70
     0
300
3" = 1'-0"
140
3.0
141
12.0
290
     0
  0
SCALE
  5
67
102
{ACAD_REACTORS
330
47
102
}
330
47
100
AcDbScale
 70
     0
300
6" = 1'-0"
140
6.0
141
12.0
290
     0
  0
SCALE
  5
68
102
{ACAD_REACTORS
330
47
102
}
330
47
100
AcDbScale
 70
     0
300
1'-0" = 1'-0"
140
12.0
141
12.0
290
     0
  0
ENDSEC
  0
EOF
