  0
SECTION
  2
HEADER
  9
$ACADVER
  1
AC1015
  9
$ACADMAINTVER
 70
     6
  9
$DWGCODEPAGE
  3
ANSI_1252
  9
$INSBASE
 10
0.0
 20
0.0
 30
0.0
  9
$EXTMIN
 10
0.0
 20
0.0
 30
0.0
  9
$EXTMAX
 10
297.0
 20
210.0
 30
0.0
  9
$LIMMIN
 10
0.0
 20
0.0
  9
$LIMMAX
 10
297.0
 20
210.0
  9
$ORTHOMODE
 70
     0
  9
$REGENMODE
 70
     1
  9
$FILLMODE
 70
     1
  9
$QTEXTMODE
 70
     0
  9
$MIRRTEXT
 70
     1
  9
$LTSCALE
 40
1.0
  9
$ATTMODE
 70
     1
  9
$TEXTSIZE
 40
3.8805555556
  9
$TRACEWID
 40
1.0
  9
$TEXTSTYLE
  7
Standard
  9
$CLAYER
  8
0
  9
$CELTYPE
  6
ByLayer
  9
$CECOLOR
 62
   256
  9
$CELTSCALE
 40
1.0
  9
$DISPSILH
 70
     0
  9
$DIMSCALE
 40
1.0
  9
$DIMASZ
 40
3.302
  9
$DIMEXO
 40
1.0
  9
$DIMDLI
 40
3.75
  9
$DIMRND
 40
0.0
  9
$DIMDLE
 40
0.0
  9
$DIMEXE
 40
1.0
  9
$DIMTP
 40
0.0
  9
$DIMTM
 40
0.0
  9
$DIMTXT
 40
3.8805555556
  9
$DIMCEN
 40
2.5
  9
$DIMTSZ
 40
0.0
  9
$DIMTOL
 70
     0
  9
$DIMLIM
 70
     0
  9
$DIMTIH
 70
     1
  9
$DIMTOH
 70
     1
  9
$DIMSE1
 70
     0
  9
$DIMSE2
 70
     0
  9
$DIMTAD
 70
     1
  9
$DIMZIN
 70
     0
  9
$DIMBLK
  1

  9
$DIMASO
 70
     1
  9
$DIMSHO
 70
     1
  9
$DIMPOST
  1

  9
$DIMAPOST
  1

  9
$DIMALT
 70
     0
  9
$DIMALTD
 70
     3
  9
$DIMALTF
 40
0.0393700787
  9
$DIMLFAC
 40
1.0
  9
$DIMTOFL
 70
     1
  9
$DIMTVP
 40
0.0
  9
$DIMTIX
 70
     0
  9
$DIMSOXD
 70
     0
  9
$DIMSAH
 70
     0
  9
$DIMBLK1
  1

  9
$DIMBLK2
  1

  9
$DIMSTYLE
  2
ISO-25
  9
$DIMCLRD
 70
     0
  9
$DIMCLRE
 70
     0
  9
$DIMCLRT
 70
     0
  9
$DIMTFAC
 40
1.0
  9
$DIMGAP
 40
1.524
  9
$DIMJUST
 70
     0
  9
$DIMSD1
 70
     0
  9
$DIMSD2
 70
     0
  9
$DIMTOLJ
 70
     0
  9
$DIMTZIN
 70
     0
  9
$DIMALTZ
 70
     0
  9
$DIMALTTZ
 70
     0
  9
$DIMUPT
 70
     0
  9
$DIMDEC
 70
     2
  9
$DIMTDEC
 70
     2
  9
$DIMALTU
 70
     2
  9
$DIMALTTD
 70
     3
  9
$DIMTXSTY
  7
Standard
  9
$DIMAUNIT
 70
     0
  9
$DIMADEC
 70
     2
  9
$DIMALTRND
 40
0.0
  9
$DIMAZIN
 70
     0
  9
$DIMDSEP
 70
    44
  9
$DIMATFIT
 70
     3
  9
$DIMFRAC
 70
     0
  9
$DIMLDRBLK
  1

  9
$DIMLUNIT
 70
     2
  9
$DIMLWD
 70
    -2
  9
$DIMLWE
 70
    -2
  9
$DIMTMOVE
 70
     0
  9
$LUNITS
 70
     2
  9
$LUPREC
 70
     2
  9
$SKETCHINC
 40
1.0
  9
$FILLETRAD
 40
10.0
  9
$AUNITS
 70
     1
  9
$AUPREC
 70
     2
  9
$MENU
  1
.
  9
$ELEVATION
 40
0.0
  9
$PELEVATION
 40
0.0
  9
$THICKNESS
 40
0.0
  9
$LIMCHECK
 70
     0
  9
$CHAMFERA
 40
0.0
  9
$CHAMFERB
 40
0.0
  9
$CHAMFERC
 40
0.0
  9
$CHAMFERD
 40
0.0
  9
$SKPOLY
 70
     0
  9
$TDCREATE
 40
2458607.489450556
  9
$TDUCREATE
 40
2458607.260283889
  9
$TDUPDATE
 40
2458607.489451597
  9
$TDUUPDATE
 40
2458607.26028493
  9
$TDINDWG
 40
0.0000000116
  9
$TDUSRTIMER
 40
0.0000000116
  9
$USRTIMER
 70
     1
  9
$ANGBASE
 50
0.0
  9
$ANGDIR
 70
     0
  9
$PDMODE
 70
     0
  9
$PDSIZE
 40
-1.0
  9
$PLINEWID
 40
0.0
  9
$SPLFRAME
 70
     0
  9
$SPLINETYPE
 70
     6
  9
$SPLINESEGS
 70
     8
  9
$HANDSEED
  5
184
  9
$SURFTAB1
 70
     6
  9
$SURFTAB2
 70
     6
  9
$SURFTYPE
 70
     6
  9
$SURFU
 70
     6
  9
$SURFV
 70
     6
  9
$UCSBASE
  2

  9
$UCSNAME
  2

  9
$UCSORG
 10
0.0
 20
0.0
 30
0.0
  9
$UCSXDIR
 10
1.0
 20
0.0
 30
0.0
  9
$UCSYDIR
 10
0.0
 20
1.0
 30
0.0
  9
$UCSORTHOREF
  2

  9
$UCSORTHOVIEW
 70
     0
  9
$UCSORGTOP
 10
0.0
 20
0.0
 30
0.0
  9
$UCSORGBOTTOM
 10
0.0
 20
0.0
 30
0.0
  9
$UCSORGLEFT
 10
0.0
 20
0.0
 30
0.0
  9
$UCSORGRIGHT
 10
0.0
 20
0.0
 30
0.0
  9
$UCSORGFRONT
 10
0.0
 20
0.0
 30
0.0
  9
$UCSORGBACK
 10
0.0
 20
0.0
 30
0.0
  9
$PUCSBASE
  2

  9
$PUCSNAME
  2

  9
$PUCSORG
 10
0.0
 20
0.0
 30
0.0
  9
$PUCSXDIR
 10
1.0
 20
0.0
 30
0.0
  9
$PUCSYDIR
 10
0.0
 20
1.0
 30
0.0
  9
$PUCSORTHOREF
  2

  9
$PUCSORTHOVIEW
 70
     0
  9
$PUCSORGTOP
 10
0.0
 20
0.0
 30
0.0
  9
$PUCSORGBOTTOM
 10
0.0
 20
0.0
 30
0.0
  9
$PUCSORGLEFT
 10
0.0
 20
0.0
 30
0.0
  9
$PUCSORGRIGHT
 10
0.0
 20
0.0
 30
0.0
  9
$PUCSORGFRONT
 10
0.0
 20
0.0
 30
0.0
  9
$PUCSORGBACK
 10
0.0
 20
0.0
 30
0.0
  9
$USERI1
 70
     0
  9
$USERI2
 70
     0
  9
$USERI3
 70
     0
  9
$USERI4
 70
     0
  9
$USERI5
 70
     0
  9
$USERR1
 40
0.0
  9
$USERR2
 40
0.0
  9
$USERR3
 40
0.0
  9
$USERR4
 40
0.0
  9
$USERR5
 40
0.0
  9
$WORLDVIEW
 70
     1
  9
$SHADEDGE
 70
     3
  9
$SHADEDIF
 70
    70
  9
$TILEMODE
 70
     1
  9
$MAXACTVP
 70
    64
  9
$PINSBASE
 10
0.0
 20
0.0
 30
0.0
  9
$PLIMCHECK
 70
     0
  9
$PEXTMIN
 10
1.0000000000E+20
 20
1.0000000000E+20
 30
1.0000000000E+20
  9
$PEXTMAX
 10
-1.0000000000E+20
 20
-1.0000000000E+20
 30
-1.0000000000E+20
  9
$PLIMMIN
 10
0.0
 20
0.0
  9
$PLIMMAX
 10
420.0
 20
297.0
  9
$UNITMODE
 70
     0
  9
$VISRETAIN
 70
     1
  9
$PLINEGEN
 70
     0
  9
$PSLTSCALE
 70
     1
  9
$TREEDEPTH
 70
  3020
  9
$CMLSTYLE
  2
Standard
  9
$CMLJUST
 70
     0
  9
$CMLSCALE
 40
20.0
  9
$PROXYGRAPHICS
 70
     1
  9
$MEASUREMENT
 70
     1
  9
$CELWEIGHT
370
    -1
  9
$ENDCAPS
280
     0
  9
$JOINSTYLE
280
     0
  9
$LWDISPLAY
290
     1
  9
$INSUNITS
 70
     4
  9
$HYPERLINKBASE
  1

  9
$STYLESHEET
  1

  9
$XEDIT
290
     1
  9
$CEPSNTYPE
380
     0
  9
$PSTYLEMODE
290
     1
  9
$FINGERPRINTGUID
  2
{DAF73FD1-DD09-4E89-B672-E3268BE1AFE0}
  9
$VERSIONGUID
  2
{FAEB1C32-E019-11D5-929B-00C0DF256EC4}
  9
$EXTNAMES
290
     1
  9
$PSVPSCALE
 40
0.0
  9
$OLESTARTUP
290
     0
  0
ENDSEC
  0
SECTION
  2
CLASSES
  0
CLASS
  1
ACDBDICTIONARYWDFLT
  2
AcDbDictionaryWithDefault
  3
ObjectDBX Classes
 90
        0
280
     0
281
     0
  0
CLASS
  1
VISUALSTYLE
  2
AcDbVisualStyle
  3
ObjectDBX Classes
 90
     4095
280
     0
281
     0
  0
CLASS
  1
MATERIAL
  2
AcDbMaterial
  3
ObjectDBX Classes
 90
     1153
280
     0
281
     0
  0
CLASS
  1
SCALE
  2
AcDbScale
  3
ObjectDBX Classes
 90
     1153
280
     0
281
     0
  0
CLASS
  1
SUN
  2
AcDbSun
  3
SCENEOE
 90
     1153
280
     0
281
     0
  0
CLASS
  1
ACDBPLACEHOLDER
  2
AcDbPlaceHolder
  3
ObjectDBX Classes
 90
        0
280
     0
281
     0
  0
CLASS
  1
LAYOUT
  2
AcDbLayout
  3
ObjectDBX Classes
 90
        0
280
     0
281
     0
  0
ENDSEC
  0
SECTION
  2
TABLES
  0
TABLE
  2
VPORT
  5
8
330
0
100
AcDbSymbolTable
 70
     1
  0
VPORT
  5
29
330
8
100
AcDbSymbolTableRecord
100
AcDbViewportTableRecord
  2
*Active
 70
     0
 10
0.0
 20
0.0
 11
1.0
 21
1.0
 12
148.5
 22
105.0
 13
0.0
 23
0.0
 14
10.0
 24
10.0
 15
10.0
 25
10.0
 16
0.0
 26
0.0
 36
1.0
 17
0.0
 27
0.0
 37
0.0
 40
210.0
 41
1.4142857143
 42
50.0
 43
0.0
 44
0.0
 50
0.0
 51
0.0
 71
     0
 72
  2000
 73
     1
 74
     3
 75
     0
 76
     0
 77
     0
 78
     0
281
     0
 65
     1
110
0.0
120
0.0
130
0.0
111
1.0
121
0.0
131
0.0
112
0.0
122
1.0
132
0.0
 79
     0
146
0.0
  0
ENDTAB
  0
TABLE
  2
LTYPE
  5
5
330
0
100
AcDbSymbolTable
 70
     6
  0
LTYPE
  5
14
330
5
100
AcDbSymbolTableRecord
100
AcDbLinetypeTableRecord
  2
ByBlock
 70
     0
  3

 72
    65
 73
     0
 40
0.0
  0
LTYPE
  5
15
330
5
100
AcDbSymbolTableRecord
100
AcDbLinetypeTableRecord
  2
ByLayer
 70
     0
  3

 72
    65
 73
     0
 40
0.0
  0
LTYPE
  5
16
330
5
100
AcDbSymbolTableRecord
100
AcDbLinetypeTableRecord
  2
Continuous
 70
     0
  3
Solid line
 72
    65
 73
     0
 40
0.0
  0
LTYPE
  5
6A
330
5
100
AcDbSymbolTableRecord
100
AcDbLinetypeTableRecord
  2
HIDDEN
 70
     0
  3
Hidden __ __ __ __ __ __ __ __ __ __ __ __ __ __
 72
    65
 73
     2
 40
1.905
 49
1.27
 74
     0
 49
-0.635
 74
     0
  0
LTYPE
  5
6B
330
5
100
AcDbSymbolTableRecord
100
AcDbLinetypeTableRecord
  2
PHANTOM
 70
     0
  3
Phantom ______  __  __  ______  __  __  ______
 72
    65
 73
     6
 40
12.7
 49
6.35
 74
     0
 49
-1.27
 74
     0
 49
1.27
 74
     0
 49
-1.27
 74
     0
 49
1.27
 74
     0
 49
-1.27
 74
     0
  0
LTYPE
  5
6C
330
5
100
AcDbSymbolTableRecord
100
AcDbLinetypeTableRecord
  2
CENTER
 70
     0
  3
Center ____ _ ____ _ ____ _ ____ _ ____ _ ____
 72
    65
 73
     4
 40
10.16
 49
6.35
 74
     0
 49
-1.27
 74
     0
 49
1.27
 74
     0
 49
-1.27
 74
     0
  0
LTYPE
  5
6D
330
5
100
AcDbSymbolTableRecord
100
AcDbLinetypeTableRecord
  2
CENTERX2
 70
     0
  3
Center (2x) ________  __  ________  __  _____
 72
    65
 73
     4
 40
20.32
 49
12.7
 74
     0
 49
-2.54
 74
     0
 49
2.54
 74
     0
 49
-2.54
 74
     0
  0
LTYPE
  5
6E
330
5
100
AcDbSymbolTableRecord
100
AcDbLinetypeTableRecord
  2
DOT2
 70
     0
  3
Dot (.5x) ........................................
 72
    65
 73
     2
 40
0.635
 49
0.0
 74
     0
 49
-0.635
 74
     0
  0
ENDTAB
  0
TABLE
  2
LAYER
  5
2
330
0
100
AcDbSymbolTable
 70
     8
  0
LAYER
  5
10
330
2
100
AcDbSymbolTableRecord
100
AcDbLayerTableRecord
  2
0
 70
     0
 62
     7
  6
Continuous
370
    -3
390
F
  0
LAYER
  5
6F
330
2
100
AcDbSymbolTableRecord
100
AcDbLayerTableRecord
  2
FORMAT
 70
     0
 62
     7
  6
Continuous
370
    -3
390
F
  0
LAYER
  5
70
330
2
100
AcDbSymbolTableRecord
100
AcDbLayerTableRecord
  2
SLD-0
 70
     0
 62
     2
  6
Continuous
370
    -3
390
F
  0
LAYER
  5
71
330
2
100
AcDbSymbolTableRecord
100
AcDbLayerTableRecord
  2
DIM
 70
     0
 62
   179
  6
Continuous
370
    -3
390
F
  0
LAYER
  5
72
330
2
100
AcDbSymbolTableRecord
100
AcDbLayerTableRecord
  2
SLD-DEFPOINTS
 70
     0
 62
   179
  6
Continuous
370
    -3
390
F
  0
LAYER
  5
73
330
2
100
AcDbSymbolTableRecord
100
AcDbLayerTableRecord
  2
HAT
 70
     0
 62
   135
  6
Continuous
370
    -3
390
F
  0
LAYER
  5
74
330
2
100
AcDbSymbolTableRecord
100
AcDbLayerTableRecord
  2
JOB
 70
     0
 62
   201
  6
Continuous
370
    -3
390
F
  0
LAYER
  5
75
330
2
100
AcDbSymbolTableRecord
100
AcDbLayerTableRecord
  2
INSPECTION_REPORT
 70
     0
 62
   255
  6
Continuous
370
    -3
390
F
  0
ENDTAB
  0
TABLE
  2
STYLE
  5
3
330
0
100
AcDbSymbolTable
 70
     4
  0
STYLE
  5
11
330
3
100
AcDbSymbolTableRecord
100
AcDbTextStyleTableRecord
  2
Standard
 70
     0
 40
0.0
 41
1.0
 50
0.0
 71
     0
 42
3.8805555556
  3
txt
  4

  0
STYLE
  5
96
330
3
100
AcDbSymbolTableRecord
100
AcDbTextStyleTableRecord
  2
SLDTEXTSTYLE0
 70
     0
 40
0.0
 41
0.7
 50
0.0
 71
     0
 42
3.8805555556
  3
TXT
  4

  0
STYLE
  5
98
330
3
100
AcDbSymbolTableRecord
100
AcDbTextStyleTableRecord
  2
SLDTEXTSTYLE1
 70
     0
 40
0.0
 41
0.75
 50
0.0
 71
     0
 42
3.8805555556
  3
TXT
  4

  0
STYLE
  5
AB
330
3
100
AcDbSymbolTableRecord
100
AcDbTextStyleTableRecord
  2
SLDTEXTSTYLE2
 70
     0
 40
0.0
 41
0.6875
 50
0.0
 71
     0
 42
3.8805555556
  3
TXT
  4

  0
ENDTAB
  0
TABLE
  2
VIEW
  5
6
330
0
100
AcDbSymbolTable
 70
     0
  0
ENDTAB
  0
TABLE
  2
UCS
  5
7
330
0
100
AcDbSymbolTable
 70
     0
  0
ENDTAB
  0
TABLE
  2
APPID
  5
9
330
0
100
AcDbSymbolTable
 70
     1
  0
APPID
  5
12
330
9
100
AcDbSymbolTableRecord
100
AcDbRegAppTableRecord
  2
ACAD
 70
     0
  0
ENDTAB
  0
TABLE
  2
DIMSTYLE
  5
A
330
0
100
AcDbSymbolTable
 70
     3
100
AcDbDimStyleTable
  0
DIMSTYLE
105
27
330
A
100
AcDbSymbolTableRecord
100
AcDbDimStyleTableRecord
  2
ISO-25
 70
     0
 41
2.5
 42
0.625
 43
3.75
 44
1.25
 73
     0
 74
     0
 77
     1
 78
     8
140
2.5
141
2.5
143
0.0393700787
147
0.625
171
     3
172
     1
178
     0
271
     2
272
     2
274
     3
278
    44
283
     0
284
     8
340
11
  0
DIMSTYLE
105
155
102
{ACAD_REACTORS
330
154
330
160
102
}
330
A
100
AcDbSymbolTableRecord
100
AcDbDimStyleTableRecord
  2
SLDDIMSTYLE0
 70
     0
 41
3.302
 44
0.0
 45
0.000000001
 73
     0
 74
     0
 77
     1
 78
    12
 79
     3
140
2.9104166667
147
0.7276041667
173
     1
178
     0
271
     2
272
     2
276
     2
284
    12
340
96
  0
DIMSTYLE
105
16B
102
{ACAD_REACTORS
330
16A
330
175
102
}
330
A
100
AcDbSymbolTableRecord
100
AcDbDimStyleTableRecord
  2
SLDDIMSTYLE1
 70
     0
 41
3.302
 44
0.0
 45
0.000000001
 73
     0
 74
     0
 77
     1
 78
     4
 79
     1
140
2.9104166667
147
0.7276041667
173
     1
178
     0
271
     2
272
     2
276
     2
284
    12
340
96
  0
ENDTAB
  0
TABLE
  2
BLOCK_RECORD
  5
1
330
0
100
AcDbSymbolTable
 70
     6
  0
BLOCK_RECORD
  5
1F
330
1
100
AcDbSymbolTableRecord
100
AcDbBlockTableRecord
  2
*Model_Space
340
22
  0
BLOCK_RECORD
  5
1B
330
1
100
AcDbSymbolTableRecord
100
AcDbBlockTableRecord
  2
*Paper_Space
340
1E
  0
BLOCK_RECORD
  5
23
330
1
100
AcDbSymbolTableRecord
100
AcDbBlockTableRecord
  2
*Paper_Space0
340
26
  0
BLOCK_RECORD
  5
E7
330
1
100
AcDbSymbolTableRecord
100
AcDbBlockTableRecord
  2
SW_CENTERMARKSYMBOL_0
340
0
102
{BLKREFS
331
F2
102
}
  0
BLOCK_RECORD
  5
156
330
1
100
AcDbSymbolTableRecord
100
AcDbBlockTableRecord
  2
_D
340
0
  0
BLOCK_RECORD
  5
161
330
1
100
AcDbSymbolTableRecord
100
AcDbBlockTableRecord
  2
_D_1
340
0
  0
BLOCK_RECORD
  5
16C
330
1
100
AcDbSymbolTableRecord
100
AcDbBlockTableRecord
  2
_D_2
340
0
  0
BLOCK_RECORD
  5
176
330
1
100
AcDbSymbolTableRecord
100
AcDbBlockTableRecord
  2
_D_3
340
0
  0
ENDTAB
  0
ENDSEC
  0
SECTION
  2
BLOCKS
  0
BLOCK
  5
20
330
1F
100
AcDbEntity
  8
0
100
AcDbBlockBegin
  2
*Model_Space
 70
     0
 10
0.0
 20
0.0
 30
0.0
  3
*Model_Space
  1
*Model_Space
  0
ENDBLK
  5
21
330
1F
100
AcDbEntity
  8
0
100
AcDbBlockEnd
  0
BLOCK
  5
1C
330
1B
100
AcDbEntity
 67
     1
  8
0
100
AcDbBlockBegin
  2
*Paper_Space
 70
     0
 10
0.0
 20
0.0
 30
0.0
  3
*Paper_Space
  1
*Paper_Space
  0
ENDBLK
  5
1D
330
1B
100
AcDbEntity
 67
     1
  8
0
100
AcDbBlockEnd
  0
BLOCK
  5
24
330
23
100
AcDbEntity
  8
0
100
AcDbBlockBegin
  2
*Paper_Space0
 70
     0
 10
0.0
 20
0.0
 30
0.0
  3
*Paper_Space0
  1
*Paper_Space0
  0
ENDBLK
  5
25
330
23
100
AcDbEntity
  8
0
100
AcDbBlockEnd
  0
BLOCK
  5
E8
330
E7
100
AcDbEntity
  8
0
100
AcDbBlockBegin
  2
SW_CENTERMARKSYMBOL_0
 70
     0
 10
0.0
 20
0.0
 30
0.0
  3
SW_CENTERMARKSYMBOL_0
  1
SW_CENTERMARKSYMBOL_0
  0
LINE
  5
EA
330
E7
100
AcDbEntity
  8
DIM
 62
     0
100
AcDbLine
 10
0.0
 20
0.0
 30
0.0
 11
0.0
 21
2.5
 31
0.0
  0
LINE
  5
EB
330
E7
100
AcDbEntity
  8
DIM
 62
     0
100
AcDbLine
 10
0.0
 20
0.0
 30
0.0
 11
-2.5
 21
0.0
 31
0.0
  0
LINE
  5
EC
330
E7
100
AcDbEntity
  8
DIM
 62
     0
100
AcDbLine
 10
0.0
 20
0.0
 30
0.0
 11
0.0
 21
-2.5
 31
0.0
  0
LINE
  5
ED
330
E7
100
AcDbEntity
  8
DIM
 62
     0
100
AcDbLine
 10
0.0
 20
0.0
 30
0.0
 11
2.5
 21
0.0
 31
0.0
  0
LINE
  5
EE
330
E7
100
AcDbEntity
  8
DIM
 62
     0
100
AcDbLine
 10
0.0
 20
5.0
 30
0.0
 11
0.0
 21
36.1885535049
 31
0.0
  0
LINE
  5
EF
330
E7
100
AcDbEntity
  8
DIM
 62
     0
100
AcDbLine
 10
-5.0
 20
0.0
 30
0.0
 11
-35.0338115789
 21
0.0
 31
0.0
  0
LINE
  5
F0
330
E7
100
AcDbEntity
  8
DIM
 62
     0
100
AcDbLine
 10
0.0
 20
-5.0
 30
0.0
 11
0.0
 21
-33.845211834
 31
0.0
  0
LINE
  5
F1
330
E7
100
AcDbEntity
  8
DIM
 62
     0
100
AcDbLine
 10
5.0
 20
0.0
 30
0.0
 11
31.4277482801
 21
0.0
 31
0.0
  0
ENDBLK
  5
E9
330
E7
100
AcDbEntity
  8
0
100
AcDbBlockEnd
  0
BLOCK
  5
157
330
156
100
AcDbEntity
  8
0
100
AcDbBlockBegin
  2
_D
 70
     0
 10
0.0
 20
0.0
 30
0.0
  3
_D
  1
_D
  0
SOLID
  5
159
330
156
100
AcDbEntity
  8
DIM
100
AcDbTrace
 10
269.8041401946
 20
135.1211436138
 30
0.0
 11
269.2961401946
 21
131.8191436138
 31
0.0
 12
270.3121401946
 22
131.8191436138
 32
0.0
 13
270.3121401946
 23
131.8191436138
 33
0.0
  0
SOLID
  5
15A
330
156
100
AcDbEntity
  8
DIM
100
AcDbTrace
 10
269.8041401946
 20
87.1211436138
 30
0.0
 11
270.3121401946
 21
90.4231436138
 31
0.0
 12
269.2961401946
 22
90.4231436138
 32
0.0
 13
269.2961401946
 23
90.4231436138
 33
0.0
  0
LINE
  5
15B
330
156
100
AcDbEntity
  8
DIM
100
AcDbLine
 10
259.9381147908
 20
135.1211436138
 30
0.0
 11
270.8041401946
 21
135.1211436138
 31
0.0
  0
LINE
  5
15C
330
156
100
AcDbEntity
  8
DIM
100
AcDbLine
 10
259.9381147908
 20
87.1211436138
 30
0.0
 11
270.8041401946
 21
87.1211436138
 31
0.0
  0
LINE
  5
15D
330
156
100
AcDbEntity
  8
DIM
100
AcDbLine
 10
269.8041401946
 20
135.1211436138
 30
0.0
 11
269.8041401946
 21
87.1211436138
 31
0.0
  0
MTEXT
  5
15E
330
156
100
AcDbEntity
  8
DIM
100
AcDbMText
 10
266.0524157275
 20
106.9035995089
 30
0.0
 40
2.9104166667
 41
0.0
 71
     1
 72
     1
  1
%%c
  7
SLDTEXTSTYLE0
 11
-7.044195017643634E-15
 21
1.0
 31
0.0
 73
     1
 44
1.0
  0
MTEXT
  5
15F
330
156
100
AcDbEntity
  8
DIM
100
AcDbMText
 10
266.0524157275
 20
111.4042354085
 30
0.0
 40
2.9104166667
 41
0.0
 71
     1
 72
     1
  1
48
  7
SLDTEXTSTYLE0
 11
-7.044195017643634E-15
 21
1.0
 31
0.0
 73
     1
 44
1.0
  0
ENDBLK
  5
158
330
156
100
AcDbEntity
  8
0
100
AcDbBlockEnd
  0
BLOCK
  5
162
330
161
100
AcDbEntity
  8
0
100
AcDbBlockBegin
  2
_D_1
 70
     0
 10
0.0
 20
0.0
 30
0.0
  3
_D_1
  1
_D_1
  0
SOLID
  5
164
330
161
100
AcDbEntity
  8
DIM
100
AcDbTrace
 10
259.8041401946
 20
71.3534083436
 30
0.0
 11
256.5021401946
 21
71.8614083436
 31
0.0
 12
256.5021401946
 22
70.8454083436
 32
0.0
 13
256.5021401946
 23
70.8454083436
 33
0.0
  0
SOLID
  5
165
330
161
100
AcDbEntity
  8
DIM
100
AcDbTrace
 10
164.8041401946
 20
71.3534083436
 30
0.0
 11
168.1061401946
 21
70.8454083436
 31
0.0
 12
168.1061401946
 22
71.8614083436
 32
0.0
 13
168.1061401946
 23
71.8614083436
 33
0.0
  0
LINE
  5
166
330
161
100
AcDbEntity
  8
DIM
100
AcDbLine
 10
259.8041401946
 20
87.6211436138
 30
0.0
 11
259.8041401946
 21
70.3534083436
 31
0.0
  0
LINE
  5
167
330
161
100
AcDbEntity
  8
DIM
100
AcDbLine
 10
164.8041401946
 20
87.8961436138
 30
0.0
 11
164.8041401946
 21
70.3534083436
 31
0.0
  0
LINE
  5
168
330
161
100
AcDbEntity
  8
DIM
100
AcDbLine
 10
259.8041401946
 20
71.3534083436
 30
0.0
 11
164.8041401946
 21
71.3534083436
 31
0.0
  0
MTEXT
  5
169
330
161
100
AcDbEntity
  8
DIM
100
AcDbMText
 10
210.3369140395
 20
75.1051328107
 30
0.0
 40
2.9104166667
 41
0.0
 71
     1
 72
     1
  1
95
  7
SLDTEXTSTYLE0
 73
     1
 44
1.0
  0
ENDBLK
  5
163
330
161
100
AcDbEntity
  8
0
100
AcDbBlockEnd
  0
BLOCK
  5
16D
330
16C
100
AcDbEntity
  8
0
100
AcDbBlockBegin
  2
_D_2
 70
     0
 10
0.0
 20
0.0
 30
0.0
  3
_D_2
  1
_D_2
  0
SOLID
  5
16F
330
16C
100
AcDbEntity
  8
DIM
100
AcDbTrace
 10
259.8041401946
 20
65.9020299467
 30
0.0
 11
256.5021401946
 21
66.4100299467
 31
0.0
 12
256.5021401946
 22
65.3940299467
 32
0.0
 13
256.5021401946
 23
65.3940299467
 33
0.0
  0
SOLID
  5
170
330
16C
100
AcDbEntity
  8
DIM
100
AcDbTrace
 10
96.4041401946
 20
65.9020299467
 30
0.0
 11
99.7061401946
 21
65.3940299467
 31
0.0
 12
99.7061401946
 22
66.4100299467
 32
0.0
 13
99.7061401946
 23
66.4100299467
 33
0.0
  0
LINE
  5
171
330
16C
100
AcDbEntity
  8
DIM
100
AcDbLine
 10
259.8041401946
 20
87.6211436138
 30
0.0
 11
259.8041401946
 21
64.9020299467
 31
0.0
  0
LINE
  5
172
330
16C
100
AcDbEntity
  8
DIM
100
AcDbLine
 10
96.4041401946
 20
110.1211436138
 30
0.0
 11
96.4041401946
 21
64.9020299467
 31
0.0
  0
LINE
  5
173
330
16C
100
AcDbEntity
  8
DIM
100
AcDbLine
 10
259.8041401946
 20
65.9020299467
 30
0.0
 11
96.4041401946
 21
65.9020299467
 31
0.0
  0
MTEXT
  5
174
330
16C
100
AcDbEntity
  8
DIM
100
AcDbMText
 10
172.6686673747
 20
69.6537544138
 30
0.0
 40
2.9104166667
 41
0.0
 71
     1
 72
     1
  1
163.40
  7
SLDTEXTSTYLE0
 73
     1
 44
1.0
  0
ENDBLK
  5
16E
330
16C
100
AcDbEntity
  8
0
100
AcDbBlockEnd
  0
BLOCK
  5
177
330
176
100
AcDbEntity
  8
0
100
AcDbBlockBegin
  2
_D_3
 70
     0
 10
0.0
 20
0.0
 30
0.0
  3
_D_3
  1
_D_3
  0
SOLID
  5
179
330
176
100
AcDbEntity
  8
DIM
100
AcDbTrace
 10
92.6479974246
 20
142.8711436138
 30
0.0
 11
92.1399974246
 21
139.5691436138
 31
0.0
 12
93.1559974246
 22
139.5691436138
 32
0.0
 13
93.1559974246
 23
139.5691436138
 33
0.0
  0
SOLID
  5
17A
330
176
100
AcDbEntity
  8
DIM
100
AcDbTrace
 10
92.6479974246
 20
79.3711436138
 30
0.0
 11
93.1559974246
 21
82.6731436138
 31
0.0
 12
92.1399974246
 22
82.6731436138
 32
0.0
 13
92.1399974246
 23
82.6731436138
 33
0.0
  0
LINE
  5
17B
330
176
100
AcDbEntity
  8
DIM
100
AcDbLine
 10
168.1698256196
 20
142.8711436138
 30
0.0
 11
91.6479974246
 21
142.8711436138
 31
0.0
  0
LINE
  5
17C
330
176
100
AcDbEntity
  8
DIM
100
AcDbLine
 10
168.1698256196
 20
79.3711436138
 30
0.0
 11
91.6479974246
 21
79.3711436138
 31
0.0
  0
LINE
  5
17D
330
176
100
AcDbEntity
  8
DIM
100
AcDbLine
 10
92.6479974246
 20
142.8711436138
 30
0.0
 11
92.6479974246
 21
79.3711436138
 31
0.0
  0
MTEXT
  5
17E
330
176
100
AcDbEntity
  8
DIM
100
AcDbMText
 10
88.8962729575
 20
104.4189659216
 30
0.0
 40
2.9104166667
 41
0.0
 71
     1
 72
     1
  1
%%c
  7
SLDTEXTSTYLE0
 11
-7.044195017643634E-15
 21
1.0
 31
0.0
 73
     1
 44
1.0
  0
MTEXT
  5
17F
330
176
100
AcDbEntity
  8
DIM
100
AcDbMText
 10
88.8962729575
 20
108.9196018212
 30
0.0
 40
2.9104166667
 41
0.0
 71
     1
 72
     1
  1
63.50
  7
SLDTEXTSTYLE0
 11
-7.044195017643634E-15
 21
1.0
 31
0.0
 73
     1
 44
1.0
  0
ENDBLK
  5
178
330
176
100
AcDbEntity
  8
0
100
AcDbBlockEnd
  0
ENDSEC
  0
SECTION
  2
ENTITIES
  0
LINE
  5
76
330
1F
100
AcDbEntity
  8
DIM
100
AcDbLine
 10
104.704424689
 20
9.7909914569
 30
0.0
 11
104.704424689
 21
4.7909914569
 31
0.0
  0
LINE
  5
77
330
1F
100
AcDbEntity
  8
DIM
100
AcDbLine
 10
254.4696016953
 20
9.7909914569
 30
0.0
 11
254.4696016953
 21
4.7909914569
 31
0.0
  0
LINE
  5
78
330
1F
100
AcDbEntity
  8
DIM
100
AcDbLine
 10
237.4517099316
 20
9.7909914569
 30
0.0
 11
237.4517099316
 21
4.7909914569
 31
0.0
  0
LINE
  5
79
330
1F
100
AcDbEntity
  8
DIM
100
AcDbLine
 10
278.904424689
 20
4.7909914569
 30
0.0
 11
278.904424689
 21
9.7909914569
 31
0.0
  0
LINE
  5
7A
330
1F
100
AcDbEntity
  8
DIM
100
AcDbLine
 10
112.504424689
 20
9.7909914569
 30
0.0
 11
112.504424689
 21
4.7909914569
 31
0.0
  0
LINE
  5
7B
330
1F
100
AcDbEntity
  8
DIM
100
AcDbLine
 10
131.6953771228
 20
9.7909914569
 30
0.0
 11
131.6953771228
 21
4.7909914569
 31
0.0
  0
LINE
  5
7C
330
1F
100
AcDbEntity
  8
DIM
100
AcDbLine
 10
291.904424689
 20
4.7909914569
 30
0.0
 11
291.904424689
 21
77.0409914569
 31
0.0
  0
LINE
  5
7D
330
1F
100
AcDbEntity
  8
DIM
100
AcDbLine
 10
285.8190046947
 20
60.0409914569
 30
0.0
 11
291.904424689
 21
60.0409914569
 31
0.0
  0
LINE
  5
7E
330
1F
100
AcDbEntity
  8
DIM
100
AcDbLine
 10
149.1033508525
 20
9.0409914569
 30
0.0
 11
149.1033508525
 21
4.7909914569
 31
0.0
  0
LINE
  5
7F
330
1F
100
AcDbEntity
  8
DIM
100
AcDbLine
 10
196.7639491604
 20
9.7909914569
 30
0.0
 11
196.7639491604
 21
4.7909914569
 31
0.0
  0
LINE
  5
80
330
1F
100
AcDbEntity
  8
DIM
100
AcDbLine
 10
149.1033508525
 20
9.7909914569
 30
0.0
 11
149.1033508525
 21
9.0409914569
 31
0.0
  0
LINE
  5
81
330
1F
100
AcDbEntity
  8
DIM
100
AcDbLine
 10
286.904424689
 20
17.5409194569
 30
0.0
 11
291.904424689
 21
17.5409194569
 31
0.0
  0
LINE
  5
82
330
1F
100
AcDbEntity
  8
DIM
100
AcDbLine
 10
286.904424689
 20
199.7909914569
 30
0.0
 11
9.904424689
 21
199.7909914569
 31
0.0
  0
LINE
  5
83
330
1F
100
AcDbEntity
  8
DIM
100
AcDbLine
 10
291.904424689
 20
204.7909914569
 30
0.0
 11
4.904424689
 21
204.7909914569
 31
0.0
  0
LINE
  5
84
330
1F
100
AcDbEntity
  8
DIM
100
AcDbLine
 10
9.904424689
 20
199.7909914569
 30
0.0
 11
9.904424689
 21
9.7909914569
 31
0.0
  0
LINE
  5
85
330
1F
100
AcDbEntity
  8
DIM
100
AcDbLine
 10
4.904424689
 20
204.7909914569
 30
0.0
 11
4.904424689
 21
4.7909914569
 31
0.0
  0
LINE
  5
86
330
1F
100
AcDbEntity
  8
DIM
100
AcDbLine
 10
9.904424689
 20
54.7909914569
 30
0.0
 11
4.904424689
 21
54.7909914569
 31
0.0
  0
LINE
  5
87
330
1F
100
AcDbEntity
  8
DIM
100
AcDbLine
 10
4.904424689
 20
104.7909914569
 30
0.0
 11
9.904424689
 21
104.7909914569
 31
0.0
  0
LINE
  5
88
330
1F
100
AcDbEntity
  8
DIM
100
AcDbLine
 10
4.904424689
 20
4.7909914569
 30
0.0
 11
291.904424689
 21
4.7909914569
 31
0.0
  0
LINE
  5
89
330
1F
100
AcDbEntity
  8
DIM
100
AcDbLine
 10
9.904424689
 20
9.7909914569
 30
0.0
 11
291.904424689
 21
9.7909914569
 31
0.0
  0
LINE
  5
8A
330
1F
100
AcDbEntity
  8
DIM
100
AcDbLine
 10
48.404424689
 20
4.7909914569
 30
0.0
 11
48.404424689
 21
9.7909914569
 31
0.0
  0
LINE
  5
8B
330
1F
100
AcDbEntity
  8
DIM
100
AcDbLine
 10
98.404424689
 20
9.7909914569
 30
0.0
 11
98.404424689
 21
4.7909914569
 31
0.0
  0
LINE
  5
8C
330
1F
100
AcDbEntity
  8
DIM
100
AcDbLine
 10
9.904424689
 20
154.7909914569
 30
0.0
 11
4.904424689
 21
154.7909914569
 31
0.0
  0
LINE
  5
8D
330
1F
100
AcDbEntity
  8
DIM
100
AcDbLine
 10
48.404424689
 20
199.7909914569
 30
0.0
 11
48.404424689
 21
204.7909914569
 31
0.0
  0
LINE
  5
8E
330
1F
100
AcDbEntity
  8
DIM
100
AcDbLine
 10
98.404424689
 20
204.7909914569
 30
0.0
 11
98.404424689
 21
199.7909914569
 31
0.0
  0
LINE
  5
8F
330
1F
100
AcDbEntity
  8
DIM
100
AcDbLine
 10
148.404424689
 20
204.7909914569
 30
0.0
 11
148.404424689
 21
199.7909914569
 31
0.0
  0
LINE
  5
90
330
1F
100
AcDbEntity
  8
DIM
100
AcDbLine
 10
286.904424689
 20
9.7909914569
 30
0.0
 11
286.904424689
 21
199.7909914569
 31
0.0
  0
LINE
  5
91
330
1F
100
AcDbEntity
  8
DIM
100
AcDbLine
 10
291.904424689
 20
77.0409914569
 30
0.0
 11
291.904424689
 21
204.7909914569
 31
0.0
  0
LINE
  5
92
330
1F
100
AcDbEntity
  8
DIM
100
AcDbLine
 10
291.904424689
 20
104.7909914569
 30
0.0
 11
286.904424689
 21
104.7909914569
 31
0.0
  0
LINE
  5
93
330
1F
100
AcDbEntity
  8
DIM
100
AcDbLine
 10
198.404424689
 20
204.7909914569
 30
0.0
 11
198.404424689
 21
199.7909914569
 31
0.0
  0
LINE
  5
94
330
1F
100
AcDbEntity
  8
DIM
100
AcDbLine
 10
248.404424689
 20
199.7909914569
 30
0.0
 11
248.404424689
 21
204.7909914569
 31
0.0
  0
LINE
  5
95
330
1F
100
AcDbEntity
  8
DIM
100
AcDbLine
 10
286.904424689
 20
154.7909914569
 30
0.0
 11
291.904424689
 21
154.7909914569
 31
0.0
  0
MTEXT
  5
97
330
1F
100
AcDbEntity
  8
DIM
100
AcDbMText
 10
15.1750049046
 20
193.3290101352
 30
0.0
 40
4.2333333333
 41
0.0
 71
     1
 72
     1
  1
SK40 MT04 095 6.3G15000 SL
  7
SLDTEXTSTYLE0
 73
     1
 44
1.0
  0
MTEXT
  5
99
330
1F
100
AcDbEntity
  8
DIM
 62
     7
100
AcDbMText
 10
197.7327786466
 20
7.8019515263
 30
0.0
 40
1.4986
 41
0.0
 71
     1
 72
     1
  1
WEIGHT:
  7
SLDTEXTSTYLE1
 73
     1
 44
1.0
  0
MTEXT
  5
9A
330
1F
100
AcDbEntity
  8
DIM
 62
     7
100
AcDbMText
 10
288.5970767548
 20
81.9406135082
 30
0.0
 40
1.8520833333
 41
0.0
 71
     1
 72
     1
  1
C
  7
SLDTEXTSTYLE1
 73
     1
 44
1.0
  0
MTEXT
  5
9B
330
1F
100
AcDbEntity
  8
DIM
 62
     7
100
AcDbMText
 10
283.0435806195
 20
14.8539819836
 30
0.0
 40
2.9104166667
 41
0.0
 71
     1
 72
     1
  1
A4
  7
SLDTEXTSTYLE1
 73
     1
 44
1.0
  0
MTEXT
  5
9C
330
1F
100
AcDbEntity
  8
DIM
 62
     7
100
AcDbMText
 10
272.5710953557
 20
203.4590078604
 30
0.0
 40
1.8520833333
 41
0.0
 71
     1
 72
     1
  1
6
  7
SLDTEXTSTYLE1
 73
     1
 44
1.0
  0
MTEXT
  5
9D
330
1F
100
AcDbEntity
  8
DIM
 62
     7
100
AcDbMText
 10
222.5710953557
 20
203.4590078604
 30
0.0
 40
1.8520833333
 41
0.0
 71
     1
 72
     1
  1
5
  7
SLDTEXTSTYLE1
 73
     1
 44
1.0
  0
MTEXT
  5
9E
330
1F
100
AcDbEntity
  8
DIM
 62
     7
100
AcDbMText
 10
288.5710993557
 20
180.9590078604
 30
0.0
 40
1.8520833333
 41
0.0
 71
     1
 72
     1
  1
A
  7
SLDTEXTSTYLE1
 73
     1
 44
1.0
  0
MTEXT
  5
9F
330
1F
100
AcDbEntity
  8
DIM
 62
     7
100
AcDbMText
 10
288.5710993557
 20
130.9590078604
 30
0.0
 40
1.8520833333
 41
0.0
 71
     1
 72
     1
  1
B
  7
SLDTEXTSTYLE1
 73
     1
 44
1.0
  0
MTEXT
  5
A0
330
1F
100
AcDbEntity
  8
DIM
 62
     7
100
AcDbMText
 10
172.5710953557
 20
203.4590078604
 30
0.0
 40
1.8520833333
 41
0.0
 71
     1
 72
     1
  1
4
  7
SLDTEXTSTYLE1
 73
     1
 44
1.0
  0
MTEXT
  5
A1
330
1F
100
AcDbEntity
  8
DIM
 62
     7
100
AcDbMText
 10
22.9877620223
 20
203.4590078604
 30
0.0
 40
1.8520833333
 41
0.0
 71
     1
 72
     1
  1
1
  7
SLDTEXTSTYLE1
 73
     1
 44
1.0
  0
MTEXT
  5
A2
330
1F
100
AcDbEntity
  8
DIM
 62
     7
100
AcDbMText
 10
72.5710953557
 20
203.4590078604
 30
0.0
 40
1.8520833333
 41
0.0
 71
     1
 72
     1
  1
2
  7
SLDTEXTSTYLE1
 73
     1
 44
1.0
  0
MTEXT
  5
A3
330
1F
100
AcDbEntity
  8
DIM
 62
     7
100
AcDbMText
 10
122.5710953557
 20
203.4590078604
 30
0.0
 40
1.8520833333
 41
0.0
 71
     1
 72
     1
  1
3
  7
SLDTEXTSTYLE1
 73
     1
 44
1.0
  0
MTEXT
  5
A4
330
1F
100
AcDbEntity
  8
DIM
 62
     7
100
AcDbMText
 10
6.5710913557
 20
180.9590078604
 30
0.0
 40
1.8520833333
 41
0.0
 71
     1
 72
     1
  1
A
  7
SLDTEXTSTYLE1
 73
     1
 44
1.0
  0
MTEXT
  5
A5
330
1F
100
AcDbEntity
  8
DIM
 62
     7
100
AcDbMText
 10
72.5710953557
 20
8.4590078604
 30
0.0
 40
1.8520833333
 41
0.0
 71
     1
 72
     1
  1
2
  7
SLDTEXTSTYLE1
 73
     1
 44
1.0
  0
MTEXT
  5
A6
330
1F
100
AcDbEntity
  8
DIM
 62
     7
100
AcDbMText
 10
22.9877620223
 20
8.4590078604
 30
0.0
 40
1.8520833333
 41
0.0
 71
     1
 72
     1
  1
1
  7
SLDTEXTSTYLE1
 73
     1
 44
1.0
  0
MTEXT
  5
A7
330
1F
100
AcDbEntity
  8
DIM
 62
     7
100
AcDbMText
 10
6.5710913557
 20
30.9590078604
 30
0.0
 40
1.8520833333
 41
0.0
 71
     1
 72
     1
  1
D
  7
SLDTEXTSTYLE1
 73
     1
 44
1.0
  0
MTEXT
  5
A8
330
1F
100
AcDbEntity
  8
DIM
 62
     7
100
AcDbMText
 10
6.5710913557
 20
80.9590078604
 30
0.0
 40
1.8520833333
 41
0.0
 71
     1
 72
     1
  1
C
  7
SLDTEXTSTYLE1
 73
     1
 44
1.0
  0
MTEXT
  5
A9
330
1F
100
AcDbEntity
  8
DIM
 62
     7
100
AcDbMText
 10
6.5710913557
 20
130.9590078604
 30
0.0
 40
1.8520833333
 41
0.0
 71
     1
 72
     1
  1
B
  7
SLDTEXTSTYLE1
 73
     1
 44
1.0
  0
MTEXT
  5
AA
330
1F
100
AcDbEntity
  8
DIM
 62
     7
100
AcDbMText
 10
288.5970767548
 20
81.9406135082
 30
0.0
 40
1.8520833333
 41
0.0
 71
     1
 72
     1
  1
C
  7
SLDTEXTSTYLE1
 73
     1
 44
1.0
  0
MTEXT
  5
AC
330
1F
100
AcDbEntity
  8
DIM
 62
     7
100
AcDbMText
 10
256.5253658125
 20
7.6910787314
 30
0.0
 40
1.5
 41
0.0
 71
     1
 72
     1
  1
SHEET 1 OF 1
  7
SLDTEXTSTYLE2
 73
     1
 44
1.0
  0
MTEXT
  5
AD
330
1F
100
AcDbEntity
  8
DIM
 62
     7
100
AcDbMText
 10
150.3717803834
 20
7.8533674836
 30
0.0
 40
1.5
 41
0.0
 71
     1
 72
     1
  1
MATERIAL:
  7
SLDTEXTSTYLE1
 73
     1
 44
1.0
  0
MTEXT
  5
AE
330
1F
100
AcDbEntity
  8
DIM
 62
     7
100
AcDbMText
 10
272.5710953557
 20
203.4590078604
 30
0.0
 40
1.8520833333
 41
0.0
 71
     1
 72
     1
  1
6
  7
SLDTEXTSTYLE1
 73
     1
 44
1.0
  0
MTEXT
  5
AF
330
1F
100
AcDbEntity
  8
DIM
 62
     7
100
AcDbMText
 10
222.5710953557
 20
203.4590078604
 30
0.0
 40
1.8520833333
 41
0.0
 71
     1
 72
     1
  1
5
  7
SLDTEXTSTYLE1
 73
     1
 44
1.0
  0
MTEXT
  5
B0
330
1F
100
AcDbEntity
  8
DIM
 62
     7
100
AcDbMText
 10
288.5710993557
 20
180.9590078604
 30
0.0
 40
1.8520833333
 41
0.0
 71
     1
 72
     1
  1
A
  7
SLDTEXTSTYLE1
 73
     1
 44
1.0
  0
MTEXT
  5
B1
330
1F
100
AcDbEntity
  8
DIM
 62
     7
100
AcDbMText
 10
288.5710993557
 20
130.9590078604
 30
0.0
 40
1.8520833333
 41
0.0
 71
     1
 72
     1
  1
B
  7
SLDTEXTSTYLE1
 73
     1
 44
1.0
  0
MTEXT
  5
B2
330
1F
100
AcDbEntity
  8
DIM
 62
     7
100
AcDbMText
 10
172.5710953557
 20
203.4590078604
 30
0.0
 40
1.8520833333
 41
0.0
 71
     1
 72
     1
  1
4
  7
SLDTEXTSTYLE1
 73
     1
 44
1.0
  0
MTEXT
  5
B3
330
1F
100
AcDbEntity
  8
DIM
 62
     7
100
AcDbMText
 10
22.9877620223
 20
203.4590078604
 30
0.0
 40
1.8520833333
 41
0.0
 71
     1
 72
     1
  1
1
  7
SLDTEXTSTYLE1
 73
     1
 44
1.0
  0
MTEXT
  5
B4
330
1F
100
AcDbEntity
  8
DIM
 62
     7
100
AcDbMText
 10
72.5710953557
 20
203.4590078604
 30
0.0
 40
1.8520833333
 41
0.0
 71
     1
 72
     1
  1
2
  7
SLDTEXTSTYLE1
 73
     1
 44
1.0
  0
MTEXT
  5
B5
330
1F
100
AcDbEntity
  8
DIM
 62
     7
100
AcDbMText
 10
122.5710953557
 20
203.4590078604
 30
0.0
 40
1.8520833333
 41
0.0
 71
     1
 72
     1
  1
3
  7
SLDTEXTSTYLE1
 73
     1
 44
1.0
  0
MTEXT
  5
B6
330
1F
100
AcDbEntity
  8
DIM
 62
     7
100
AcDbMText
 10
6.5710913557
 20
180.9590078604
 30
0.0
 40
1.8520833333
 41
0.0
 71
     1
 72
     1
  1
A
  7
SLDTEXTSTYLE1
 73
     1
 44
1.0
  0
MTEXT
  5
B7
330
1F
100
AcDbEntity
  8
DIM
 62
     7
100
AcDbMText
 10
72.5710953557
 20
8.4590078604
 30
0.0
 40
1.8520833333
 41
0.0
 71
     1
 72
     1
  1
2
  7
SLDTEXTSTYLE1
 73
     1
 44
1.0
  0
MTEXT
  5
B8
330
1F
100
AcDbEntity
  8
DIM
 62
     7
100
AcDbMText
 10
22.9877620223
 20
8.4590078604
 30
0.0
 40
1.8520833333
 41
0.0
 71
     1
 72
     1
  1
1
  7
SLDTEXTSTYLE1
 73
     1
 44
1.0
  0
MTEXT
  5
B9
330
1F
100
AcDbEntity
  8
DIM
 62
     7
100
AcDbMText
 10
6.5710913557
 20
30.9590078604
 30
0.0
 40
1.8520833333
 41
0.0
 71
     1
 72
     1
  1
D
  7
SLDTEXTSTYLE1
 73
     1
 44
1.0
  0
MTEXT
  5
BA
330
1F
100
AcDbEntity
  8
DIM
 62
     7
100
AcDbMText
 10
6.5710913557
 20
80.9590078604
 30
0.0
 40
1.8520833333
 41
0.0
 71
     1
 72
     1
  1
C
  7
SLDTEXTSTYLE1
 73
     1
 44
1.0
  0
MTEXT
  5
BB
330
1F
100
AcDbEntity
  8
DIM
 62
     7
100
AcDbMText
 10
6.5710913557
 20
130.9590078604
 30
0.0
 40
1.8520833333
 41
0.0
 71
     1
 72
     1
  1
B
  7
SLDTEXTSTYLE1
 73
     1
 44
1.0
  0
SPLINE
  5
BC
330
1F
100
AcDbEntity
  8
0
  6
Continuous
 62
     7
370
    15
100
AcDbSpline
210
0.0
220
0.0
230
1.0
 70
     8
 71
     3
 72
    14
 73
    10
 74
     0
 42
0.000000001
 43
0.00000001
 40
0.0
 40
0.0
 40
0.0
 40
0.0
 40
0.25
 40
0.25
 40
0.5
 40
0.5
 40
0.75
 40
0.75
 40
1.0
 40
1.0
 40
1.0
 40
1.0
 10
61.77922399086763
 20
111.121143613771
 30
0.0
 10
61.77922399086763
 20
108.1016962107034
 30
0.0
 10
60.57965880742488
 20
105.2056896758853
 30
0.0
 10
56.30951533913439
 20
100.9355462075948
 30
0.0
 10
53.41350880431634
 20
99.7359810241521
 30
0.0
 10
47.37461399818105
 20
99.7359810241521
 30
0.0
 10
44.47860746336301
 20
100.9355462075948
 30
0.0
 10
40.20846399507251
 20
105.2056896758853
 30
0.0
 10
39.00889881162976
 20
108.1016962107034
 30
0.0
 10
39.00889881162976
 20
111.121143613771
 30
0.0
  0
SPLINE
  5
BD
330
1F
100
AcDbEntity
  8
0
  6
Continuous
 62
     7
370
    15
100
AcDbSpline
210
0.0
220
0.0
230
1.0
 70
     8
 71
     3
 72
    14
 73
    10
 74
     0
 42
0.000000001
 43
0.00000001
 40
0.0
 40
0.0
 40
0.0
 40
0.0
 40
0.25
 40
0.25
 40
0.5
 40
0.5
 40
0.75
 40
0.75
 40
1.0
 40
1.0
 40
1.0
 40
1.0
 10
39.00889881162977
 20
111.121143613771
 30
0.0
 10
39.00889881162977
 20
114.1405910168387
 30
0.0
 10
40.20846399507252
 20
117.0365975516567
 30
0.0
 10
44.478607463363
 20
121.3067410199472
 30
0.0
 10
47.37461399818105
 20
122.50630620339
 30
0.0
 10
53.41350880431634
 20
122.50630620339
 30
0.0
 10
56.30951533913439
 20
121.3067410199472
 30
0.0
 10
60.57965880742488
 20
117.0365975516567
 30
0.0
 10
61.77922399086764
 20
114.1405910168387
 30
0.0
 10
61.77922399086764
 20
111.121143613771
 30
0.0
  0
CIRCLE
  5
BE
330
1F
100
AcDbEntity
  8
0
  6
Continuous
 62
     7
370
    15
100
AcDbCircle
 10
50.3940614012
 20
111.1211436138
 30
0.0
 40
12.37469537611111
  0
CIRCLE
  5
BF
330
1F
100
AcDbEntity
  8
0
  6
Continuous
 62
     7
370
    15
100
AcDbCircle
 10
50.3940614012
 20
111.1211436138
 30
0.0
 40
22.225
  0
SPLINE
  5
C0
330
1F
100
AcDbEntity
  8
0
  6
Continuous
 62
     7
370
    15
100
AcDbSpline
210
0.0
220
0.0
230
1.0
 70
     8
 71
     3
 72
    47
 73
    43
 74
     0
 42
0.000000001
 43
0.00000001
 40
0.0
 40
0.0
 40
0.0
 40
0.0
 40
0.0064865025312349
 40
0.01296380985337
 40
0.0194345944002828
 40
0.0259015366923752
 40
0.0323673220287017
 40
0.0388346371494581
 40
0.0453061668895107
 40
0.0517845908437697
 40
0.0582725800650431
 40
0.0891441960345673
 40
0.1200232680067456
 40
0.1521817332805799
 40
0.1843476847367328
 40
0.2171904233650829
 40
0.2500408074748633
 40
0.2828835463218974
 40
0.3157339306502279
 40
0.3478923965265234
 40
0.380058348585491
 40
0.4109299640647371
 40
0.4418090356811825
 40
0.5000011037081205
 40
0.5581931717350583
 40
0.5890647877041075
 40
0.6199438596767664
 40
0.6521023249505026
 40
0.6842682764067516
 40
0.7171110150349558
 40
0.7499613991448837
 40
0.7828041379918462
 40
0.8156545223202474
 40
0.8478129881964224
 40
0.8799789402555108
 40
0.9108505557348588
 40
0.9417296273512041
 40
0.9533981518059652
 40
0.9650437986324314
 40
0.976682212237819
 40
0.9883290661770261
 40
1.0
 40
1.0
 40
1.0
 40
1.0
 10
27.99406140124869
 20
111.121143613771
 30
0.0
 10
27.99494842422148
 20
111.2732279411168
 30
0.0
 10
27.99672121273107
 20
111.5771810023997
 30
0.0
 10
28.01108985379635
 20
112.0326629323898
 30
0.0
 10
28.03403546624206
 20
112.4873110679716
 30
0.0
 10
28.06639522702405
 20
112.9411252501643
 30
0.0
 10
28.10794502836359
 20
113.3941050605241
 30
0.0
 10
28.15874515794598
 20
113.8462509216304
 30
0.0
 10
28.21877828402043
 20
114.2975601547181
 30
0.0
 10
28.28805320969682
 20
114.748041676438
 30
0.0
 10
28.46482845627683
 20
115.7605657427339
 30
0.0
 10
28.83198104800594
 20
117.3207576325369
 30
0.0
 10
29.54404136278256
 20
119.4076938677808
 30
0.0
 10
30.47023664473351
 20
121.442850939366
 30
0.0
 10
31.62168847257163
 20
123.4130658943925
 30
0.0
 10
32.97621221987939
 20
125.2700280437562
 30
0.0
 10
34.52683339311665
 20
126.9881180116581
 30
0.0
 10
36.24503719536785
 20
128.5388789523892
 30
0.0
 10
38.10183804571935
 20
129.8933225395252
 30
0.0
 10
40.07221284216474
 20
131.0448865159804
 30
0.0
 10
42.10712363539537
 20
131.9710399253878
 30
0.0
 10
44.19449980915549
 20
132.6831546992597
 30
0.0
 10
46.93547506033411
 20
133.3286511936217
 30
0.0
 10
50.39406128325336
 20
133.6469032113968
 30
0.0
 10
53.85247300191237
 20
133.3286666643369
 30
0.0
 10
56.59345362892082
 20
132.6832043767395
 30
0.0
 10
58.68067383383698
 20
131.9711691429934
 30
0.0
 10
60.71575178936823
 20
131.0449668798439
 30
0.0
 10
62.68598832431343
 20
129.8935169313248
 30
0.0
 10
64.54294458667717
 20
128.5389927661523
 30
0.0
 10
66.26103609287861
 20
126.9883713459466
 30
0.0
 10
67.81179680917934
 20
125.2701689522586
 30
0.0
 10
69.16623976027765
 20
123.4133627514842
 30
0.0
 10
70.31780644896246
 20
121.4430075537836
 30
0.0
 10
71.24394981280571
 20
119.4080248967951
 30
0.0
 10
71.9561006619415
 20
117.3209066117988
 30
0.0
 10
72.35111536719788
 20
115.642347831034
 30
0.0
 10
72.559572185797
 20
114.3887701020472
 30
0.0
 10
72.66449456026916
 20
113.5758041709037
 30
0.0
 10
72.73888431879115
 20
112.7600645146459
 30
0.0
 10
72.78545416150936
 20
111.9415306259583
 30
0.0
 10
72.79119034678186
 20
111.394794152993
 30
0.0
 10
72.7940614012487
 20
111.121143613771
 30
0.0
  0
SPLINE
  5
C1
330
1F
100
AcDbEntity
  8
0
  6
Continuous
 62
     7
370
    15
100
AcDbSpline
210
0.0
220
0.0
230
1.0
 70
     8
 71
     3
 72
    47
 73
    43
 74
     0
 42
0.000000001
 43
0.00000001
 40
0.0
 40
0.0
 40
0.0
 40
0.0
 40
0.0064865025312349
 40
0.0129638098533701
 40
0.0194345944002828
 40
0.0259015366923753
 40
0.0323673220287017
 40
0.0388346371494582
 40
0.0453061668895108
 40
0.0517845908437698
 40
0.0582725800650432
 40
0.0891441960348679
 40
0.1200232680067487
 40
0.1521817332809523
 40
0.1843476847367337
 40
0.2171904233653377
 40
0.2500408074748655
 40
0.2828835463223714
 40
0.3157339306502313
 40
0.3478923965270652
 40
0.380058348585494
 40
0.4109299640652716
 40
0.441809035681186
 40
0.5000011037081241
 40
0.5581931717350622
 40
0.5890647877047878
 40
0.6199438596767669
 40
0.6521023249508722
 40
0.6842682764067528
 40
0.7171110150351738
 40
0.7499613991448828
 40
0.782804137992136
 40
0.8156545223202497
 40
0.8478129881967124
 40
0.8799789402555104
 40
0.9108505557349901
 40
0.941729627351205
 40
0.9533981518060494
 40
0.9650437986325576
 40
0.9766822122379453
 40
0.9883290661771104
 40
1.0
 40
1.0
 40
1.0
 40
1.0
 10
72.7940614012487
 20
111.121143613771
 30
0.0
 10
72.7931743782759
 20
110.9690592864252
 30
0.0
 10
72.79140158976634
 20
110.6651062251423
 30
0.0
 10
72.77703294870103
 20
110.2096242951522
 30
0.0
 10
72.75408733625534
 20
109.7549761595704
 30
0.0
 10
72.72172757547335
 20
109.3011619773777
 30
0.0
 10
72.68017777413381
 20
108.848182167018
 30
0.0
 10
72.62937764455141
 20
108.3960363059116
 30
0.0
 10
72.56934451847697
 20
107.944727072824
 30
0.0
 10
72.5000695928006
 20
107.494245551104
 30
0.0
 10
72.3232943462192
 20
106.4817214848013
 30
0.0
 10
71.95614175449289
 20
104.9215295949974
 30
0.0
 10
71.24408143970878
 20
102.8345933597468
 30
0.0
 10
70.3178861577577
 20
100.7994362881695
 30
0.0
 10
69.1664343299179
 20
98.82922133313726
 30
0.0
 10
67.81191058261521
 20
96.97225918378032
 30
0.0
 10
66.26128940936847
 20
95.25416921587227
 30
0.0
 10
64.54308560712178
 20
93.70340827514468
 30
0.0
 10
62.68628475675813
 20
92.348964688004
 30
0.0
 10
60.71590996032118
 20
91.19740071155613
 30
0.0
 10
58.68099916707872
 20
90.27124730214499
 30
0.0
 10
56.59362299332992
 20
89.55913252827852
 30
0.0
 10
53.85264774215079
 20
88.91363603391927
 30
0.0
 10
50.39406151924422
 20
88.5953840161459
 30
0.0
 10
46.9356498005686
 20
88.91362056320439
 30
0.0
 10
44.19466917356234
 20
89.55908285081112
 30
0.0
 10
42.10744896863739
 20
90.27111808455707
 30
0.0
 10
40.07237101312122
 20
91.19732034770195
 30
0.0
 10
38.10213447817227
 20
92.34877029622446
 30
0.0
 10
36.24517821581775
 20
93.7032944613949
 30
0.0
 10
34.52708670961048
 20
95.25391588160383
 30
0.0
 10
32.97632599331126
 20
96.97211827528676
 30
0.0
 10
31.62188304221225
 20
98.82892447606918
 30
0.0
 10
30.47031635353467
 20
100.7992796737659
 30
0.0
 10
29.54417298968776
 20
102.8342623307559
 30
0.0
 10
28.832022140554
 20
104.9213806157459
 30
0.0
 10
28.43700743529787
 20
106.5999393965129
 30
0.0
 10
28.22855061670067
 20
107.8535171254998
 30
0.0
 10
28.1236282422284
 20
108.6664830566463
 30
0.0
 10
28.04923848370635
 20
109.482222712904
 30
0.0
 10
28.00266864098809
 20
110.3007566015887
 30
0.0
 10
27.99693245571556
 20
110.847493074551
 30
0.0
 10
27.9940614012487
 20
111.121143613771
 30
0.0
  0
ARC
  5
C2
330
1F
100
AcDbEntity
  8
0
  6
Continuous
 62
     7
370
    15
100
AcDbCircle
 10
50.3940614012
 20
111.1211436138
 30
0.0
 40
30.86715728752539
100
AcDbArc
 50
216.8228239927
 51
233.1771760073
  0
SPLINE
  5
C3
330
1F
100
AcDbEntity
  8
0
  6
Continuous
 62
     7
370
    15
100
AcDbSpline
210
0.0
220
0.0
230
1.0
 70
    24
 71
     3
 72
     8
 73
     4
 74
     0
 42
0.000000001
 43
0.00000001
 40
0.0
 40
0.0
 40
0.0
 40
0.0
 40
1.0
 40
1.0
 40
1.0
 40
1.0
 10
25.68512781412619
 20
92.62114361377103
 30
0.0
 10
25.78529675376968
 20
92.62114361377103
 30
0.0
 10
25.91153468977786
 20
92.62114361377103
 30
0.0
 10
26.03938427290917
 20
92.62114361377103
 30
0.0
  0
ARC
  5
C4
330
1F
100
AcDbEntity
  8
0
  6
Continuous
 62
     7
370
    15
100
AcDbCircle
 10
50.3940614012
 20
111.1211436138
 30
0.0
 40
30.58431457505077
100
AcDbArc
 50
217.220583198
 51
232.779416802
  0
SPLINE
  5
C5
330
1F
100
AcDbEntity
  8
0
  6
Continuous
 62
     7
370
    15
100
AcDbSpline
210
0.0
220
0.0
230
1.0
 70
    24
 71
     3
 72
     8
 73
     4
 74
     0
 42
0.000000001
 43
0.00000001
 40
0.0
 40
0.0
 40
0.0
 40
0.0
 40
1.0
 40
1.0
 40
1.0
 40
1.0
 10
31.89406140124871
 20
86.76646648543155
 30
0.0
 10
31.89406140124871
 20
86.63867582585328
 30
0.0
 10
31.89406140124869
 20
86.51227569860082
 30
0.0
 10
31.89406140124869
 20
86.41221002664852
 30
0.0
  0
ARC
  5
C6
330
1F
100
AcDbEntity
  8
0
  6
Continuous
 62
     7
370
    15
100
AcDbCircle
 10
50.3940614012
 20
111.1211436138
 30
0.0
 40
30.86715728752538
100
AcDbArc
 50
253.7590550452
 51
286.2409449548
  0
SPLINE
  5
C7
330
1F
100
AcDbEntity
  8
0
  6
Continuous
 62
     7
370
    15
100
AcDbSpline
210
0.0
220
0.0
230
1.0
 70
     8
 71
     3
 72
    10
 73
     6
 74
     0
 42
0.000000001
 43
0.00000001
 40
0.0
 40
0.0
 40
0.0
 40
0.0
 40
0.5
 40
0.5
 40
1.0
 40
1.0
 40
1.0
 40
1.0
 10
41.76121868877406
 20
81.48576904697155
 30
0.0
 10
41.72856406384487
 20
81.52929330484102
 30
0.0
 10
41.70058294943073
 20
81.57785540712464
 30
0.0
 10
41.65793674349543
 20
81.68933371474446
 30
0.0
 10
41.64406140124873
 20
81.75130500371033
 30
0.0
 10
41.64406140124873
 20
81.8152090948777
 30
0.0
  0
ARC
  5
C8
330
1F
100
AcDbEntity
  8
0
  6
Continuous
 62
     7
370
    15
100
AcDbCircle
 10
50.3940614012
 20
111.1211436138
 30
0.0
 40
30.58431457505076
100
AcDbArc
 50
253.375724968
 51
286.624275032
  0
SPLINE
  5
C9
330
1F
100
AcDbEntity
  8
0
  6
Continuous
 62
     7
370
    15
100
AcDbSpline
210
0.0
220
0.0
230
1.0
 70
     8
 71
     3
 72
    10
 73
     6
 74
     0
 42
0.000000001
 43
0.00000001
 40
0.0
 40
0.0
 40
0.0
 40
0.0
 40
0.5
 40
0.5
 40
1.0
 40
1.0
 40
1.0
 40
1.0
 10
59.14406140124867
 20
81.81520909487772
 30
0.0
 10
59.14406140124867
 20
81.75124995916376
 30
0.0
 10
59.13022703395117
 20
81.68967289572205
 30
0.0
 10
59.08807304727762
 20
81.57902025300423
 30
0.0
 10
59.05957977580444
 20
81.52932134455747
 30
0.0
 10
59.02690411372334
 20
81.48576904697155
 30
0.0
  0
ARC
  5
CA
330
1F
100
AcDbEntity
  8
0
  6
Continuous
 62
     7
370
    15
100
AcDbCircle
 10
50.3940614012
 20
111.1211436138
 30
0.0
 40
30.86715728752539
100
AcDbArc
 50
73.7590550452
 51
106.2409449548
  0
SPLINE
  5
CB
330
1F
100
AcDbEntity
  8
0
  6
Continuous
 62
     7
370
    15
100
AcDbSpline
210
0.0
220
0.0
230
1.0
 70
     8
 71
     3
 72
    10
 73
     6
 74
     0
 42
0.000000001
 43
0.00000001
 40
0.0
 40
0.0
 40
0.0
 40
0.0
 40
0.5
 40
0.5
 40
1.0
 40
1.0
 40
1.0
 40
1.0
 10
59.02690411372333
 20
140.7565181805705
 30
0.0
 10
59.05955873865254
 20
140.712993922701
 30
0.0
 10
59.08753985306669
 20
140.6644318204174
 30
0.0
 10
59.130186059002
 20
140.5529535127976
 30
0.0
 10
59.14406140124871
 20
140.4909822238317
 30
0.0
 10
59.14406140124871
 20
140.4270781326643
 30
0.0
  0
ARC
  5
CC
330
1F
100
AcDbEntity
  8
0
  6
Continuous
 62
     7
370
    15
100
AcDbCircle
 10
50.3940614012
 20
111.1211436138
 30
0.0
 40
30.58431457505078
100
AcDbArc
 50
73.375724968
 51
106.624275032
  0
SPLINE
  5
CD
330
1F
100
AcDbEntity
  8
0
  6
Continuous
 62
     7
370
    15
100
AcDbSpline
210
0.0
220
0.0
230
1.0
 70
     8
 71
     3
 72
    10
 73
     6
 74
     0
 42
0.000000001
 43
0.00000001
 40
0.0
 40
0.0
 40
0.0
 40
0.0
 40
0.5
 40
0.5
 40
1.0
 40
1.0
 40
1.0
 40
1.0
 10
41.76121868877411
 20
140.7565181805705
 30
0.0
 10
41.72856406384491
 20
140.712993922701
 30
0.0
 10
41.70058294943075
 20
140.6644318204174
 30
0.0
 10
41.65793674349545
 20
140.5529535127976
 30
0.0
 10
41.64406140124873
 20
140.4909822238317
 30
0.0
 10
41.64406140124873
 20
140.4270781326643
 30
0.0
  0
SPLINE
  5
CE
330
1F
100
AcDbEntity
  8
0
  6
Continuous
 62
     7
370
    15
100
AcDbSpline
210
0.0
220
0.0
230
1.0
 70
     8
 71
     3
 72
    22
 73
    18
 74
     0
 42
0.000000001
 43
0.00000001
 40
0.0
 40
0.0
 40
0.0
 40
0.0
 40
0.0500936294931382
 40
0.1001235566397277
 40
0.1501059026435914
 40
0.2000568347777031
 40
0.2499925508268685
 40
0.2999292633826501
 40
0.3498831840663598
 40
0.3998705077567674
 40
0.4499073968991236
 40
0.5000099659711685
 40
0.6001296041410751
 40
0.7000588625714167
 40
0.7999272374095683
 40
0.8998644614774769
 40
0.9999999999999999
 40
0.9999999999999999
 40
0.9999999999999999
 40
0.9999999999999999
 10
31.8940614012487
 20
86.76646648543156
 30
0.0
 10
32.04081932153394
 20
86.65617699629296
 30
0.0
 10
32.3341485351023
 20
86.43573826936762
 30
0.0
 10
32.78132832201992
 20
86.11531306171646
 30
0.0
 10
33.23334581333057
 20
85.8027059549413
 30
0.0
 10
33.69074149567593
 20
85.49862873303803
 30
0.0
 10
34.15337057290198
 20
85.20289105937279
 30
0.0
 10
34.62127158008217
 20
84.9155440000056
 30
0.0
 10
35.09443419958086
 20
84.63657406318379
 30
0.0
 10
35.57286027553738
 20
84.36598468286968
 30
0.0
 10
36.05655181782008
 20
84.10377606876158
 30
0.0
 10
36.70791866353465
 20
83.76562515209338
 30
0.0
 10
37.53275999252015
 20
83.36514361665992
 30
0.0
 10
38.53824535935318
 20
82.92067622483665
 30
0.0
 10
39.55869592052153
 20
82.51371371369336
 30
0.0
 10
40.59307794283412
 20
82.14084206712283
 30
0.0
 10
41.29350215889448
 20
81.92382512220131
 30
0.0
 10
41.64406140124871
 20
81.81520909487772
 30
0.0
  0
SPLINE
  5
CF
330
1F
100
AcDbEntity
  8
0
  6
Continuous
 62
     7
370
    15
100
AcDbSpline
210
0.0
220
0.0
230
1.0
 70
     8
 71
     3
 72
    43
 73
    39
 74
     0
 42
0.000000001
 43
0.00000001
 40
0.0
 40
0.0
 40
0.0
 40
0.0
 40
0.0095109916351334
 40
0.0190046239324793
 40
0.0284840481314293
 40
0.0379524296574804
 40
0.0474129450205509
 40
0.0568687786580319
 40
0.0663231197380512
 40
0.0757791589388879
 40
0.0852400852207579
 40
0.0947090826062786
 40
0.1041893269858192
 40
0.1136839829636535
 40
0.1231962007603525
 40
0.1547901118118774
 40
0.1863927084008204
 40
0.2182250895798817
 40
0.2500662218550385
 40
0.3137096340347802
 40
0.3768767128430048
 40
0.4384349553549453
 40
0.5000020600078283
 40
0.561560303922377
 40
0.6231274099053469
 40
0.6862944887135713
 40
0.7499379008933132
 40
0.7817702821048447
 40
0.813611414410087
 40
0.8452053255533472
 40
0.8768079222326471
 40
0.8944566871225273
 40
0.9120548834398269
 40
0.929622810467284
 40
0.947180872473034
 40
0.9647495080970474
 40
0.9823491191415227
 40
1.0
 40
1.0
 40
1.0
 40
1.0
 10
41.64406140124873
 20
140.4270781326643
 30
0.0
 10
41.46505985341208
 20
140.3726128013805
 30
0.0
 10
41.10738346902741
 20
140.2637815482244
 30
0.0
 10
40.57516971052428
 20
140.0883492408123
 30
0.0
 10
40.04681951056408
 20
139.9042030332925
 30
0.0
 10
39.52259670683328
 20
139.7104598013621
 30
0.0
 10
39.00243098762098
 20
139.5073557276605
 30
0.0
 10
38.48634139626419
 20
139.2948276828395
 30
0.0
 10
37.97432306508711
 20
139.0728926545241
 30
0.0
 10
37.46637751854599
 20
138.8415461337669
 30
0.0
 10
36.96250457110616
 20
138.600789634784
 30
0.0
 10
36.46270445102691
 20
138.350622139849
 30
0.0
 10
35.9669773978933
 20
138.0910468126867
 30
0.0
 10
35.47532314109537
 20
137.8220526640656
 30
0.0
 10
34.61084861569866
 20
137.328502770021
 30
0.0
 10
33.39681906244424
 20
136.5703361456074
 30
0.0
 10
31.87383562689118
 20
135.4843813334008
 30
0.0
 10
30.41604707964303
 20
134.3043871385646
 30
0.0
 10
28.56900740413595
 20
132.6109528274162
 30
0.0
 10
26.46633154574604
 20
130.2929685090237
 30
0.0
 10
24.32608046479658
 20
127.2570437116955
 30
0.0
 10
22.58332457625182
 20
124.0233079098543
 30
0.0
 10
21.25165867781124
 20
120.6339070239901
 30
0.0
 10
20.32714259397027
 20
117.1114233798681
 30
0.0
 10
19.82643481295202
 20
113.4722529242816
 30
0.0
 10
19.76340209965448
 20
109.7581127454057
 30
0.0
 10
20.09358252266355
 20
106.6461688298403
 30
0.0
 10
20.58582017542869
 20
104.1891421659313
 30
0.0
 10
21.0666495490227
 20
102.3764971594925
 30
0.0
 10
21.65568571726033
 20
100.600965000511
 30
0.0
 10
22.24827704377985
 20
99.12396000284632
 30
0.0
 10
22.79505894494434
 20
97.92773264736438
 30
0.0
 10
23.2587788280433
 20
96.99775676032097
 30
0.0
 10
23.75309070178728
 20
96.08572156668727
 30
0.0
 10
24.27779820141019
 20
95.19147287279169
 30
0.0
 10
24.83357776848696
 20
94.31553259689436
 30
0.0
 10
25.41790202463963
 20
93.4559849792846
 30
0.0
 10
25.83202275188904
 20
92.8996937668051
 30
0.0
 10
26.03938427290921
 20
92.62114361377103
 30
0.0
  0
SPLINE
  5
D0
330
1F
100
AcDbEntity
  8
0
  6
Continuous
 62
     7
370
    15
100
AcDbSpline
210
0.0
220
0.0
230
1.0
 70
     8
 71
     3
 72
    31
 73
    27
 74
     0
 42
0.000000001
 43
0.00000001
 40
0.0
 40
0.0
 40
0.0
 40
0.0
 40
0.0132844560936926
 40
0.0265558208790234
 40
0.0398179176699192
 40
0.0530745777991735
 40
0.0663296373139296
 40
0.0795869336507621
 40
0.0928503023047337
 40
0.1061235735068684
 40
0.1194105689243952
 40
0.1814480130391982
 40
0.2434985490104063
 40
0.3072096944243581
 40
0.3709342849308367
 40
0.500001582030214
 40
0.6290688791295916
 40
0.6927800250014717
 40
0.7565046159608924
 40
0.8185420607578845
 40
0.8805925974112778
 40
0.9044943877013559
 40
0.9283636577023237
 40
0.9522227648288846
 40
0.9760940950508001
 40
1.0
 40
1.0
 40
1.0
 40
1.0
 10
80.97837597629946
 20
111.121143613771
 30
0.0
 10
80.97752966588267
 20
111.2945110490657
 30
0.0
 10
80.9758378790547
 20
111.6410750728745
 30
0.0
 10
80.96213434455382
 20
112.1605656262033
 30
0.0
 10
80.94025349368644
 20
112.6793944810779
 30
0.0
 10
80.9093959935364
 20
113.1975615599455
 30
0.0
 10
80.86977588895772
 20
113.7150665911442
 30
0.0
 10
80.82133564615621
 20
114.2319099572542
 30
0.0
 10
80.76409151960307
 20
114.7480896189909
 30
0.0
 10
80.69803613403126
 20
115.2636125846196
 30
0.0
 10
80.5316782320258
 20
116.4078200966654
 30
0.0
 10
80.188478951019
 20
118.1696555779889
 30
0.0
 10
79.52891299214974
 20
120.5325889128069
 30
0.0
 10
78.67450284000503
 20
122.8562275256472
 30
0.0
 10
77.26490680245425
 20
125.8957908380784
 30
0.0
 10
75.03207059265358
 20
129.4776320646288
 30
0.0
 10
72.23886384079782
 20
132.6417505738175
 30
0.0
 10
69.72964715479915
 20
134.8620519894363
 30
0.0
 10
67.74772753025732
 20
136.345440137027
 30
0.0
 10
65.67210662189585
 20
137.6535827893426
 30
0.0
 10
63.95930021387495
 20
138.5508239569565
 30
0.0
 10
62.65510843800804
 20
139.1454375784467
 30
0.0
 10
61.79298685742305
 20
139.5072372222193
 30
0.0
 10
60.92041780188363
 20
139.8417822453007
 30
0.0
 10
60.03812614520943
 20
140.1515586277495
 30
0.0
 10
59.44222672647974
 20
140.3351940008435
 30
0.0
 10
59.14406140124871
 20
140.4270781326643
 30
0.0
  0
SPLINE
  5
D1
330
1F
100
AcDbEntity
  8
0
  6
Continuous
 62
     7
370
    15
100
AcDbSpline
210
0.0
220
0.0
230
1.0
 70
     8
 71
     3
 72
    31
 73
    27
 74
     0
 42
0.000000001
 43
0.00000001
 40
0.0
 40
0.0
 40
0.0
 40
0.0
 40
0.0132844560938056
 40
0.0265558208792211
 40
0.0398179176701733
 40
0.0530745777994556
 40
0.0663296373142115
 40
0.0795869336510156
 40
0.0928503023049307
 40
0.1061235735069809
 40
0.1194105689243954
 40
0.1814480130406099
 40
0.2434985490104098
 40
0.3072096944263702
 40
0.3709342849308372
 40
0.5000015820302126
 40
0.629068879129588
 40
0.6927800250014282
 40
0.756504615960901
 40
0.8185420607573841
 40
0.8805925974112686
 40
0.9044943877003904
 40
0.9283636577008779
 40
0.9522227648274384
 40
0.9760940950498357
 40
1.0
 40
1.0
 40
1.0
 40
1.0
 10
59.14406140124868
 20
81.8152090948777
 30
0.0
 10
59.30994020418543
 20
81.8656194767326
 30
0.0
 10
59.64153434303031
 20
81.96639056299601
 30
0.0
 10
60.13539043959867
 20
82.12814462860622
 30
0.0
 10
60.62627301163094
 20
82.29754490240326
 30
0.0
 10
61.11395330017413
 20
82.47535728415764
 30
0.0
 10
61.59849228194791
 20
82.66137659805928
 30
0.0
 10
62.07987386344685
 20
82.85565808252713
 30
0.0
 10
62.55810074093805
 20
83.05818557907557
 30
0.0
 10
63.03317751972926
 20
83.26896815972124
 30
0.0
 10
64.08196475683391
 20
83.75572386179854
 30
0.0
 10
65.67197068685464
 20
84.58862910984797
 30
0.0
 10
67.74743872742037
 20
85.89664807439424
 30
0.0
 10
69.72951068306102
 20
87.3801250286279
 30
0.0
 10
72.2387471703846
 20
89.60040392328023
 30
0.0
 10
75.0320707675664
 20
92.76465539767739
 30
0.0
 10
77.26481299867851
 20
96.34634662225241
 30
0.0
 10
78.67443628091706
 20
99.38589740413879
 30
0.0
 10
79.52880491946189
 20
101.7093646459992
 30
0.0
 10
80.18844566152052
 20
104.0724798453602
 30
0.0
 10
80.55815918928354
 20
105.9703890664657
 30
0.0
 10
80.75479690702872
 20
107.3901831202021
 30
0.0
 10
80.8548257251248
 20
108.3197781059135
 30
0.0
 10
80.92575016251075
 20
109.2515864839264
 30
0.0
 10
80.97015967119209
 20
110.1856249039788
 30
0.0
 10
80.97563588694787
 20
110.8091536351358
 30
0.0
 10
80.97837597629946
 20
111.121143613771
 30
0.0
  0
ARC
  5
D2
330
1F
100
AcDbEntity
  8
0
  6
Continuous
 62
     7
370
    15
100
AcDbCircle
 10
50.3940614012
 20
111.1211436138
 30
0.0
 40
30.86715728752538
100
AcDbArc
 50
106.2409449548
 51
216.8228239927
  0
ARC
  5
D3
330
1F
100
AcDbEntity
  8
0
  6
Continuous
 62
     7
370
    15
100
AcDbCircle
 10
50.3940614012
 20
111.1211436138
 30
0.0
 40
30.8671572875254
100
AcDbArc
 50
286.2409449548
 51
73.7590550452
  0
ARC
  5
D4
330
1F
100
AcDbEntity
  8
0
  6
Continuous
 62
     7
370
    15
100
AcDbCircle
 10
50.3940614012
 20
111.1211436138
 30
0.0
 40
30.86715728752538
100
AcDbArc
 50
233.1771760073
 51
253.7590550452
  0
ARC
  5
D5
330
1F
100
AcDbEntity
  8
0
  6
Continuous
 62
     7
370
    15
100
AcDbCircle
 10
50.3940614012
 20
111.1211436138
 30
0.0
 40
31.63284271247463
100
AcDbArc
 50
234.208651263
 51
254.4024500298
  0
ARC
  5
D6
330
1F
100
AcDbEntity
  8
0
  6
Continuous
 62
     7
370
    15
100
AcDbCircle
 10
50.3940614012
 20
111.1211436138
 30
0.0
 40
31.63284271247462
100
AcDbArc
 50
215.791348737
 51
234.208651263
  0
ARC
  5
D7
330
1F
100
AcDbEntity
  8
0
  6
Continuous
 62
     7
370
    15
100
AcDbCircle
 10
50.3940614012
 20
111.1211436138
 30
0.0
 40
31.63284271247463
100
AcDbArc
 50
105.733481737
 51
215.791348737
  0
ARC
  5
D8
330
1F
100
AcDbEntity
  8
0
  6
Continuous
 62
     7
370
    15
100
AcDbCircle
 10
50.3940614012
 20
111.1211436138
 30
0.0
 40
31.63284271247462
100
AcDbArc
 50
74.4024500298
 51
105.733481737
  0
ARC
  5
D9
330
1F
100
AcDbEntity
  8
0
  6
Continuous
 62
     7
370
    15
100
AcDbCircle
 10
50.3940614012
 20
111.1211436138
 30
0.0
 40
31.63284271247464
100
AcDbArc
 50
285.733481737
 51
74.4024500298
  0
ARC
  5
DA
330
1F
100
AcDbEntity
  8
0
  6
Continuous
 62
     7
370
    15
100
AcDbCircle
 10
50.3940614012
 20
111.1211436138
 30
0.0
 40
31.63284271247464
100
AcDbArc
 50
254.4024500298
 51
285.733481737
  0
SPLINE
  5
DB
330
1F
100
AcDbEntity
  8
0
  6
Continuous
 62
     7
370
    15
100
AcDbSpline
210
0.0
220
0.0
230
1.0
 70
    24
 71
     3
 72
     8
 73
     4
 74
     0
 42
0.000000001
 43
0.00000001
 40
0.0
 40
0.0
 40
0.0
 40
0.0
 40
1.0
 40
1.0
 40
1.0
 40
1.0
 10
41.79363036336304
 20
80.55817441962085
 30
0.0
 10
41.79363036336304
 20
80.55817441962085
 30
0.0
 10
41.83086442418761
 20
80.59540848044544
 30
0.0
 10
41.88866584764533
 20
80.65320990390316
 30
0.0
  0
SPLINE
  5
DC
330
1F
100
AcDbEntity
  8
0
  6
Continuous
 62
     7
370
    15
100
AcDbSpline
210
0.0
220
0.0
230
1.0
 70
    24
 71
     3
 72
    10
 73
     6
 74
     0
 42
0.000000001
 43
0.00000001
 40
0.0
 40
0.0
 40
0.0
 40
0.0
 40
0.5
 40
0.5
 40
1.0
 40
1.0
 40
1.0
 40
1.0
 10
58.97171680976709
 20
80.67347431438334
 30
0.0
 10
59.01151089348178
 20
80.65020868257817
 30
0.0
 10
59.04634556139524
 20
80.62984257580868
 30
0.0
 10
59.09691269492879
 20
80.6002784748064
 30
0.0
 10
59.11196843859097
 20
80.59147612641934
 30
0.0
 10
59.11196843859096
 20
80.59147612641934
 30
0.0
  0
ARC
  5
DD
330
1F
100
AcDbEntity
  8
0
  6
Continuous
 62
     7
370
    15
100
AcDbCircle
 10
50.3940614012
 20
111.1211436138
 30
0.0
 40
31.75000000000001
100
AcDbArc
 50
254.2833781213
 51
285.9369715324
  0
ARC
  5
DE
330
1F
100
AcDbEntity
  8
0
  6
Continuous
 62
     7
370
    15
100
AcDbCircle
 10
50.3940614012
 20
111.1211436138
 30
0.0
 40
31.75
100
AcDbArc
 50
215.6390613326
 51
234.3609386674
  0
SPLINE
  5
DF
330
1F
100
AcDbEntity
  8
0
  6
Continuous
 62
     7
370
    15
100
AcDbSpline
210
0.0
220
0.0
230
1.0
 70
    24
 71
     3
 72
     8
 73
     4
 74
     0
 42
0.000000001
 43
0.00000001
 40
0.0
 40
0.0
 40
0.0
 40
0.0
 40
1.0
 40
1.0
 40
1.0
 40
1.0
 10
24.59071859455019
 20
92.62114361377103
 30
0.0
 10
24.59071859455019
 20
92.62114361377103
 30
0.0
 10
24.64944280309502
 20
92.62114361377103
 30
0.0
 10
24.73501352194968
 20
92.62114361377103
 30
0.0
  0
SPLINE
  5
E0
330
1F
100
AcDbEntity
  8
0
  6
Continuous
 62
     7
370
    15
100
AcDbSpline
210
0.0
220
0.0
230
1.0
 70
    24
 71
     3
 72
     8
 73
     4
 74
     0
 42
0.000000001
 43
0.00000001
 40
0.0
 40
0.0
 40
0.0
 40
0.0
 40
1.0
 40
1.0
 40
1.0
 40
1.0
 10
31.8940614012487
 20
85.46209573447194
 30
0.0
 10
31.8940614012487
 20
85.3764821531547
 30
0.0
 10
31.89406140124871
 20
85.31780080707249
 30
0.0
 10
31.89406140124871
 20
85.3178008070725
 30
0.0
  0
SPLINE
  5
E1
330
1F
100
AcDbEntity
  8
0
  6
Continuous
 62
     7
370
    15
100
AcDbSpline
210
0.0
220
0.0
230
1.0
 70
    24
 71
     3
 72
     8
 73
     4
 74
     0
 42
0.000000001
 43
0.00000001
 40
0.0
 40
0.0
 40
0.0
 40
0.0
 40
1.0
 40
1.0
 40
1.0
 40
1.0
 10
58.99449243913443
 20
141.6841128079212
 30
0.0
 10
58.99449243913443
 20
141.6841128079212
 30
0.0
 10
58.95725837830984
 20
141.6468787470966
 30
0.0
 10
58.89945695485213
 20
141.5890773236389
 30
0.0
  0
SPLINE
  5
E2
330
1F
100
AcDbEntity
  8
0
  6
Continuous
 62
     7
370
    15
100
AcDbSpline
210
0.0
220
0.0
230
1.0
 70
    24
 71
     3
 72
    10
 73
     6
 74
     0
 42
0.000000001
 43
0.00000001
 40
0.0
 40
0.0
 40
0.0
 40
0.0
 40
0.5
 40
0.5
 40
1.0
 40
1.0
 40
1.0
 40
1.0
 10
41.81640599273034
 20
141.5688129131587
 30
0.0
 10
41.77661190901564
 20
141.5920785449639
 30
0.0
 10
41.74177724110218
 20
141.6124446517334
 30
0.0
 10
41.69121010756864
 20
141.6420087527356
 30
0.0
 10
41.67615436390646
 20
141.6508111011227
 30
0.0
 10
41.67615436390646
 20
141.6508111011227
 30
0.0
  0
ARC
  5
E3
330
1F
100
AcDbEntity
  8
0
  6
Continuous
 62
     7
370
    15
100
AcDbCircle
 10
50.3940614012
 20
111.1211436138
 30
0.0
 40
31.75000000000001
100
AcDbArc
 50
74.2833781213
 51
105.9369715324
  0
ARC
  5
E4
330
1F
100
AcDbEntity
  8
0
  6
Continuous
 62
     7
370
    15
100
AcDbCircle
 10
50.3940614012
 20
111.1211436138
 30
0.0
 40
31.75
100
AcDbArc
 50
234.3609386674
 51
254.2833781213
  0
ARC
  5
E5
330
1F
100
AcDbEntity
  8
0
  6
Continuous
 62
     7
370
    15
100
AcDbCircle
 10
50.3940614012
 20
111.1211436138
 30
0.0
 40
31.75
100
AcDbArc
 50
105.9369715324
 51
215.6390613326
  0
ARC
  5
E6
330
1F
100
AcDbEntity
  8
0
  6
Continuous
 62
     7
370
    15
100
AcDbCircle
 10
50.3940614012
 20
111.1211436138
 30
0.0
 40
31.75000000000001
100
AcDbArc
 50
285.9369715324
 51
74.2833781213
  0
INSERT
  5
F2
330
1F
100
AcDbEntity
  8
DIM
100
AcDbBlockReference
  2
SW_CENTERMARKSYMBOL_0
 10
50.3940614012
 20
111.1211436138
 30
0.0
  0
LINE
  5
F3
330
1F
100
AcDbEntity
  8
0
  6
Continuous
 62
     7
370
    15
100
AcDbLine
 10
179.4259768367
 20
79.3711436138
 30
0.0
 11
182.7384547697
 21
79.3711436138
 31
0.0
  0
LINE
  5
F4
330
1F
100
AcDbEntity
  8
0
  6
Continuous
 62
     7
370
    15
100
AcDbLine
 10
182.7384547697
 20
142.8711436138
 30
0.0
 11
179.4259768367
 21
142.8711436138
 31
0.0
  0
LINE
  5
F5
330
1F
100
AcDbEntity
  8
0
  6
Continuous
 62
     7
370
    15
100
AcDbLine
 10
179.4259768367
 20
142.8711436138
 30
0.0
 11
177.8041401946
 21
140.0620401482
 31
0.0
  0
LINE
  5
F6
330
1F
100
AcDbEntity
  8
0
  6
Continuous
 62
     7
370
    15
100
AcDbLine
 10
177.8041401946
 20
82.1802470794
 30
0.0
 11
179.4259768367
 21
79.3711436138
 31
0.0
  0
LINE
  5
F7
330
1F
100
AcDbEntity
  8
0
  6
Continuous
 62
     7
370
    15
100
AcDbLine
 10
172.3823035526
 20
79.3711436138
 30
0.0
 11
174.0041401946
 21
82.1802470794
 31
0.0
  0
LINE
  5
F8
330
1F
100
AcDbEntity
  8
0
  6
Continuous
 62
     7
370
    15
100
AcDbLine
 10
174.0041401946
 20
140.0620401482
 30
0.0
 11
172.3823035526
 21
142.8711436138
 31
0.0
  0
LINE
  5
F9
330
1F
100
AcDbEntity
  8
0
  6
Continuous
 62
     7
370
    15
100
AcDbLine
 10
169.1698256196
 20
79.3711436138
 30
0.0
 11
172.3823035526
 21
79.3711436138
 31
0.0
  0
LINE
  5
FA
330
1F
100
AcDbEntity
  8
0
  6
Continuous
 62
     7
370
    15
100
AcDbLine
 10
172.3823035526
 20
142.8711436138
 30
0.0
 11
169.1698256196
 21
142.8711436138
 31
0.0
  0
LINE
  5
FB
330
1F
100
AcDbEntity
  8
0
  6
Continuous
 62
     7
370
    15
100
AcDbLine
 10
183.0212974821
 20
79.4883009013
 30
0.0
 11
183.7869829071
 21
80.2539863262
 31
0.0
  0
LINE
  5
FC
330
1F
100
AcDbEntity
  8
0
  6
Continuous
 62
     7
370
    15
100
AcDbLine
 10
183.7869829071
 20
141.9883009013
 30
0.0
 11
183.0212974821
 21
142.7539863262
 31
0.0
  0
LINE
  5
FD
330
1F
100
AcDbEntity
  8
0
  6
Continuous
 62
     7
370
    15
100
AcDbLine
 10
168.8869829071
 20
142.7539863262
 30
0.0
 11
168.1212974821
 21
141.9883009013
 31
0.0
  0
LINE
  5
FE
330
1F
100
AcDbEntity
  8
0
  6
Continuous
 62
     7
370
    15
100
AcDbLine
 10
168.1212974821
 20
80.2539863262
 30
0.0
 11
168.8869829071
 21
79.4883009013
 31
0.0
  0
LINE
  5
FF
330
1F
100
AcDbEntity
  8
0
  6
Continuous
 62
     7
370
    15
100
AcDbLine
 10
174.0041401946
 20
83.1211436138
 30
0.0
 11
177.8041401946
 21
83.1211436138
 31
0.0
  0
LINE
  5
100
330
1F
100
AcDbEntity
  8
0
  6
Continuous
 62
     7
370
    15
100
AcDbLine
 10
177.8041401946
 20
139.1211436138
 30
0.0
 11
174.0041401946
 21
139.1211436138
 31
0.0
  0
LINE
  5
101
330
1F
100
AcDbEntity
  8
0
  6
Continuous
 62
     7
370
    15
100
AcDbLine
 10
185.9041401946
 20
87.1211436138
 30
0.0
 11
258.9381147908
 21
87.1211436138
 31
0.0
  0
LINE
  5
102
330
1F
100
AcDbEntity
  8
0
  6
Continuous
 62
     7
370
    15
100
AcDbLine
 10
258.9381147908
 20
135.1211436138
 30
0.0
 11
185.9041401946
 21
135.1211436138
 31
0.0
  0
LINE
  5
103
330
1F
100
AcDbEntity
  8
0
  6
Continuous
 62
     7
370
    15
100
AcDbLine
 10
258.9381147908
 20
87.1211436138
 30
0.0
 11
259.8041401946
 21
88.6211436138
 31
0.0
  0
LINE
  5
104
330
1F
100
AcDbEntity
  8
0
  6
Continuous
 62
     7
370
    15
100
AcDbLine
 10
259.8041401946
 20
133.6211436138
 30
0.0
 11
258.9381147908
 21
135.1211436138
 31
0.0
  0
ARC
  5
105
330
1F
100
AcDbEntity
  8
0
  6
Continuous
 62
     7
370
    15
100
AcDbCircle
 10
167.6041401946
 20
88.7211436138
 30
0.0
 40
0.4000000000000057
100
AcDbArc
 50
0.0
 51
90.0
  0
ARC
  5
106
330
1F
100
AcDbEntity
  8
0
  6
Continuous
 62
     7
370
    15
100
AcDbCircle
 10
167.6041401946
 20
133.5211436138
 30
0.0
 40
0.4000000000000057
100
AcDbArc
 50
270.0
 51
0.0
  0
LINE
  5
107
330
1F
100
AcDbEntity
  8
0
  6
Continuous
 62
     7
370
    15
100
AcDbLine
 10
164.8041401946
 20
133.3461436138
 30
0.0
 11
97.2598319673
 21
123.4958389899
 31
0.0
  0
LINE
  5
108
330
1F
100
AcDbEntity
  8
0
  6
Continuous
 62
     7
370
    15
100
AcDbLine
 10
97.2598319673
 20
98.7464482377
 30
0.0
 11
164.8041401946
 21
88.8961436138
 31
0.0
  0
LINE
  5
109
330
1F
100
AcDbEntity
  8
0
  6
Continuous
 62
     7
370
    15
100
AcDbLine
 10
164.8041401946
 20
88.8961436138
 30
0.0
 11
165.2866542517
 21
89.1211436138
 31
0.0
  0
LINE
  5
10A
330
1F
100
AcDbEntity
  8
0
  6
Continuous
 62
     7
370
    15
100
AcDbLine
 10
165.2866542517
 20
133.1211436138
 30
0.0
 11
164.8041401946
 21
133.3461436138
 31
0.0
  0
LINE
  5
10B
330
1F
100
AcDbEntity
  8
0
  6
Continuous
 62
     7
370
    15
100
AcDbLine
 10
165.2866542517
 20
89.1211436138
 30
0.0
 11
167.6041401946
 21
89.1211436138
 31
0.0
  0
LINE
  5
10C
330
1F
100
AcDbEntity
  8
0
  6
Continuous
 62
     7
370
    15
100
AcDbLine
 10
167.6041401946
 20
133.1211436138
 30
0.0
 11
165.2866542517
 21
133.1211436138
 31
0.0
  0
ARC
  5
10D
330
1F
100
AcDbEntity
  8
0
  6
Continuous
 62
     7
370
    15
100
AcDbCircle
 10
97.4041401946
 20
99.7359810242
 30
0.0
 40
1.000000000000002
100
AcDbArc
 50
180.0
 51
261.7027777778
  0
ARC
  5
10E
330
1F
100
AcDbEntity
  8
0
  6
Continuous
 62
     7
370
    15
100
AcDbCircle
 10
97.4041401946
 20
122.5063062034
 30
0.0
 40
1.000000000000002
100
AcDbArc
 50
98.2972222222
 51
180.0
  0
ARC
  5
10F
330
1F
100
AcDbEntity
  8
0
  6
Continuous
 62
     7
370
    15
100
AcDbCircle
 10
168.4041401946
 20
141.7054581888
 30
0.0
 40
0.4000000000000341
100
AcDbArc
 50
135.0
 51
180.0
  0
ARC
  5
110
330
1F
100
AcDbEntity
  8
0
  6
Continuous
 62
     7
370
    15
100
AcDbCircle
 10
168.4041401946
 20
80.5368290387
 30
0.0
 40
0.4000000000000341
100
AcDbArc
 50
180.0
 51
225.0
  0
ARC
  5
111
330
1F
100
AcDbEntity
  8
0
  6
Continuous
 62
     7
370
    15
100
AcDbCircle
 10
169.1698256196
 20
79.7711436138
 30
0.0
 40
0.3999999999999992
100
AcDbArc
 50
225.0
 51
270.0
  0
ARC
  5
112
330
1F
100
AcDbEntity
  8
0
  6
Continuous
 62
     7
370
    15
100
AcDbCircle
 10
182.7384547697
 20
79.7711436138
 30
0.0
 40
0.3999999999999791
100
AcDbArc
 50
270.0
 51
315.0
  0
ARC
  5
113
330
1F
100
AcDbEntity
  8
0
  6
Continuous
 62
     7
370
    15
100
AcDbCircle
 10
182.7384547697
 20
142.4711436138
 30
0.0
 40
0.3999999999999791
100
AcDbArc
 50
45.0
 51
90.0
  0
ARC
  5
114
330
1F
100
AcDbEntity
  8
0
  6
Continuous
 62
     7
370
    15
100
AcDbCircle
 10
169.1698256196
 20
142.4711436138
 30
0.0
 40
0.3999999999999992
100
AcDbArc
 50
90.0
 51
135.0
  0
ARC
  5
115
330
1F
100
AcDbEntity
  8
0
  6
Continuous
 62
     7
370
    15
100
AcDbCircle
 10
185.9041401946
 20
137.1211436138
 30
0.0
 40
2.0
100
AcDbArc
 50
180.0
 51
270.0
  0
ARC
  5
116
330
1F
100
AcDbEntity
  8
0
  6
Continuous
 62
     7
370
    15
100
AcDbCircle
 10
183.5041401946
 20
80.5368290387
 30
0.0
 40
0.4000000000000057
100
AcDbArc
 50
315.0
 51
0.0
  0
ARC
  5
117
330
1F
100
AcDbEntity
  8
0
  6
Continuous
 62
     7
370
    15
100
AcDbCircle
 10
183.5041401946
 20
141.7054581888
 30
0.0
 40
0.4000000000000057
100
AcDbArc
 50
0.0
 51
45.0
  0
ARC
  5
118
330
1F
100
AcDbEntity
  8
0
  6
Continuous
 62
     7
370
    15
100
AcDbCircle
 10
185.9041401946
 20
85.1211436138
 30
0.0
 40
2.000000000000014
100
AcDbArc
 50
90.0
 51
180.0
  0
LINE
  5
119
330
1F
100
AcDbEntity
  8
0
  6
Continuous
 62
     7
370
    15
100
AcDbLine
 10
183.0212974821
 20
141.5890773236
 30
0.0
 11
183.0212974821
 21
80.6734743144
 31
0.0
  0
SPLINE
  5
11A
330
1F
100
AcDbEntity
  8
0
  6
Continuous
 62
     7
370
    15
100
AcDbSpline
210
0.0
220
0.0
230
1.0
 70
     8
 71
     3
 72
    10
 73
     6
 74
     0
 42
0.000000001
 43
0.00000001
 40
0.0
 40
0.0
 40
0.0
 40
0.0
 40
0.5
 40
0.5
 40
1.0
 40
1.0
 40
1.0
 40
1.0
 10
182.738454769658
 20
80.59147612641935
 30
0.0
 10
182.7955297096181
 20
80.59147612641935
 30
0.0
 10
182.8509217376526
 20
80.60024680396816
 30
0.0
 10
182.9471706421331
 20
80.62975509258288
 30
0.0
 10
182.9880980350999
 20
80.65019829483656
 30
0.0
 10
183.0212974821326
 20
80.67347431438336
 30
0.0
  0
LINE
  5
11B
330
1F
100
AcDbEntity
  8
0
  6
Continuous
 62
     7
370
    15
100
AcDbLine
 10
182.7384547697
 20
80.5914761264
 30
0.0
 11
182.7384547697
 21
141.6841128079
 31
0.0
  0
SPLINE
  5
11C
330
1F
100
AcDbEntity
  8
0
  6
Continuous
 62
     7
370
    15
100
AcDbSpline
210
0.0
220
0.0
230
1.0
 70
     8
 71
     3
 72
     8
 73
     4
 74
     0
 42
0.000000001
 43
0.00000001
 40
0.0
 40
0.0
 40
0.0
 40
0.0
 40
1.0
 40
1.0
 40
1.0
 40
1.0
 10
183.0212974821326
 20
141.5890773236389
 30
0.0
 10
182.9500521826569
 20
141.6469038269145
 30
0.0
 10
182.8471438189397
 20
141.6841128079212
 30
0.0
 10
182.738454769658
 20
141.6841128079212
 30
0.0
  0
LINE
  5
11D
330
1F
100
AcDbEntity
  8
0
  6
Continuous
 62
     7
370
    15
100
AcDbLine
 10
169.1698256196
 20
141.6841128079
 30
0.0
 11
169.1698256196
 21
80.5914761264
 31
0.0
  0
SPLINE
  5
11E
330
1F
100
AcDbEntity
  8
0
  6
Continuous
 62
     7
370
    15
100
AcDbSpline
210
0.0
220
0.0
230
1.0
 70
     8
 71
     3
 72
    10
 73
     6
 74
     0
 42
0.000000001
 43
0.00000001
 40
0.0
 40
0.0
 40
0.0
 40
0.0
 40
0.5
 40
0.5
 40
1.0
 40
1.0
 40
1.0
 40
1.0
 10
168.8869829070819
 20
80.67347431438334
 30
0.0
 10
168.9201675376947
 20
80.65020868257817
 30
0.0
 10
168.9608940861354
 20
80.62984257580868
 30
0.0
 10
169.0571859412267
 20
80.6002784748064
 30
0.0
 10
169.1127520105133
 20
80.59147612641934
 30
0.0
 10
169.1698256195565
 20
80.59147612641934
 30
0.0
  0
LINE
  5
11F
330
1F
100
AcDbEntity
  8
0
  6
Continuous
 62
     7
370
    15
100
AcDbLine
 10
168.8869829071
 20
80.6734743144
 30
0.0
 11
168.8869829071
 21
141.5890773236
 31
0.0
  0
SPLINE
  5
120
330
1F
100
AcDbEntity
  8
0
  6
Continuous
 62
     7
370
    15
100
AcDbSpline
210
0.0
220
0.0
230
1.0
 70
     8
 71
     3
 72
     8
 73
     4
 74
     0
 42
0.000000001
 43
0.00000001
 40
0.0
 40
0.0
 40
0.0
 40
0.0
 40
1.0
 40
1.0
 40
1.0
 40
1.0
 10
169.1698256195564
 20
141.6841128079212
 30
0.0
 10
169.0612466273735
 20
141.6841128079212
 30
0.0
 10
168.9581973069001
 20
141.6468787470966
 30
0.0
 10
168.8869829070818
 20
141.5890773236389
 30
0.0
  0
LINE
  5
121
330
1F
100
AcDbEntity
  8
0
  6
Continuous
 62
     7
370
    15
100
AcDbLine
 10
179.4259768367
 20
79.3711436138
 30
0.0
 11
179.4259768367
 21
142.8711436138
 31
0.0
  0
LINE
  5
122
330
1F
100
AcDbEntity
  8
0
  6
Continuous
 62
     7
370
    15
100
AcDbLine
 10
177.8041401946
 20
140.0620401482
 30
0.0
 11
177.8041401946
 21
82.1802470794
 31
0.0
  0
LINE
  5
123
330
1F
100
AcDbEntity
  8
0
  6
Continuous
 62
     7
370
    15
100
AcDbLine
 10
174.0041401946
 20
111.1211436138
 30
0.0
 11
174.0041401946
 21
140.0620401482
 31
0.0
  0
LINE
  5
124
330
1F
100
AcDbEntity
  8
0
  6
Continuous
 62
     7
370
    15
100
AcDbLine
 10
174.0041401946
 20
82.1802470794
 30
0.0
 11
174.0041401946
 21
111.1211436138
 31
0.0
  0
LINE
  5
125
330
1F
100
AcDbEntity
  8
0
  6
Continuous
 62
     7
370
    15
100
AcDbLine
 10
172.3823035526
 20
142.8711436138
 30
0.0
 11
172.3823035526
 21
79.3711436138
 31
0.0
  0
LINE
  5
126
330
1F
100
AcDbEntity
  8
0
  6
Continuous
 62
     7
370
    15
100
AcDbLine
 10
183.7869829071
 20
140.9201184118
 30
0.0
 11
183.7869829071
 21
81.3221688158
 31
0.0
  0
LINE
  5
127
330
1F
100
AcDbEntity
  8
0
  6
Continuous
 62
     7
370
    15
100
AcDbLine
 10
168.1212974821
 20
81.485769047
 30
0.0
 11
168.1212974821
 21
140.7565181806
 31
0.0
  0
SPLINE
  5
128
330
1F
100
AcDbEntity
  8
0
  6
Continuous
 62
     7
370
    15
100
AcDbSpline
210
0.0
220
0.0
230
1.0
 70
     8
 71
     3
 72
    10
 73
     6
 74
     0
 42
0.000000001
 43
0.00000001
 40
0.0
 40
0.0
 40
0.0
 40
0.0
 40
0.5
 40
0.5
 40
1.0
 40
1.0
 40
1.0
 40
1.0
 10
168.0041401946072
 20
81.81520909487772
 30
0.0
 10
168.0041401946072
 20
81.75124995916376
 30
0.0
 10
168.0179745619047
 20
81.68967289572205
 30
0.0
 10
168.0601285485783
 20
81.57902025300423
 30
0.0
 10
168.0886218200515
 20
81.52932134455747
 30
0.0
 10
168.1212974821326
 20
81.48576904697155
 30
0.0
  0
SPLINE
  5
129
330
1F
100
AcDbEntity
  8
0
  6
Continuous
 62
     7
370
    15
100
AcDbSpline
210
0.0
220
0.0
230
1.0
 70
    24
 71
     3
 72
    31
 73
    27
 74
     0
 42
0.000000001
 43
0.00000001
 40
0.0
 40
0.0
 40
0.0
 40
0.0
 40
0.0132844560938056
 40
0.0265558208792211
 40
0.0398179176701733
 40
0.0530745777994556
 40
0.0663296373142115
 40
0.0795869336510156
 40
0.0928503023049307
 40
0.1061235735069809
 40
0.1194105689243954
 40
0.1814480130406099
 40
0.2434985490104098
 40
0.3072096944263702
 40
0.3709342849308372
 40
0.5000015820302126
 40
0.629068879129588
 40
0.6927800250014282
 40
0.756504615960901
 40
0.8185420607573841
 40
0.8805925974112686
 40
0.9044943877003904
 40
0.9283636577008779
 40
0.9522227648274384
 40
0.9760940950498357
 40
1.0
 40
1.0
 40
1.0
 40
1.0
 10
168.0041401946072
 20
81.8152090948777
 30
0.0
 10
168.0041401946072
 20
81.8656194767326
 30
0.0
 10
168.0041401946072
 20
81.96639056299601
 30
0.0
 10
168.0041401946072
 20
82.12814462860622
 30
0.0
 10
168.0041401946072
 20
82.29754490240326
 30
0.0
 10
168.0041401946072
 20
82.47535728415764
 30
0.0
 10
168.0041401946072
 20
82.66137659805928
 30
0.0
 10
168.0041401946072
 20
82.85565808252713
 30
0.0
 10
168.0041401946072
 20
83.05818557907557
 30
0.0
 10
168.0041401946072
 20
83.26896815972124
 30
0.0
 10
168.0041401946072
 20
83.75572386179854
 30
0.0
 10
168.0041401946072
 20
84.58862910984797
 30
0.0
 10
168.0041401946072
 20
85.89664807439424
 30
0.0
 10
168.0041401946072
 20
87.3801250286279
 30
0.0
 10
168.0041401946072
 20
89.60040392328023
 30
0.0
 10
168.0041401946072
 20
92.76465539767739
 30
0.0
 10
168.0041401946072
 20
96.34634662225241
 30
0.0
 10
168.0041401946072
 20
99.38589740413879
 30
0.0
 10
168.0041401946072
 20
101.7093646459992
 30
0.0
 10
168.0041401946072
 20
104.0724798453602
 30
0.0
 10
168.0041401946072
 20
105.9703890664657
 30
0.0
 10
168.0041401946072
 20
107.3901831202021
 30
0.0
 10
168.0041401946072
 20
108.3197781059135
 30
0.0
 10
168.0041401946072
 20
109.2515864839264
 30
0.0
 10
168.0041401946072
 20
110.1856249039788
 30
0.0
 10
168.0041401946072
 20
110.8091536351358
 30
0.0
 10
168.0041401946072
 20
111.121143613771
 30
0.0
  0
SPLINE
  5
12A
330
1F
100
AcDbEntity
  8
0
  6
Continuous
 62
     7
370
    15
100
AcDbSpline
210
0.0
220
0.0
230
1.0
 70
    24
 71
     3
 72
    31
 73
    27
 74
     0
 42
0.000000001
 43
0.00000001
 40
0.0
 40
0.0
 40
0.0
 40
0.0
 40
0.0132844560936926
 40
0.0265558208790234
 40
0.0398179176699192
 40
0.0530745777991735
 40
0.0663296373139296
 40
0.0795869336507621
 40
0.0928503023047337
 40
0.1061235735068684
 40
0.1194105689243952
 40
0.1814480130391982
 40
0.2434985490104063
 40
0.3072096944243581
 40
0.3709342849308367
 40
0.500001582030214
 40
0.6290688791295916
 40
0.6927800250014717
 40
0.7565046159608924
 40
0.8185420607578845
 40
0.8805925974112778
 40
0.9044943877013559
 40
0.9283636577023237
 40
0.9522227648288846
 40
0.9760940950508001
 40
1.0
 40
1.0
 40
1.0
 40
1.0
 10
168.0041401946072
 20
111.121143613771
 30
0.0
 10
168.0041401946072
 20
111.2945110490657
 30
0.0
 10
168.0041401946072
 20
111.6410750728745
 30
0.0
 10
168.0041401946072
 20
112.1605656262033
 30
0.0
 10
168.0041401946072
 20
112.6793944810779
 30
0.0
 10
168.0041401946072
 20
113.1975615599455
 30
0.0
 10
168.0041401946072
 20
113.7150665911442
 30
0.0
 10
168.0041401946072
 20
114.2319099572542
 30
0.0
 10
168.0041401946072
 20
114.7480896189909
 30
0.0
 10
168.0041401946072
 20
115.2636125846196
 30
0.0
 10
168.0041401946072
 20
116.4078200966654
 30
0.0
 10
168.0041401946072
 20
118.1696555779889
 30
0.0
 10
168.0041401946072
 20
120.5325889128069
 30
0.0
 10
168.0041401946072
 20
122.8562275256472
 30
0.0
 10
168.0041401946072
 20
125.8957908380784
 30
0.0
 10
168.0041401946072
 20
129.4776320646288
 30
0.0
 10
168.0041401946072
 20
132.6417505738175
 30
0.0
 10
168.0041401946072
 20
134.8620519894363
 30
0.0
 10
168.0041401946072
 20
136.345440137027
 30
0.0
 10
168.0041401946072
 20
137.6535827893426
 30
0.0
 10
168.0041401946072
 20
138.5508239569565
 30
0.0
 10
168.0041401946072
 20
139.1454375784467
 30
0.0
 10
168.0041401946072
 20
139.5072372222193
 30
0.0
 10
168.0041401946072
 20
139.8417822453007
 30
0.0
 10
168.0041401946072
 20
140.1515586277495
 30
0.0
 10
168.0041401946072
 20
140.3351940008435
 30
0.0
 10
168.0041401946072
 20
140.4270781326643
 30
0.0
  0
SPLINE
  5
12B
330
1F
100
AcDbEntity
  8
0
  6
Continuous
 62
     7
370
    15
100
AcDbSpline
210
0.0
220
0.0
230
1.0
 70
     8
 71
     3
 72
    10
 73
     6
 74
     0
 42
0.000000001
 43
0.00000001
 40
0.0
 40
0.0
 40
0.0
 40
0.0
 40
0.5
 40
0.5
 40
1.0
 40
1.0
 40
1.0
 40
1.0
 10
168.1212974821326
 20
140.7565181805705
 30
0.0
 10
168.0886428572034
 20
140.712993922701
 30
0.0
 10
168.0606617427893
 20
140.6644318204174
 30
0.0
 10
168.0180155368539
 20
140.5529535127976
 30
0.0
 10
168.0041401946072
 20
140.4909822238317
 30
0.0
 10
168.0041401946072
 20
140.4270781326643
 30
0.0
  0
SPLINE
  5
12C
330
1F
100
AcDbEntity
  8
0
  6
Continuous
 62
     7
370
    15
100
AcDbSpline
210
0.0
220
0.0
230
1.0
 70
     8
 71
     3
 72
     8
 73
     4
 74
     0
 42
0.000000001
 43
0.00000001
 40
0.0
 40
0.0
 40
0.0
 40
0.0
 40
1.0
 40
1.0
 40
1.0
 40
1.0
 10
183.9041401946072
 20
140.6270379067028
 30
0.0
 10
183.9041401946072
 20
140.7357892286264
 30
0.0
 10
183.8625496718867
 20
140.8418428593315
 30
0.0
 10
183.7869829070818
 20
140.9201184117877
 30
0.0
  0
SPLINE
  5
12D
330
1F
100
AcDbEntity
  8
0
  6
Continuous
 62
     7
370
    15
100
AcDbSpline
210
0.0
220
0.0
230
1.0
 70
    24
 71
     3
 72
    31
 73
    27
 74
     0
 42
0.000000001
 43
0.00000001
 40
0.0
 40
0.0
 40
0.0
 40
0.0
 40
0.0132615204097968
 40
0.0265095377996707
 40
0.0397479976735972
 40
0.0529808540845518
 40
0.0662120661091751
 40
0.079445594299962
 40
0.0926853971308347
 40
0.1059354274520315
 40
0.1191996289701444
 40
0.1812172705063804
 40
0.2432482034156669
 40
0.3070054611615154
 40
0.3707758455973491
 40
0.5000016328884954
 40
0.6292274201796418
 40
0.6929846784062125
 40
0.756755063322089
 40
0.8187727037418453
 40
0.8808036357637741
 40
0.9046638208938186
 40
0.92849046716819
 40
0.9523066488125118
 40
0.9761354704521561
 40
1.0
 40
1.0
 40
1.0
 40
1.0
 10
183.9041401946072
 20
140.6270379067028
 30
0.0
 10
183.9041401946072
 20
140.5797952990448
 30
0.0
 10
183.9041401946072
 20
140.4853581866501
 30
0.0
 10
183.9041401946072
 20
140.332665045142
 30
0.0
 10
183.9041401946072
 20
140.1719994917595
 30
0.0
 10
183.9041401946072
 20
140.0025644462199
 30
0.0
 10
183.9041401946072
 20
139.8245734282448
 30
0.0
 10
183.9041401946072
 20
139.637968955296
 30
0.0
 10
183.9041401946072
 20
139.4427678324766
 30
0.0
 10
183.9041401946072
 20
139.2389606573047
 30
0.0
 10
183.9041401946072
 20
138.7664707364822
 30
0.0
 10
183.9041401946072
 20
137.9518506190258
 30
0.0
 10
183.9041401946072
 20
136.6599688281131
 30
0.0
 10
183.9041401946072
 20
135.1840006437915
 30
0.0
 10
183.9041401946072
 20
132.9613471929421
 30
0.0
 10
183.9041401946072
 20
129.7729919074827
 30
0.0
 10
183.9041401946072
 20
126.1434899048202
 30
0.0
 10
183.9041401946072
 20
123.0557178742429
 30
0.0
 10
183.9041401946072
 20
120.6935763702205
 30
0.0
 10
183.9041401946072
 20
118.2896275574601
 30
0.0
 10
183.9041401946072
 20
116.358693330584
 30
0.0
 10
183.9041401946072
 20
114.9143634091946
 30
0.0
 10
183.9041401946072
 20
113.969365950051
 30
0.0
 10
183.9041401946072
 20
113.0220408127484
 30
0.0
 10
183.9041401946072
 20
112.0723705123065
 30
0.0
 10
183.9041401946072
 20
111.4383774696864
 30
0.0
 10
183.9041401946072
 20
111.121143613771
 30
0.0
  0
SPLINE
  5
12E
330
1F
100
AcDbEntity
  8
0
  6
Continuous
 62
     7
370
    15
100
AcDbSpline
210
0.0
220
0.0
230
1.0
 70
    24
 71
     3
 72
    31
 73
    27
 74
     0
 42
0.000000001
 43
0.00000001
 40
0.0
 40
0.0
 40
0.0
 40
0.0
 40
0.0132615204102289
 40
0.0265095378004267
 40
0.0397479976745689
 40
0.0529808540856311
 40
0.0662120661102543
 40
0.0794455943009333
 40
0.0926853971315909
 40
0.105935427452466
 40
0.1191996289701507
 40
0.1812172705070559
 40
0.2432482034156618
 40
0.3070054611628419
 40
0.3707758455973574
 40
0.5000016328885014
 40
0.6292274201796462
 40
0.6929846784074412
 40
0.756755063322104
 40
0.8187727037442042
 40
0.8808036357637825
 40
0.9046638208943639
 40
0.9284904671690046
 40
0.9523066488133262
 40
0.976135470452699
 40
1.0
 40
1.0
 40
1.0
 40
1.0
 10
183.9041401946072
 20
111.121143613771
 30
0.0
 10
183.9041401946072
 20
110.9448616570639
 30
0.0
 10
183.9041401946072
 20
110.5924772357983
 30
0.0
 10
183.9041401946072
 20
110.064274106176
 30
0.0
 10
183.9041401946072
 20
109.5367662177929
 30
0.0
 10
183.9041401946072
 20
109.0099536562035
 30
0.0
 10
183.9041401946072
 20
108.4838367119725
 30
0.0
 10
183.9041401946072
 20
107.9584149868078
 30
0.0
 10
183.9041401946072
 20
107.433690631674
 30
0.0
 10
183.9041401946072
 20
106.9096562735183
 30
0.0
 10
183.9041401946072
 20
105.7454805805604
 30
0.0
 10
183.9041401946072
 20
103.9528155734241
 30
0.0
 10
183.9041401946072
 20
101.5490489005569
 30
0.0
 10
183.9041401946072
 20
99.18673021707355
 30
0.0
 10
183.9041401946072
 20
96.09894536916853
 30
0.0
 10
183.9041401946072
 20
92.46929509200774
 30
0.0
 10
183.9041401946072
 20
89.28107041125021
 30
0.0
 10
183.9041401946072
 20
87.0583940050793
 30
0.0
 10
183.9041401946072
 20
85.58251455252794
 30
0.0
 10
183.9041401946072
 20
84.29051378697403
 30
0.0
 10
183.9041401946072
 20
83.41305222448752
 30
0.0
 10
183.9041401946072
 20
82.83662924899762
 30
0.0
 10
183.9041401946072
 20
82.48813836565472
 30
0.0
 10
183.9041401946072
 20
82.16806162879728
 30
0.0
 10
183.9041401946072
 20
81.87381220258902
 30
0.0
 10
183.9041401946072
 20
81.70147995634805
 30
0.0
 10
183.9041401946072
 20
81.61524932083927
 30
0.0
  0
SPLINE
  5
12F
330
1F
100
AcDbEntity
  8
0
  6
Continuous
 62
     7
370
    15
100
AcDbSpline
210
0.0
220
0.0
230
1.0
 70
     8
 71
     3
 72
     8
 73
     4
 74
     0
 42
0.000000001
 43
0.00000001
 40
0.0
 40
0.0
 40
0.0
 40
0.0
 40
1.0
 40
1.0
 40
1.0
 40
1.0
 10
183.7869829070818
 20
81.32216881575438
 30
0.0
 10
183.8625256893604
 20
81.40041952599981
 30
0.0
 10
183.9041401946072
 20
81.50653876429887
 30
0.0
 10
183.9041401946072
 20
81.61524932083927
 30
0.0
  0
SPLINE
  5
130
330
1F
100
AcDbEntity
  8
0
  6
Continuous
 62
     7
370
    15
100
AcDbSpline
210
0.0
220
0.0
230
1.0
 70
     8
 71
     3
 72
    12
 73
     8
 74
     0
 42
0.000000001
 43
0.00000001
 40
0.0
 40
0.0
 40
0.0
 40
0.0
 40
0.2499999999999988
 40
0.2499999999999988
 40
0.4999999999999977
 40
0.4999999999999977
 40
1.0
 40
1.0
 40
1.0
 40
1.0
 10
183.9041401946072
 20
135.8435524769866
 30
0.0
 10
183.9041401946072
 20
135.6765213142628
 30
0.0
 10
183.9227937838543
 20
135.512648456029
 30
0.0
 10
183.9961130532294
 20
135.191000072724
 30
0.0
 10
184.0518251864237
 20
135.0318496922307
 30
0.0
 10
184.2675311761488
 20
134.5868068031124
 30
0.0
 10
184.4805757108329
 20
134.3218380682856
 30
0.0
 10
184.7479473019885
 20
134.1211436137711
 30
0.0
  0
SPLINE
  5
131
330
1F
100
AcDbEntity
  8
0
  6
Continuous
 62
     7
370
    15
100
AcDbSpline
210
0.0
220
0.0
230
1.0
 70
     8
 71
     3
 72
     8
 73
     4
 74
     0
 42
0.000000001
 43
0.00000001
 40
0.0
 40
0.0
 40
0.0
 40
0.0
 40
0.0000077267255667
 40
0.0000077267255667
 40
0.0000077267255667
 40
0.0000077267255667
 10
184.7541401946072
 20
134.1165230448938
 30
0.0
 10
184.7520714943883
 20
134.1180572394194
 30
0.0
 10
184.7500071490012
 20
134.1195974514775
 30
0.0
 10
184.7479473019885
 20
134.121143613771
 30
0.0
  0
SPLINE
  5
132
330
1F
100
AcDbEntity
  8
0
  6
Continuous
 62
     7
370
    15
100
AcDbSpline
210
0.0
220
0.0
230
1.0
 70
     8
 71
     3
 72
    12
 73
     8
 74
     0
 42
0.000000001
 43
0.00000001
 40
0.0
 40
0.0
 40
0.0
 40
0.0
 40
0.5
 40
0.5
 40
0.75
 40
0.75
 40
1.0
 40
1.0
 40
1.0
 40
1.0
 10
185.9041401945933
 20
133.8116441493184
 30
0.0
 10
185.6978069438183
 20
133.8043078487188
 30
0.0
 10
185.4992138286784
 20
133.8205023645001
 30
0.0
 10
185.207317564227
 20
133.890460681099
 30
0.0
 10
185.1121531016485
 20
133.9216484466468
 30
0.0
 10
184.9280814737705
 20
134.0032485738081
 30
0.0
 10
184.8378141791405
 20
134.0544685394458
 30
0.0
 10
184.7541401946072
 20
134.1165230448938
 30
0.0
  0
LINE
  5
133
330
1F
100
AcDbEntity
  8
0
  6
Continuous
 62
     7
370
    15
100
AcDbLine
 10
185.9041401946
 20
133.8116441493
 30
0.0
 11
185.9041401946
 21
88.2148019893
 31
0.0
  0
ARC
  5
134
330
1F
100
AcDbEntity
  8
0
  6
Continuous
 62
     7
370
    15
100
AcDbCircle
 10
185.859609367
 20
86.2592832448
 30
0.0
 40
1.956025703952949
100
AcDbArc
 50
88.6954931514
 51
178.6331982034
  0
LINE
  5
135
330
1F
100
AcDbEntity
  8
0
  6
Continuous
 62
     7
370
    15
100
AcDbLine
 10
258.9381147908
 20
111.1211436138
 30
0.0
 11
258.9381147908
 21
135.1211436138
 31
0.0
  0
LINE
  5
136
330
1F
100
AcDbEntity
  8
0
  6
Continuous
 62
     7
370
    15
100
AcDbLine
 10
258.9381147908
 20
87.1211436138
 30
0.0
 11
258.9381147908
 21
111.1211436138
 31
0.0
  0
LINE
  5
137
330
1F
100
AcDbEntity
  8
0
  6
Continuous
 62
     7
370
    15
100
AcDbLine
 10
259.8041401946
 20
111.1211436138
 30
0.0
 11
259.8041401946
 21
133.6211436138
 31
0.0
  0
LINE
  5
138
330
1F
100
AcDbEntity
  8
0
  6
Continuous
 62
     7
370
    15
100
AcDbLine
 10
259.8041401946
 20
88.6211436138
 30
0.0
 11
259.8041401946
 21
111.1211436138
 31
0.0
  0
LINE
  5
139
330
1F
100
AcDbEntity
  8
0
  6
Continuous
 62
     7
370
    15
100
AcDbLine
 10
164.8041401946
 20
111.1211436138
 30
0.0
 11
164.8041401946
 21
88.8961436138
 31
0.0
  0
LINE
  5
13A
330
1F
100
AcDbEntity
  8
0
  6
Continuous
 62
     7
370
    15
100
AcDbLine
 10
164.8041401946
 20
133.3461436138
 30
0.0
 11
164.8041401946
 21
111.1211436138
 31
0.0
  0
LINE
  5
13B
330
1F
100
AcDbEntity
  8
0
  6
Continuous
 62
     7
370
    15
100
AcDbLine
 10
165.2866542517
 20
111.1211436138
 30
0.0
 11
165.2866542517
 21
89.1211436138
 31
0.0
  0
LINE
  5
13C
330
1F
100
AcDbEntity
  8
0
  6
Continuous
 62
     7
370
    15
100
AcDbLine
 10
165.2866542517
 20
133.1211436138
 30
0.0
 11
165.2866542517
 21
111.1211436138
 31
0.0
  0
SPLINE
  5
13D
330
1F
100
AcDbEntity
  8
0
  6
Continuous
 62
     7
370
    15
100
AcDbSpline
210
0.0
220
0.0
230
1.0
 70
    24
 71
     3
 72
    10
 73
     6
 74
     0
 42
0.000000001
 43
0.00000001
 40
0.0
 40
0.0
 40
0.0
 40
0.0
 40
0.4999999999999997
 40
0.4999999999999997
 40
0.9999999999999999
 40
0.9999999999999999
 40
0.9999999999999999
 40
0.9999999999999999
 10
96.4041401946072
 20
122.50630620339
 30
0.0
 10
96.4041401946072
 20
122.5063062033899
 30
0.0
 10
96.4041401946072
 20
121.3067410199471
 30
0.0
 10
96.4041401946072
 20
117.0365975516566
 30
0.0
 10
96.4041401946072
 20
114.1405910168387
 30
0.0
 10
96.4041401946072
 20
111.121143613771
 30
0.0
  0
SPLINE
  5
13E
330
1F
100
AcDbEntity
  8
0
  6
Continuous
 62
     7
370
    15
100
AcDbSpline
210
0.0
220
0.0
230
1.0
 70
    24
 71
     3
 72
    10
 73
     6
 74
     0
 42
0.000000001
 43
0.00000001
 40
0.0
 40
0.0
 40
0.0
 40
0.0
 40
0.4999999999999999
 40
0.4999999999999999
 40
0.9999999999999999
 40
0.9999999999999999
 40
0.9999999999999999
 40
0.9999999999999999
 10
96.4041401946072
 20
111.121143613771
 30
0.0
 10
96.4041401946072
 20
108.1016962107034
 30
0.0
 10
96.4041401946072
 20
105.2056896758852
 30
0.0
 10
96.4041401946072
 20
100.9355462075948
 30
0.0
 10
96.4041401946072
 20
99.73598102415201
 30
0.0
 10
96.4041401946072
 20
99.7359810241521
 30
0.0
  0
LINE
  5
13F
330
1F
100
AcDbEntity
  8
0
  6
Continuous
 62
     7
370
    15
100
AcDbLine
 10
168.0041401946
 20
141.7054581888
 30
0.0
 11
168.0041401946
 21
140.4270781327
 31
0.0
  0
LINE
  5
140
330
1F
100
AcDbEntity
  8
0
  6
Continuous
 62
     7
370
    15
100
AcDbLine
 10
168.0041401946
 20
81.8152090949
 30
0.0
 11
168.0041401946
 21
80.5368290387
 31
0.0
  0
LINE
  5
141
330
1F
100
AcDbEntity
  8
0
  6
Continuous
 62
     7
370
    15
100
AcDbLine
 10
183.9041401946
 20
81.6152493208
 30
0.0
 11
183.9041401946
 21
80.5368290387
 31
0.0
  0
LINE
  5
142
330
1F
100
AcDbEntity
  8
0
  6
Continuous
 62
     7
370
    15
100
AcDbLine
 10
183.9041401946
 20
141.7054581888
 30
0.0
 11
183.9041401946
 21
140.6270379067
 31
0.0
  0
LINE
  5
143
330
1F
100
AcDbEntity
  8
0
  6
Continuous
 62
     8
370
    15
100
AcDbLine
 10
182.7384547697
 20
142.8711436138
 30
0.0
 11
182.7384547697
 21
141.6841128079
 31
0.0
  0
LINE
  5
144
330
1F
100
AcDbEntity
  8
0
  6
Continuous
 62
     8
370
    15
100
AcDbLine
 10
182.7384547697
 20
80.5914761264
 30
0.0
 11
182.7384547697
 21
79.3711436138
 31
0.0
  0
LINE
  5
145
330
1F
100
AcDbEntity
  8
0
  6
Continuous
 62
     8
370
    15
100
AcDbLine
 10
169.1698256196
 20
80.5914761264
 30
0.0
 11
169.1698256196
 21
79.3711436138
 31
0.0
  0
LINE
  5
146
330
1F
100
AcDbEntity
  8
0
  6
Continuous
 62
     8
370
    15
100
AcDbLine
 10
169.1698256196
 20
142.8711436138
 30
0.0
 11
169.1698256196
 21
141.6841128079
 31
0.0
  0
LINE
  5
147
330
1F
100
AcDbEntity
  8
0
  6
Continuous
 62
     8
370
    15
100
AcDbLine
 10
183.7869829071
 20
141.9883009013
 30
0.0
 11
183.7869829071
 21
140.9201184118
 31
0.0
  0
LINE
  5
148
330
1F
100
AcDbEntity
  8
0
  6
Continuous
 62
     8
370
    15
100
AcDbLine
 10
183.7869829071
 20
81.3221688158
 30
0.0
 11
183.7869829071
 21
80.2539863262
 31
0.0
  0
LINE
  5
149
330
1F
100
AcDbEntity
  8
0
  6
Continuous
 62
     8
370
    15
100
AcDbLine
 10
183.0212974821
 20
142.7539863262
 30
0.0
 11
183.0212974821
 21
141.5890773236
 31
0.0
  0
LINE
  5
14A
330
1F
100
AcDbEntity
  8
0
  6
Continuous
 62
     8
370
    15
100
AcDbLine
 10
183.0212974821
 20
80.6734743144
 30
0.0
 11
183.0212974821
 21
79.4883009013
 31
0.0
  0
LINE
  5
14B
330
1F
100
AcDbEntity
  8
0
  6
Continuous
 62
     8
370
    15
100
AcDbLine
 10
168.1212974821
 20
141.9883009013
 30
0.0
 11
168.1212974821
 21
140.7565181806
 31
0.0
  0
LINE
  5
14C
330
1F
100
AcDbEntity
  8
0
  6
Continuous
 62
     8
370
    15
100
AcDbLine
 10
168.1212974821
 20
81.485769047
 30
0.0
 11
168.1212974821
 21
80.2539863262
 31
0.0
  0
LINE
  5
14D
330
1F
100
AcDbEntity
  8
0
  6
Continuous
 62
     8
370
    15
100
AcDbLine
 10
168.8869829071
 20
142.7539863262
 30
0.0
 11
168.8869829071
 21
141.5890773236
 31
0.0
  0
LINE
  5
14E
330
1F
100
AcDbEntity
  8
0
  6
Continuous
 62
     8
370
    15
100
AcDbLine
 10
168.8869829071
 20
80.6734743144
 30
0.0
 11
168.8869829071
 21
79.4883009013
 31
0.0
  0
LINE
  5
14F
330
1F
100
AcDbEntity
  8
0
  6
Continuous
 62
     8
370
    15
100
AcDbLine
 10
185.9041401946
 20
135.1211436138
 30
0.0
 11
185.9041401946
 21
133.8116441493
 31
0.0
  0
LINE
  5
150
330
1F
100
AcDbEntity
  8
0
  6
Continuous
 62
     8
370
    15
100
AcDbLine
 10
185.9041401946
 20
87.1211436138
 30
0.0
 11
185.9041401946
 21
88.2148019893
 31
0.0
  0
LINE
  5
151
330
1F
100
AcDbEntity
  8
0
  6
Continuous
 62
     8
370
    15
100
AcDbLine
 10
167.6041401946
 20
111.1211436138
 30
0.0
 11
167.6041401946
 21
133.1211436138
 31
0.0
  0
LINE
  5
152
330
1F
100
AcDbEntity
  8
0
  6
Continuous
 62
     8
370
    15
100
AcDbLine
 10
167.6041401946
 20
89.1211436138
 30
0.0
 11
167.6041401946
 21
111.1211436138
 31
0.0
  0
LINE
  5
153
330
1F
100
AcDbEntity
  8
0
  6
Continuous
 62
     8
370
    15
100
AcDbLine
 10
97.2598319673
 20
123.4958389899
 30
0.0
 11
97.2598319673
 21
98.7464482377
 31
0.0
  0
DIMENSION
  5
154
330
1F
100
AcDbEntity
  8
DIM
100
AcDbDimension
  2
_D
 10
269.8041401946
 20
87.1211436138
 30
0.0
 11
269.8041401946
 21
111.1211436138
 31
0.0
 70
   160
  1
%%c<>
 71
     2
 42
-1.0
  3
SLDDIMSTYLE0
100
AcDbAlignedDimension
 13
258.9381147908
 23
135.1211436138
 33
0.0
 14
258.9381147908
 24
87.1211436138
 34
0.0
 50
90.0
100
AcDbRotatedDimension
  0
DIMENSION
  5
160
330
1F
100
AcDbEntity
  8
DIM
100
AcDbDimension
  2
_D_1
 10
164.8041401946
 20
71.3534083436
 30
0.0
 11
212.3041401946
 21
71.3534083436
 31
0.0
 70
   160
  1
<>
 71
     2
 42
-1.0
  3
SLDDIMSTYLE0
100
AcDbAlignedDimension
 13
259.8041401946
 23
88.6211436138
 33
0.0
 14
164.8041401946
 24
88.8961436138
 34
0.0
100
AcDbRotatedDimension
  0
DIMENSION
  5
16A
330
1F
100
AcDbEntity
  8
DIM
100
AcDbDimension
  2
_D_2
 10
96.4041401946
 20
65.9020299467
 30
0.0
 11
178.1041401946
 21
65.9020299467
 31
0.0
 70
   160
  1
<>
 71
     2
 42
-1.0
  3
SLDDIMSTYLE1
100
AcDbAlignedDimension
 13
259.8041401946
 23
88.6211436138
 33
0.0
 14
96.4041401946
 24
111.1211436138
 34
0.0
100
AcDbRotatedDimension
  0
DIMENSION
  5
175
330
1F
100
AcDbEntity
  8
DIM
100
AcDbDimension
  2
_D_3
 10
92.6479974246
 20
79.3711436138
 30
0.0
 11
92.6479974246
 21
111.1211436138
 31
0.0
 70
   160
  1
%%c<>
 71
     2
 42
-1.0
  3
SLDDIMSTYLE1
100
AcDbAlignedDimension
 13
169.1698256196
 23
142.8711436138
 33
0.0
 14
169.1698256196
 24
79.3711436138
 34
0.0
 50
90.0
100
AcDbRotatedDimension
  0
LINE
  5
180
330
1F
100
AcDbEntity
  8
DIM
  6
CENTERX2
370
     0
100
AcDbLine
 10
261.9530446927
 20
111.1211436138
 30
0.0
 11
94.8598319673
 21
111.1211436138
 31
0.0
  0
LINE
  5
181
330
1F
100
AcDbEntity
  8
DIM
  6
CENTERX2
370
     0
100
AcDbLine
 10
162.8041401946
 20
111.1211436138
 30
0.0
 11
165.2866542517
 21
111.1211436138
 31
0.0
  0
LINE
  5
182
330
1F
100
AcDbEntity
  8
DIM
  6
CENTERX2
370
     0
100
AcDbLine
 10
169.6041401946
 20
111.1211436138
 30
0.0
 11
165.2866542517
 21
111.1211436138
 31
0.0
  0
LINE
  5
183
330
1F
100
AcDbEntity
  8
DIM
  6
CENTERX2
370
     0
100
AcDbLine
 10
256.9381147908
 20
111.1211436138
 30
0.0
 11
261.8041401946
 21
111.1211436138
 31
0.0
  0
ENDSEC
  0
SECTION
  2
OBJECTS
  0
DICTIONARY
  5
C
330
0
100
AcDbDictionary
281
     1
  3
ACAD_GROUP
350
D
  3
ACAD_LAYOUT
350
1A
  3
ACAD_MLINESTYLE
350
17
  3
ACAD_PLOTSETTINGS
350
19
  3
ACAD_PLOTSTYLENAME
350
E
  3
ACAD_SCALELIST
350
47
  0
DICTIONARY
  5
D
102
{ACAD_REACTORS
330
C
102
}
330
C
100
AcDbDictionary
281
     1
  0
DICTIONARY
  5
1A
102
{ACAD_REACTORS
330
C
102
}
330
C
100
AcDbDictionary
281
     1
  3
Layout1
350
1E
  3
Layout2
350
26
  3
Model
350
22
  0
DICTIONARY
  5
17
102
{ACAD_REACTORS
330
C
102
}
330
C
100
AcDbDictionary
281
     1
  3
Standard
350
18
  0
DICTIONARY
  5
19
102
{ACAD_REACTORS
330
C
102
}
330
C
100
AcDbDictionary
281
     1
  0
ACDBDICTIONARYWDFLT
  5
E
102
{ACAD_REACTORS
330
C
102
}
330
C
100
AcDbDictionary
281
     1
  3
Normal
350
F
100
AcDbDictionaryWithDefault
340
F
  0
DICTIONARY
  5
47
102
{ACAD_REACTORS
330
C
102
}
330
C
100
AcDbDictionary
281
     1
  3
A0
350
48
  3
A1
350
49
  3
A2
350
4A
  3
A3
350
4B
  3
A4
350
4C
  3
A5
350
4D
  3
A6
350
4E
  3
A7
350
4F
  3
A8
350
50
  3
A9
350
51
  3
B0
350
52
  3
B1
350
53
  3
B2
350
54
  3
B3
350
55
  3
B4
350
56
  3
B5
350
57
  3
B6
350
58
  3
B7
350
59
  3
B8
350
5A
  3
B9
350
5B
  3
C0
350
5C
  3
C1
350
5D
  3
C2
350
5E
  3
C3
350
5F
  3
C4
350
60
  3
C5
350
61
  3
C6
350
62
  3
C7
350
63
  3
C8
350
64
  3
C9
350
65
  3
D0
350
66
  3
D1
350
67
  3
D2
350
68
  0
LAYOUT
  5
1E
102
{ACAD_REACTORS
330
1A
102
}
330
1A
100
AcDbPlotSettings
  1

  2
none_device
  4

  6

 40
0.0
 41
0.0
 42
0.0
 43
0.0
 44
0.0
 45
0.0
 46
0.0
 47
0.0
 48
0.0
 49
0.0
140
0.0
141
0.0
142
1.0
143
1.0
 70
   688
 72
     1
 73
     0
 74
     5
  7

 75
    16
147
1.0
148
0.0
149
0.0
100
AcDbLayout
  1
Layout1
 70
     1
 71
     1
 10
0.0
 20
0.0
 11
420.0
 21
297.0
 12
0.0
 22
0.0
 32
0.0
 14
1.0000000000E+20
 24
1.0000000000E+20
 34
1.0000000000E+20
 15
-1.0000000000E+20
 25
-1.0000000000E+20
 35
-1.0000000000E+20
146
0.0
 13
0.0
 23
0.0
 33
0.0
 16
1.0
 26
0.0
 36
0.0
 17
0.0
 27
1.0
 37
0.0
 76
     0
330
1B
  0
LAYOUT
  5
26
102
{ACAD_REACTORS
330
1A
102
}
330
1A
100
AcDbPlotSettings
  1

  2
none_device
  4

  6

 40
0.0
 41
0.0
 42
0.0
 43
0.0
 44
0.0
 45
0.0
 46
0.0
 47
0.0
 48
0.0
 49
0.0
140
0.0
141
0.0
142
1.0
143
1.0
 70
   688
 72
     1
 73
     0
 74
     5
  7

 75
    16
147
1.0
148
0.0
149
0.0
100
AcDbLayout
  1
Layout2
 70
     1
 71
     2
 10
0.0
 20
0.0
 11
0.0
 21
0.0
 12
0.0
 22
0.0
 32
0.0
 14
0.0
 24
0.0
 34
0.0
 15
0.0
 25
0.0
 35
0.0
146
0.0
 13
0.0
 23
0.0
 33
0.0
 16
1.0
 26
0.0
 36
0.0
 17
0.0
 27
1.0
 37
0.0
 76
     0
330
23
  0
LAYOUT
  5
22
102
{ACAD_REACTORS
330
1A
102
}
330
1A
100
AcDbPlotSettings
  1

  2
none_device
  4
Letter_(8.50_x_11.00_Inches)
  6

 40
6.35
 41
6.35
 42
6.35000508
 43
6.35000508
 44
215.9
 45
279.4
 46
0.0
 47
0.0
 48
0.0
 49
0.0
140
0.0
141
0.0
142
1.0
143
1.0
 70
  1712
 72
     1
 73
     0
 74
     0
  7

 75
     0
147
1.0
148
0.0
149
0.0
100
AcDbLayout
  1
Model
 70
     1
 71
     0
 10
0.0
 20
0.0
 11
297.0
 21
210.0
 12
0.0
 22
0.0
 32
0.0
 14
0.0
 24
0.0
 34
0.0
 15
297.0
 25
210.0
 35
0.0
146
0.0
 13
0.0
 23
0.0
 33
0.0
 16
1.0
 26
0.0
 36
0.0
 17
0.0
 27
1.0
 37
0.0
 76
     0
330
1F
331
29
  0
MLINESTYLE
  5
18
102
{ACAD_REACTORS
330
17
102
}
330
17
100
AcDbMlineStyle
  2
Standard
 70
     0
  3

 62
   256
 51
90.0
 52
90.0
 71
     2
 49
0.5
 62
   256
  6
BYLAYER
 49
-0.5
 62
   256
  6
BYLAYER
  0
ACDBPLACEHOLDER
  5
F
102
{ACAD_REACTORS
330
E
102
}
330
E
  0
SCALE
  5
48
102
{ACAD_REACTORS
330
47
102
}
330
47
100
AcDbScale
 70
     0
300
1:1
140
1.0
141
1.0
290
     1
  0
SCALE
  5
49
102
{ACAD_REACTORS
330
47
102
}
330
47
100
AcDbScale
 70
     0
300
1:2
140
1.0
141
2.0
290
     0
  0
SCALE
  5
4A
102
{ACAD_REACTORS
330
47
102
}
330
47
100
AcDbScale
 70
     0
300
1:4
140
1.0
141
4.0
290
     0
  0
SCALE
  5
4B
102
{ACAD_REACTORS
330
47
102
}
330
47
100
AcDbScale
 70
     0
300
1:5
140
1.0
141
5.0
290
     0
  0
SCALE
  5
4C
102
{ACAD_REACTORS
330
47
102
}
330
47
100
AcDbScale
 70
     0
300
1:8
140
1.0
141
8.0
290
     0
  0
SCALE
  5
4D
102
{ACAD_REACTORS
330
47
102
}
330
47
100
AcDbScale
 70
     0
300
1:10
140
1.0
141
10.0
290
     0
  0
SCALE
  5
4E
102
{ACAD_REACTORS
330
47
102
}
330
47
100
AcDbScale
 70
     0
300
1:16
140
1.0
141
16.0
290
     0
  0
SCALE
  5
4F
102
{ACAD_REACTORS
330
47
102
}
330
47
100
AcDbScale
 70
     0
300
1:20
140
1.0
141
20.0
290
     0
  0
SCALE
  5
50
102
{ACAD_REACTORS
330
47
102
}
330
47
100
AcDbScale
 70
     0
300
1:30
140
1.0
141
30.0
290
     0
  0
SCALE
  5
51
102
{ACAD_REACTORS
330
47
102
}
330
47
100
AcDbScale
 70
     0
300
1:40
140
1.0
141
40.0
290
     0
  0
SCALE
  5
52
102
{ACAD_REACTORS
330
47
102
}
330
47
100
AcDbScale
 70
     0
300
1:50
140
1.0
141
50.0
290
     0
  0
SCALE
  5
53
102
{ACAD_REACTORS
330
47
102
}
330
47
100
AcDbScale
 70
     0
300
1:100
140
1.0
141
100.0
290
     0
  0
SCALE
  5
54
102
{ACAD_REACTORS
330
47
102
}
330
47
100
AcDbScale
 70
     0
300
2:1
140
2.0
141
1.0
290
     0
  0
SCALE
  5
55
102
{ACAD_REACTORS
330
47
102
}
330
47
100
AcDbScale
 70
     0
300
4:1
140
4.0
141
1.0
290
     0
  0
SCALE
  5
56
102
{ACAD_REACTORS
330
47
102
}
330
47
100
AcDbScale
 70
     0
300
8:1
140
8.0
141
1.0
290
     0
  0
SCALE
  5
57
102
{ACAD_REACTORS
330
47
102
}
330
47
100
AcDbScale
 70
     0
300
10:1
140
10.0
141
1.0
290
     0
  0
SCALE
  5
58
102
{ACAD_REACTORS
330
47
102
}
330
47
100
AcDbScale
 70
     0
300
100:1
140
100.0
141
1.0
290
     0
  0
SCALE
  5
59
102
{ACAD_REACTORS
330
47
102
}
330
47
100
AcDbScale
 70
     0
300
1/128" = 1'-0"
140
0.0078125
141
12.0
290
     0
  0
SCALE
  5
5A
102
{ACAD_REACTORS
330
47
102
}
330
47
100
AcDbScale
 70
     0
300
1/64" = 1'-0"
140
0.015625
141
12.0
290
     0
  0
SCALE
  5
5B
102
{ACAD_REACTORS
330
47
102
}
330
47
100
AcDbScale
 70
     0
300
1/32" = 1'-0"
140
0.03125
141
12.0
290
     0
  0
SCALE
  5
5C
102
{ACAD_REACTORS
330
47
102
}
330
47
100
AcDbScale
 70
     0
300
1/16" = 1'-0"
140
0.0625
141
12.0
290
     0
  0
SCALE
  5
5D
102
{ACAD_REACTORS
330
47
102
}
330
47
100
AcDbScale
 70
     0
300
3/32" = 1'-0"
140
0.09375
141
12.0
290
     0
  0
SCALE
  5
5E
102
{ACAD_REACTORS
330
47
102
}
330
47
100
AcDbScale
 70
     0
300
1/8" = 1'-0"
140
0.125
141
12.0
290
     0
  0
SCALE
  5
5F
102
{ACAD_REACTORS
330
47
102
}
330
47
100
AcDbScale
 70
     0
300
3/16" = 1'-0"
140
0.1875
141
12.0
290
     0
  0
SCALE
  5
60
102
{ACAD_REACTORS
330
47
102
}
330
47
100
AcDbScale
 70
     0
300
1/4" = 1'-0"
140
0.25
141
12.0
290
     0
  0
SCALE
  5
61
102
{ACAD_REACTORS
330
47
102
}
330
47
100
AcDbScale
 70
     0
300
3/8" = 1'-0"
140
0.375
141
12.0
290
     0
  0
SCALE
  5
62
102
{ACAD_REACTORS
330
47
102
}
330
47
100
AcDbScale
 70
     0
300
1/2" = 1'-0"
140
0.5
141
12.0
290
     0
  0
SCALE
  5
63
102
{ACAD_REACTORS
330
47
102
}
330
47
100
AcDbScale
 70
     0
300
3/4" = 1'-0"
140
0.75
141
12.0
290
     0
  0
SCALE
  5
64
102
{ACAD_REACTORS
330
47
102
}
330
47
100
AcDbScale
 70
     0
300
1" = 1'-0"
140
1.0
141
12.0
290
     0
  0
SCALE
  5
65
102
{ACAD_REACTORS
330
47
102
}
330
47
100
AcDbScale
 70
     0
300
1-1/2" = 1'-0"
140
1.5
141
12.0
290
     0
  0
SCALE
  5
66
102
{ACAD_REACTORS
330
47
102
}
330
47
100
AcDbScale
 70
     0
300
3" = 1'-0"
140
3.0
141
12.0
290
     0
  0
SCALE
  5
67
102
{ACAD_REACTORS
330
47
102
}
330
47
100
AcDbScale
 70
     0
300
6" = 1'-0"
140
6.0
141
12.0
290
     0
  0
SCALE
  5
68
102
{ACAD_REACTORS
330
47
102
}
330
47
100
AcDbScale
 70
     0
300
1'-0" = 1'-0"
140
12.0
141
12.0
290
     0
  0
ENDSEC
  0
EOF
