  0
SECTION
  2
HEADER
  9
$ACADVER
  1
AC1015
  9
$ACADMAINTVER
 70
     6
  9
$DWGCODEPAGE
  3
ANSI_1252
  9
$INSBASE
 10
0.0
 20
0.0
 30
0.0
  9
$EXTMIN
 10
0.0
 20
0.0
 30
0.0
  9
$EXTMAX
 10
297.0
 20
210.0
 30
0.0
  9
$LIMMIN
 10
0.0
 20
0.0
  9
$LIMMAX
 10
297.0
 20
210.0
  9
$ORTHOMODE
 70
     0
  9
$REGENMODE
 70
     1
  9
$FILLMODE
 70
     1
  9
$QTEXTMODE
 70
     0
  9
$MIRRTEXT
 70
     1
  9
$LTSCALE
 40
1.0
  9
$ATTMODE
 70
     1
  9
$TEXTSIZE
 40
3.8805555556
  9
$TRACEWID
 40
1.0
  9
$TEXTSTYLE
  7
Standard
  9
$CLAYER
  8
0
  9
$CELTYPE
  6
ByLayer
  9
$CECOLOR
 62
   256
  9
$CELTSCALE
 40
1.0
  9
$DISPSILH
 70
     0
  9
$DIMSCALE
 40
1.0
  9
$DIMASZ
 40
3.302
  9
$DIMEXO
 40
1.0
  9
$DIMDLI
 40
3.75
  9
$DIMRND
 40
0.0
  9
$DIMDLE
 40
0.0
  9
$DIMEXE
 40
1.0
  9
$DIMTP
 40
0.0
  9
$DIMTM
 40
0.0
  9
$DIMTXT
 40
3.8805555556
  9
$DIMCEN
 40
2.5
  9
$DIMTSZ
 40
0.0
  9
$DIMTOL
 70
     0
  9
$DIMLIM
 70
     0
  9
$DIMTIH
 70
     1
  9
$DIMTOH
 70
     1
  9
$DIMSE1
 70
     0
  9
$DIMSE2
 70
     0
  9
$DIMTAD
 70
     1
  9
$DIMZIN
 70
     0
  9
$DIMBLK
  1

  9
$DIMASO
 70
     1
  9
$DIMSHO
 70
     1
  9
$DIMPOST
  1

  9
$DIMAPOST
  1

  9
$DIMALT
 70
     0
  9
$DIMALTD
 70
     3
  9
$DIMALTF
 40
0.0393700787
  9
$DIMLFAC
 40
1.0
  9
$DIMTOFL
 70
     1
  9
$DIMTVP
 40
0.0
  9
$DIMTIX
 70
     0
  9
$DIMSOXD
 70
     0
  9
$DIMSAH
 70
     0
  9
$DIMBLK1
  1

  9
$DIMBLK2
  1

  9
$DIMSTYLE
  2
ISO-25
  9
$DIMCLRD
 70
     0
  9
$DIMCLRE
 70
     0
  9
$DIMCLRT
 70
     0
  9
$DIMTFAC
 40
1.0
  9
$DIMGAP
 40
1.524
  9
$DIMJUST
 70
     0
  9
$DIMSD1
 70
     0
  9
$DIMSD2
 70
     0
  9
$DIMTOLJ
 70
     0
  9
$DIMTZIN
 70
     0
  9
$DIMALTZ
 70
     0
  9
$DIMALTTZ
 70
     0
  9
$DIMUPT
 70
     0
  9
$DIMDEC
 70
     2
  9
$DIMTDEC
 70
     2
  9
$DIMALTU
 70
     2
  9
$DIMALTTD
 70
     3
  9
$DIMTXSTY
  7
Standard
  9
$DIMAUNIT
 70
     0
  9
$DIMADEC
 70
     2
  9
$DIMALTRND
 40
0.0
  9
$DIMAZIN
 70
     0
  9
$DIMDSEP
 70
    44
  9
$DIMATFIT
 70
     3
  9
$DIMFRAC
 70
     0
  9
$DIMLDRBLK
  1

  9
$DIMLUNIT
 70
     2
  9
$DIMLWD
 70
    -2
  9
$DIMLWE
 70
    -2
  9
$DIMTMOVE
 70
     0
  9
$LUNITS
 70
     2
  9
$LUPREC
 70
     2
  9
$SKETCHINC
 40
1.0
  9
$FILLETRAD
 40
10.0
  9
$AUNITS
 70
     1
  9
$AUPREC
 70
     2
  9
$MENU
  1
.
  9
$ELEVATION
 40
0.0
  9
$PELEVATION
 40
0.0
  9
$THICKNESS
 40
0.0
  9
$LIMCHECK
 70
     0
  9
$CHAMFERA
 40
0.0
  9
$CHAMFERB
 40
0.0
  9
$CHAMFERC
 40
0.0
  9
$CHAMFERD
 40
0.0
  9
$SKPOLY
 70
     0
  9
$TDCREATE
 40
2458631.632872616
  9
$TDUCREATE
 40
2458631.403705949
  9
$TDUPDATE
 40
2458631.632873773
  9
$TDUUPDATE
 40
2458631.403707107
  9
$TDINDWG
 40
0.0000000116
  9
$TDUSRTIMER
 40
0.0000000116
  9
$USRTIMER
 70
     1
  9
$ANGBASE
 50
0.0
  9
$ANGDIR
 70
     0
  9
$PDMODE
 70
     0
  9
$PDSIZE
 40
-1.0
  9
$PLINEWID
 40
0.0
  9
$SPLFRAME
 70
     0
  9
$SPLINETYPE
 70
     6
  9
$SPLINESEGS
 70
     8
  9
$HANDSEED
  5
16B
  9
$SURFTAB1
 70
     6
  9
$SURFTAB2
 70
     6
  9
$SURFTYPE
 70
     6
  9
$SURFU
 70
     6
  9
$SURFV
 70
     6
  9
$UCSBASE
  2

  9
$UCSNAME
  2

  9
$UCSORG
 10
0.0
 20
0.0
 30
0.0
  9
$UCSXDIR
 10
1.0
 20
0.0
 30
0.0
  9
$UCSYDIR
 10
0.0
 20
1.0
 30
0.0
  9
$UCSORTHOREF
  2

  9
$UCSORTHOVIEW
 70
     0
  9
$UCSORGTOP
 10
0.0
 20
0.0
 30
0.0
  9
$UCSORGBOTTOM
 10
0.0
 20
0.0
 30
0.0
  9
$UCSORGLEFT
 10
0.0
 20
0.0
 30
0.0
  9
$UCSORGRIGHT
 10
0.0
 20
0.0
 30
0.0
  9
$UCSORGFRONT
 10
0.0
 20
0.0
 30
0.0
  9
$UCSORGBACK
 10
0.0
 20
0.0
 30
0.0
  9
$PUCSBASE
  2

  9
$PUCSNAME
  2

  9
$PUCSORG
 10
0.0
 20
0.0
 30
0.0
  9
$PUCSXDIR
 10
1.0
 20
0.0
 30
0.0
  9
$PUCSYDIR
 10
0.0
 20
1.0
 30
0.0
  9
$PUCSORTHOREF
  2

  9
$PUCSORTHOVIEW
 70
     0
  9
$PUCSORGTOP
 10
0.0
 20
0.0
 30
0.0
  9
$PUCSORGBOTTOM
 10
0.0
 20
0.0
 30
0.0
  9
$PUCSORGLEFT
 10
0.0
 20
0.0
 30
0.0
  9
$PUCSORGRIGHT
 10
0.0
 20
0.0
 30
0.0
  9
$PUCSORGFRONT
 10
0.0
 20
0.0
 30
0.0
  9
$PUCSORGBACK
 10
0.0
 20
0.0
 30
0.0
  9
$USERI1
 70
     0
  9
$USERI2
 70
     0
  9
$USERI3
 70
     0
  9
$USERI4
 70
     0
  9
$USERI5
 70
     0
  9
$USERR1
 40
0.0
  9
$USERR2
 40
0.0
  9
$USERR3
 40
0.0
  9
$USERR4
 40
0.0
  9
$USERR5
 40
0.0
  9
$WORLDVIEW
 70
     1
  9
$SHADEDGE
 70
     3
  9
$SHADEDIF
 70
    70
  9
$TILEMODE
 70
     1
  9
$MAXACTVP
 70
    64
  9
$PINSBASE
 10
0.0
 20
0.0
 30
0.0
  9
$PLIMCHECK
 70
     0
  9
$PEXTMIN
 10
1.0000000000E+20
 20
1.0000000000E+20
 30
1.0000000000E+20
  9
$PEXTMAX
 10
-1.0000000000E+20
 20
-1.0000000000E+20
 30
-1.0000000000E+20
  9
$PLIMMIN
 10
0.0
 20
0.0
  9
$PLIMMAX
 10
420.0
 20
297.0
  9
$UNITMODE
 70
     0
  9
$VISRETAIN
 70
     1
  9
$PLINEGEN
 70
     0
  9
$PSLTSCALE
 70
     1
  9
$TREEDEPTH
 70
  3020
  9
$CMLSTYLE
  2
Standard
  9
$CMLJUST
 70
     0
  9
$CMLSCALE
 40
20.0
  9
$PROXYGRAPHICS
 70
     1
  9
$MEASUREMENT
 70
     1
  9
$CELWEIGHT
370
    -1
  9
$ENDCAPS
280
     0
  9
$JOINSTYLE
280
     0
  9
$LWDISPLAY
290
     1
  9
$INSUNITS
 70
     4
  9
$HYPERLINKBASE
  1

  9
$STYLESHEET
  1

  9
$XEDIT
290
     1
  9
$CEPSNTYPE
380
     0
  9
$PSTYLEMODE
290
     1
  9
$FINGERPRINTGUID
  2
{0D4027B9-11CF-495C-B14F-801F2CCCE4F6}
  9
$VERSIONGUID
  2
{FAEB1C32-E019-11D5-929B-00C0DF256EC4}
  9
$EXTNAMES
290
     1
  9
$PSVPSCALE
 40
0.0
  9
$OLESTARTUP
290
     0
  0
ENDSEC
  0
SECTION
  2
CLASSES
  0
CLASS
  1
ACDBDICTIONARYWDFLT
  2
AcDbDictionaryWithDefault
  3
ObjectDBX Classes
 90
        0
280
     0
281
     0
  0
CLASS
  1
VISUALSTYLE
  2
AcDbVisualStyle
  3
ObjectDBX Classes
 90
     4095
280
     0
281
     0
  0
CLASS
  1
MATERIAL
  2
AcDbMaterial
  3
ObjectDBX Classes
 90
     1153
280
     0
281
     0
  0
CLASS
  1
SCALE
  2
AcDbScale
  3
ObjectDBX Classes
 90
     1153
280
     0
281
     0
  0
CLASS
  1
SUN
  2
AcDbSun
  3
SCENEOE
 90
     1153
280
     0
281
     0
  0
CLASS
  1
ACDBPLACEHOLDER
  2
AcDbPlaceHolder
  3
ObjectDBX Classes
 90
        0
280
     0
281
     0
  0
CLASS
  1
LAYOUT
  2
AcDbLayout
  3
ObjectDBX Classes
 90
        0
280
     0
281
     0
  0
ENDSEC
  0
SECTION
  2
TABLES
  0
TABLE
  2
VPORT
  5
8
330
0
100
AcDbSymbolTable
 70
     1
  0
VPORT
  5
29
330
8
100
AcDbSymbolTableRecord
100
AcDbViewportTableRecord
  2
*Active
 70
     0
 10
0.0
 20
0.0
 11
1.0
 21
1.0
 12
148.5
 22
105.0
 13
0.0
 23
0.0
 14
10.0
 24
10.0
 15
10.0
 25
10.0
 16
0.0
 26
0.0
 36
1.0
 17
0.0
 27
0.0
 37
0.0
 40
210.0
 41
1.4142857143
 42
50.0
 43
0.0
 44
0.0
 50
0.0
 51
0.0
 71
     0
 72
  2000
 73
     1
 74
     3
 75
     0
 76
     0
 77
     0
 78
     0
281
     0
 65
     1
110
0.0
120
0.0
130
0.0
111
1.0
121
0.0
131
0.0
112
0.0
122
1.0
132
0.0
 79
     0
146
0.0
  0
ENDTAB
  0
TABLE
  2
LTYPE
  5
5
330
0
100
AcDbSymbolTable
 70
     6
  0
LTYPE
  5
14
330
5
100
AcDbSymbolTableRecord
100
AcDbLinetypeTableRecord
  2
ByBlock
 70
     0
  3

 72
    65
 73
     0
 40
0.0
  0
LTYPE
  5
15
330
5
100
AcDbSymbolTableRecord
100
AcDbLinetypeTableRecord
  2
ByLayer
 70
     0
  3

 72
    65
 73
     0
 40
0.0
  0
LTYPE
  5
16
330
5
100
AcDbSymbolTableRecord
100
AcDbLinetypeTableRecord
  2
Continuous
 70
     0
  3
Solid line
 72
    65
 73
     0
 40
0.0
  0
LTYPE
  5
6A
330
5
100
AcDbSymbolTableRecord
100
AcDbLinetypeTableRecord
  2
HIDDEN
 70
     0
  3
Hidden __ __ __ __ __ __ __ __ __ __ __ __ __ __
 72
    65
 73
     2
 40
1.905
 49
1.27
 74
     0
 49
-0.635
 74
     0
  0
LTYPE
  5
6B
330
5
100
AcDbSymbolTableRecord
100
AcDbLinetypeTableRecord
  2
PHANTOM
 70
     0
  3
Phantom ______  __  __  ______  __  __  ______
 72
    65
 73
     6
 40
12.7
 49
6.35
 74
     0
 49
-1.27
 74
     0
 49
1.27
 74
     0
 49
-1.27
 74
     0
 49
1.27
 74
     0
 49
-1.27
 74
     0
  0
LTYPE
  5
6C
330
5
100
AcDbSymbolTableRecord
100
AcDbLinetypeTableRecord
  2
CENTER
 70
     0
  3
Center ____ _ ____ _ ____ _ ____ _ ____ _ ____
 72
    65
 73
     4
 40
10.16
 49
6.35
 74
     0
 49
-1.27
 74
     0
 49
1.27
 74
     0
 49
-1.27
 74
     0
  0
LTYPE
  5
6D
330
5
100
AcDbSymbolTableRecord
100
AcDbLinetypeTableRecord
  2
CENTERX2
 70
     0
  3
Center (2x) ________  __  ________  __  _____
 72
    65
 73
     4
 40
20.32
 49
12.7
 74
     0
 49
-2.54
 74
     0
 49
2.54
 74
     0
 49
-2.54
 74
     0
  0
LTYPE
  5
6E
330
5
100
AcDbSymbolTableRecord
100
AcDbLinetypeTableRecord
  2
DOT2
 70
     0
  3
Dot (.5x) ........................................
 72
    65
 73
     2
 40
0.635
 49
0.0
 74
     0
 49
-0.635
 74
     0
  0
ENDTAB
  0
TABLE
  2
LAYER
  5
2
330
0
100
AcDbSymbolTable
 70
     8
  0
LAYER
  5
10
330
2
100
AcDbSymbolTableRecord
100
AcDbLayerTableRecord
  2
0
 70
     0
 62
     7
  6
Continuous
370
    -3
390
F
  0
LAYER
  5
6F
330
2
100
AcDbSymbolTableRecord
100
AcDbLayerTableRecord
  2
FORMAT
 70
     0
 62
     7
  6
Continuous
370
    -3
390
F
  0
LAYER
  5
70
330
2
100
AcDbSymbolTableRecord
100
AcDbLayerTableRecord
  2
SLD-0
 70
     0
 62
     2
  6
Continuous
370
    -3
390
F
  0
LAYER
  5
71
330
2
100
AcDbSymbolTableRecord
100
AcDbLayerTableRecord
  2
DIM
 70
     0
 62
   179
  6
Continuous
370
    -3
390
F
  0
LAYER
  5
72
330
2
100
AcDbSymbolTableRecord
100
AcDbLayerTableRecord
  2
SLD-DEFPOINTS
 70
     0
 62
   179
  6
Continuous
370
    -3
390
F
  0
LAYER
  5
73
330
2
100
AcDbSymbolTableRecord
100
AcDbLayerTableRecord
  2
HAT
 70
     0
 62
   135
  6
Continuous
370
    -3
390
F
  0
LAYER
  5
74
330
2
100
AcDbSymbolTableRecord
100
AcDbLayerTableRecord
  2
JOB
 70
     0
 62
   201
  6
Continuous
370
    -3
390
F
  0
LAYER
  5
75
330
2
100
AcDbSymbolTableRecord
100
AcDbLayerTableRecord
  2
INSPECTION_REPORT
 70
     0
 62
   255
  6
Continuous
370
    -3
390
F
  0
ENDTAB
  0
TABLE
  2
STYLE
  5
3
330
0
100
AcDbSymbolTable
 70
     4
  0
STYLE
  5
11
330
3
100
AcDbSymbolTableRecord
100
AcDbTextStyleTableRecord
  2
Standard
 70
     0
 40
0.0
 41
1.0
 50
0.0
 71
     0
 42
3.8805555556
  3
txt
  4

  0
STYLE
  5
96
330
3
100
AcDbSymbolTableRecord
100
AcDbTextStyleTableRecord
  2
SLDTEXTSTYLE0
 70
     0
 40
0.0
 41
0.7
 50
0.0
 71
     0
 42
3.8805555556
  3
TXT
  4

  0
STYLE
  5
98
330
3
100
AcDbSymbolTableRecord
100
AcDbTextStyleTableRecord
  2
SLDTEXTSTYLE1
 70
     0
 40
0.0
 41
0.75
 50
0.0
 71
     0
 42
3.8805555556
  3
TXT
  4

  0
STYLE
  5
AB
330
3
100
AcDbSymbolTableRecord
100
AcDbTextStyleTableRecord
  2
SLDTEXTSTYLE2
 70
     0
 40
0.0
 41
0.6875
 50
0.0
 71
     0
 42
3.8805555556
  3
TXT
  4

  0
ENDTAB
  0
TABLE
  2
VIEW
  5
6
330
0
100
AcDbSymbolTable
 70
     0
  0
ENDTAB
  0
TABLE
  2
UCS
  5
7
330
0
100
AcDbSymbolTable
 70
     0
  0
ENDTAB
  0
TABLE
  2
APPID
  5
9
330
0
100
AcDbSymbolTable
 70
     1
  0
APPID
  5
12
330
9
100
AcDbSymbolTableRecord
100
AcDbRegAppTableRecord
  2
ACAD
 70
     0
  0
ENDTAB
  0
TABLE
  2
DIMSTYLE
  5
A
330
0
100
AcDbSymbolTable
 70
     4
100
AcDbDimStyleTable
  0
DIMSTYLE
105
27
330
A
100
AcDbSymbolTableRecord
100
AcDbDimStyleTableRecord
  2
ISO-25
 70
     0
 41
2.5
 42
0.625
 43
3.75
 44
1.25
 73
     0
 74
     0
 77
     1
 78
     8
140
2.5
141
2.5
143
0.0393700787
147
0.625
171
     3
172
     1
178
     0
271
     2
272
     2
274
     3
278
    44
283
     0
284
     8
340
11
  0
DIMSTYLE
105
125
102
{ACAD_REACTORS
330
124
330
132
330
15D
102
}
330
A
100
AcDbSymbolTableRecord
100
AcDbDimStyleTableRecord
  2
SLDDIMSTYLE0
 70
     0
 41
3.302
 44
0.0
 45
0.000000001
 73
     0
 74
     0
 77
     1
 78
    12
 79
     3
140
2.9104166667
147
0.7276041667
172
     1
173
     1
178
     0
271
     2
272
     2
276
     2
284
    12
289
     0
340
96
  0
DIMSTYLE
105
13D
102
{ACAD_REACTORS
330
13C
330
152
102
}
330
A
100
AcDbSymbolTableRecord
100
AcDbDimStyleTableRecord
  2
SLDDIMSTYLE1
 70
     0
 41
3.302
 44
0.0
 45
0.000000001
 73
     0
 74
     0
 77
     1
 78
    12
 79
     3
140
2.9104166667
147
0.7276041667
173
     1
178
     0
271
     2
272
     2
276
     2
284
    12
340
96
  0
DIMSTYLE
105
148
102
{ACAD_REACTORS
330
147
102
}
330
A
100
AcDbSymbolTableRecord
100
AcDbDimStyleTableRecord
  2
SLDDIMSTYLE2
 70
     0
 41
3.302
 44
0.0
 45
0.000000001
 73
     0
 74
     0
 77
     1
 78
     4
 79
     1
140
2.9104166667
147
0.7276041667
173
     1
178
     0
271
     2
272
     2
276
     2
284
    12
340
96
  0
ENDTAB
  0
TABLE
  2
BLOCK_RECORD
  5
1
330
0
100
AcDbSymbolTable
 70
     7
  0
BLOCK_RECORD
  5
1F
330
1
100
AcDbSymbolTableRecord
100
AcDbBlockTableRecord
  2
*Model_Space
340
22
  0
BLOCK_RECORD
  5
1B
330
1
100
AcDbSymbolTableRecord
100
AcDbBlockTableRecord
  2
*Paper_Space
340
1E
  0
BLOCK_RECORD
  5
23
330
1
100
AcDbSymbolTableRecord
100
AcDbBlockTableRecord
  2
*Paper_Space0
340
26
  0
BLOCK_RECORD
  5
126
330
1
100
AcDbSymbolTableRecord
100
AcDbBlockTableRecord
  2
_D
340
0
  0
BLOCK_RECORD
  5
133
330
1
100
AcDbSymbolTableRecord
100
AcDbBlockTableRecord
  2
_D_1
340
0
  0
BLOCK_RECORD
  5
13E
330
1
100
AcDbSymbolTableRecord
100
AcDbBlockTableRecord
  2
_D_2
340
0
  0
BLOCK_RECORD
  5
149
330
1
100
AcDbSymbolTableRecord
100
AcDbBlockTableRecord
  2
_D_3
340
0
  0
BLOCK_RECORD
  5
153
330
1
100
AcDbSymbolTableRecord
100
AcDbBlockTableRecord
  2
_D_4
340
0
  0
BLOCK_RECORD
  5
15E
330
1
100
AcDbSymbolTableRecord
100
AcDbBlockTableRecord
  2
_D_5
340
0
  0
ENDTAB
  0
ENDSEC
  0
SECTION
  2
BLOCKS
  0
BLOCK
  5
20
330
1F
100
AcDbEntity
  8
0
100
AcDbBlockBegin
  2
*Model_Space
 70
     0
 10
0.0
 20
0.0
 30
0.0
  3
*Model_Space
  1
*Model_Space
  0
ENDBLK
  5
21
330
1F
100
AcDbEntity
  8
0
100
AcDbBlockEnd
  0
BLOCK
  5
1C
330
1B
100
AcDbEntity
 67
     1
  8
0
100
AcDbBlockBegin
  2
*Paper_Space
 70
     0
 10
0.0
 20
0.0
 30
0.0
  3
*Paper_Space
  1
*Paper_Space
  0
ENDBLK
  5
1D
330
1B
100
AcDbEntity
 67
     1
  8
0
100
AcDbBlockEnd
  0
BLOCK
  5
24
330
23
100
AcDbEntity
  8
0
100
AcDbBlockBegin
  2
*Paper_Space0
 70
     0
 10
0.0
 20
0.0
 30
0.0
  3
*Paper_Space0
  1
*Paper_Space0
  0
ENDBLK
  5
25
330
23
100
AcDbEntity
  8
0
100
AcDbBlockEnd
  0
BLOCK
  5
127
330
126
100
AcDbEntity
  8
0
100
AcDbBlockBegin
  2
_D
 70
     0
 10
0.0
 20
0.0
 30
0.0
  3
_D
  1
_D
  0
SOLID
  5
129
330
126
100
AcDbEntity
  8
DIM
100
AcDbTrace
 10
221.8891132586
 20
125.2849876117
 30
0.0
 11
222.3971132586
 21
128.5869876117
 31
0.0
 12
221.3811132586
 22
128.5869876117
 32
0.0
 13
221.3811132586
 23
128.5869876117
 33
0.0
  0
SOLID
  5
12A
330
126
100
AcDbEntity
  8
DIM
100
AcDbTrace
 10
221.8891132586
 20
109.2849876117
 30
0.0
 11
221.3811132586
 21
105.9829876117
 31
0.0
 12
222.3971132586
 22
105.9829876117
 32
0.0
 13
222.3971132586
 23
105.9829876117
 33
0.0
  0
LINE
  5
12B
330
126
100
AcDbEntity
  8
DIM
100
AcDbLine
 10
204.2424942281
 20
125.2849876117
 30
0.0
 11
222.8891132586
 21
125.2849876117
 31
0.0
  0
LINE
  5
12C
330
126
100
AcDbEntity
  8
DIM
100
AcDbLine
 10
204.2424942281
 20
109.2849876117
 30
0.0
 11
222.8891132586
 21
109.2849876117
 31
0.0
  0
LINE
  5
12D
330
126
100
AcDbEntity
  8
DIM
100
AcDbLine
 10
221.8891132586
 20
125.2849876117
 30
0.0
 11
221.8891132586
 21
131.6349876117
 31
0.0
  0
LINE
  5
12E
330
126
100
AcDbEntity
  8
DIM
100
AcDbLine
 10
221.8891132586
 20
125.2849876117
 30
0.0
 11
221.8891132586
 21
109.2849876117
 31
0.0
  0
LINE
  5
12F
330
126
100
AcDbEntity
  8
DIM
100
AcDbLine
 10
221.8891132586
 20
109.2849876117
 30
0.0
 11
221.8891132586
 21
102.9349876117
 31
0.0
  0
MTEXT
  5
130
330
126
100
AcDbEntity
  8
DIM
100
AcDbMText
 10
218.1373887915
 20
112.9693472811
 30
0.0
 40
2.9104166667
 41
0.0
 71
     1
 72
     1
  1
%%c
  7
SLDTEXTSTYLE0
 11
-7.044195017643634E-15
 21
1.0
 31
0.0
 73
     1
 44
1.0
  0
MTEXT
  5
131
330
126
100
AcDbEntity
  8
DIM
100
AcDbMText
 10
218.1373887915
 20
117.4699831807
 30
0.0
 40
2.9104166667
 41
0.0
 71
     1
 72
     1
  1
16
  7
SLDTEXTSTYLE0
 11
-7.044195017643634E-15
 21
1.0
 31
0.0
 73
     1
 44
1.0
  0
ENDBLK
  5
128
330
126
100
AcDbEntity
  8
0
100
AcDbBlockEnd
  0
BLOCK
  5
134
330
133
100
AcDbEntity
  8
0
100
AcDbBlockBegin
  2
_D_1
 70
     0
 10
0.0
 20
0.0
 30
0.0
  3
_D_1
  1
_D_1
  0
SOLID
  5
136
330
133
100
AcDbEntity
  8
DIM
100
AcDbTrace
 10
204.7147374141
 20
80.7367311945
 30
0.0
 11
201.4127374141
 21
81.2447311945
 31
0.0
 12
201.4127374141
 22
80.2287311945
 32
0.0
 13
201.4127374141
 23
80.2287311945
 33
0.0
  0
SOLID
  5
137
330
133
100
AcDbEntity
  8
DIM
100
AcDbTrace
 10
187.7147374125
 20
80.7367311945
 30
0.0
 11
191.0167374125
 21
80.2287311945
 31
0.0
 12
191.0167374125
 22
81.2447311945
 32
0.0
 13
191.0167374125
 23
81.2447311945
 33
0.0
  0
LINE
  5
138
330
133
100
AcDbEntity
  8
DIM
100
AcDbLine
 10
204.7147374141
 20
109.1349876117
 30
0.0
 11
204.7147374141
 21
79.7367311945
 31
0.0
  0
LINE
  5
139
330
133
100
AcDbEntity
  8
DIM
100
AcDbLine
 10
187.7147374125
 20
100.2849876117
 30
0.0
 11
187.7147374125
 21
79.7367311945
 31
0.0
  0
LINE
  5
13A
330
133
100
AcDbEntity
  8
DIM
100
AcDbLine
 10
204.7147374141
 20
80.7367311945
 30
0.0
 11
187.7147374125
 21
80.7367311945
 31
0.0
  0
MTEXT
  5
13B
330
133
100
AcDbEntity
  8
DIM
100
AcDbMText
 10
193.7075480536
 20
84.4884556616
 30
0.0
 40
2.9104166667
 41
0.0
 71
     1
 72
     1
  1
17
  7
SLDTEXTSTYLE0
 73
     1
 44
1.0
  0
ENDBLK
  5
135
330
133
100
AcDbEntity
  8
0
100
AcDbBlockEnd
  0
BLOCK
  5
13F
330
13E
100
AcDbEntity
  8
0
100
AcDbBlockBegin
  2
_D_2
 70
     0
 10
0.0
 20
0.0
 30
0.0
  3
_D_2
  1
_D_2
  0
SOLID
  5
141
330
13E
100
AcDbEntity
  8
DIM
100
AcDbTrace
 10
187.7147374125
 20
80.7367311945
 30
0.0
 11
184.4127374125
 21
81.2447311945
 31
0.0
 12
184.4127374125
 22
80.2287311945
 32
0.0
 13
184.4127374125
 23
80.2287311945
 33
0.0
  0
SOLID
  5
142
330
13E
100
AcDbEntity
  8
DIM
100
AcDbTrace
 10
132.7147374141
 20
80.7367311945
 30
0.0
 11
136.0167374141
 21
80.2287311945
 31
0.0
 12
136.0167374141
 22
81.2447311945
 32
0.0
 13
136.0167374141
 23
81.2447311945
 33
0.0
  0
LINE
  5
143
330
13E
100
AcDbEntity
  8
DIM
100
AcDbLine
 10
187.7147374125
 20
100.2849876117
 30
0.0
 11
187.7147374125
 21
79.7367311945
 31
0.0
  0
LINE
  5
144
330
13E
100
AcDbEntity
  8
DIM
100
AcDbLine
 10
132.7147374141
 20
94.0599876117
 30
0.0
 11
132.7147374141
 21
79.7367311945
 31
0.0
  0
LINE
  5
145
330
13E
100
AcDbEntity
  8
DIM
100
AcDbLine
 10
187.7147374125
 20
80.7367311945
 30
0.0
 11
132.7147374141
 21
80.7367311945
 31
0.0
  0
MTEXT
  5
146
330
13E
100
AcDbEntity
  8
DIM
100
AcDbMText
 10
165.9878981185
 20
84.4884556616
 30
0.0
 40
2.9104166667
 41
0.0
 71
     1
 72
     1
  1
55
  7
SLDTEXTSTYLE0
 73
     1
 44
1.0
  0
ENDBLK
  5
140
330
13E
100
AcDbEntity
  8
0
100
AcDbBlockEnd
  0
BLOCK
  5
14A
330
149
100
AcDbEntity
  8
0
100
AcDbBlockBegin
  2
_D_3
 70
     0
 10
0.0
 20
0.0
 30
0.0
  3
_D_3
  1
_D_3
  0
SOLID
  5
14C
330
149
100
AcDbEntity
  8
DIM
100
AcDbTrace
 10
215.7147374141
 20
71.229133552
 30
0.0
 11
212.4127374141
 21
71.737133552
 31
0.0
 12
212.4127374141
 22
70.721133552
 32
0.0
 13
212.4127374141
 23
70.721133552
 33
0.0
  0
SOLID
  5
14D
330
149
100
AcDbEntity
  8
DIM
100
AcDbTrace
 10
67.3147374143
 20
71.229133552
 30
0.0
 11
70.6167374143
 21
70.721133552
 31
0.0
 12
70.6167374143
 22
71.737133552
 32
0.0
 13
70.6167374143
 23
71.737133552
 33
0.0
  0
LINE
  5
14E
330
149
100
AcDbEntity
  8
DIM
100
AcDbLine
 10
215.7147374141
 20
107.0349876117
 30
0.0
 11
215.7147374141
 21
70.229133552
 31
0.0
  0
LINE
  5
14F
330
149
100
AcDbEntity
  8
DIM
100
AcDbLine
 10
67.3147374143
 20
104.4623208936
 30
0.0
 11
67.3147374143
 21
70.229133552
 31
0.0
  0
LINE
  5
150
330
149
100
AcDbEntity
  8
DIM
100
AcDbLine
 10
215.7147374141
 20
71.229133552
 30
0.0
 11
67.3147374143
 21
71.229133552
 31
0.0
  0
MTEXT
  5
151
330
149
100
AcDbEntity
  8
DIM
100
AcDbMText
 10
155.1939607117
 20
74.9808580191
 30
0.0
 40
2.9104166667
 41
0.0
 71
     1
 72
     1
  1
148.40
  7
SLDTEXTSTYLE0
 73
     1
 44
1.0
  0
ENDBLK
  5
14B
330
149
100
AcDbEntity
  8
0
100
AcDbBlockEnd
  0
BLOCK
  5
154
330
153
100
AcDbEntity
  8
0
100
AcDbBlockBegin
  2
_D_4
 70
     0
 10
0.0
 20
0.0
 30
0.0
  3
_D_4
  1
_D_4
  0
SOLID
  5
156
330
153
100
AcDbEntity
  8
DIM
100
AcDbTrace
 10
62.8964958784
 20
85.7849876117
 30
0.0
 11
63.4044958784
 21
89.0869876117
 31
0.0
 12
62.3884958784
 22
89.0869876117
 32
0.0
 13
62.3884958784
 23
89.0869876117
 33
0.0
  0
SOLID
  5
157
330
153
100
AcDbEntity
  8
DIM
100
AcDbTrace
 10
62.8964958784
 20
148.7849876117
 30
0.0
 11
62.3884958784
 21
145.4829876117
 31
0.0
 12
63.4044958784
 22
145.4829876117
 32
0.0
 13
63.4044958784
 23
145.4829876117
 33
0.0
  0
LINE
  5
158
330
153
100
AcDbEntity
  8
DIM
100
AcDbLine
 10
134.8804228391
 20
85.7849876117
 30
0.0
 11
61.8964958784
 21
85.7849876117
 31
0.0
  0
LINE
  5
159
330
153
100
AcDbEntity
  8
DIM
100
AcDbLine
 10
134.8804228391
 20
148.7849876117
 30
0.0
 11
61.8964958784
 21
148.7849876117
 31
0.0
  0
LINE
  5
15A
330
153
100
AcDbEntity
  8
DIM
100
AcDbLine
 10
62.8964958784
 20
85.7849876117
 30
0.0
 11
62.8964958784
 21
148.7849876117
 31
0.0
  0
MTEXT
  5
15B
330
153
100
AcDbEntity
  8
DIM
100
AcDbMText
 10
59.1447714112
 20
115.0071702674
 30
0.0
 40
2.9104166667
 41
0.0
 71
     1
 72
     1
  1
%%c
  7
SLDTEXTSTYLE0
 11
6.123233995736766E-17
 21
1.0
 31
0.0
 73
     1
 44
1.0
  0
MTEXT
  5
15C
330
153
100
AcDbEntity
  8
DIM
100
AcDbMText
 10
59.1447714112
 20
119.507806167
 30
0.0
 40
2.9104166667
 41
0.0
 71
     1
 72
     1
  1
63
  7
SLDTEXTSTYLE0
 11
6.123233995736766E-17
 21
1.0
 31
0.0
 73
     1
 44
1.0
  0
ENDBLK
  5
155
330
153
100
AcDbEntity
  8
0
100
AcDbBlockEnd
  0
BLOCK
  5
15F
330
15E
100
AcDbEntity
  8
0
100
AcDbBlockBegin
  2
_D_5
 70
     0
 10
0.0
 20
0.0
 30
0.0
  3
_D_5
  1
_D_5
  0
SOLID
  5
161
330
15E
100
AcDbEntity
  8
DIM
100
AcDbTrace
 10
227.5730713333
 20
133.2849876117
 30
0.0
 11
228.0810713333
 21
136.5869876117
 31
0.0
 12
227.0650713333
 22
136.5869876117
 32
0.0
 13
227.0650713333
 23
136.5869876117
 33
0.0
  0
SOLID
  5
162
330
15E
100
AcDbEntity
  8
DIM
100
AcDbTrace
 10
227.5730713333
 20
101.2849876117
 30
0.0
 11
227.0650713333
 21
97.9829876117
 31
0.0
 12
228.0810713333
 22
97.9829876117
 32
0.0
 13
228.0810713333
 23
97.9829876117
 33
0.0
  0
LINE
  5
163
330
15E
100
AcDbEntity
  8
DIM
100
AcDbLine
 10
188.7147374125
 20
133.2849876117
 30
0.0
 11
228.5730713333
 21
133.2849876117
 31
0.0
  0
LINE
  5
164
330
15E
100
AcDbEntity
  8
DIM
100
AcDbLine
 10
188.7147374125
 20
101.2849876117
 30
0.0
 11
228.5730713333
 21
101.2849876117
 31
0.0
  0
LINE
  5
165
330
15E
100
AcDbEntity
  8
DIM
100
AcDbLine
 10
227.5730713333
 20
133.2849876117
 30
0.0
 11
227.5730713333
 21
139.6349876117
 31
0.0
  0
LINE
  5
166
330
15E
100
AcDbEntity
  8
DIM
100
AcDbLine
 10
227.5730713333
 20
133.2849876117
 30
0.0
 11
227.5730713333
 21
101.2849876117
 31
0.0
  0
LINE
  5
167
330
15E
100
AcDbEntity
  8
DIM
100
AcDbLine
 10
227.5730713333
 20
101.2849876117
 30
0.0
 11
227.5730713333
 21
94.9349876117
 31
0.0
  0
MTEXT
  5
168
330
15E
100
AcDbEntity
  8
DIM
100
AcDbMText
 10
223.8213468662
 20
112.9693472811
 30
0.0
 40
2.9104166667
 41
0.0
 71
     1
 72
     1
  1
%%c
  7
SLDTEXTSTYLE0
 11
-7.044195017643634E-15
 21
1.0
 31
0.0
 73
     1
 44
1.0
  0
MTEXT
  5
169
330
15E
100
AcDbEntity
  8
DIM
100
AcDbMText
 10
223.8213468662
 20
117.4699831807
 30
0.0
 40
2.9104166667
 41
0.0
 71
     1
 72
     1
  1
32
  7
SLDTEXTSTYLE0
 11
-7.044195017643634E-15
 21
1.0
 31
0.0
 73
     1
 44
1.0
  0
ENDBLK
  5
160
330
15E
100
AcDbEntity
  8
0
100
AcDbBlockEnd
  0
ENDSEC
  0
SECTION
  2
ENTITIES
  0
LINE
  5
76
330
1F
100
AcDbEntity
  8
DIM
100
AcDbLine
 10
104.704424689
 20
9.7909914569
 30
0.0
 11
104.704424689
 21
4.7909914569
 31
0.0
  0
LINE
  5
77
330
1F
100
AcDbEntity
  8
DIM
100
AcDbLine
 10
254.4696016953
 20
9.7909914569
 30
0.0
 11
254.4696016953
 21
4.7909914569
 31
0.0
  0
LINE
  5
78
330
1F
100
AcDbEntity
  8
DIM
100
AcDbLine
 10
237.4517099316
 20
9.7909914569
 30
0.0
 11
237.4517099316
 21
4.7909914569
 31
0.0
  0
LINE
  5
79
330
1F
100
AcDbEntity
  8
DIM
100
AcDbLine
 10
278.904424689
 20
4.7909914569
 30
0.0
 11
278.904424689
 21
9.7909914569
 31
0.0
  0
LINE
  5
7A
330
1F
100
AcDbEntity
  8
DIM
100
AcDbLine
 10
112.504424689
 20
9.7909914569
 30
0.0
 11
112.504424689
 21
4.7909914569
 31
0.0
  0
LINE
  5
7B
330
1F
100
AcDbEntity
  8
DIM
100
AcDbLine
 10
131.6953771228
 20
9.7909914569
 30
0.0
 11
131.6953771228
 21
4.7909914569
 31
0.0
  0
LINE
  5
7C
330
1F
100
AcDbEntity
  8
DIM
100
AcDbLine
 10
291.904424689
 20
4.7909914569
 30
0.0
 11
291.904424689
 21
77.0409914569
 31
0.0
  0
LINE
  5
7D
330
1F
100
AcDbEntity
  8
DIM
100
AcDbLine
 10
285.8190046947
 20
60.0409914569
 30
0.0
 11
291.904424689
 21
60.0409914569
 31
0.0
  0
LINE
  5
7E
330
1F
100
AcDbEntity
  8
DIM
100
AcDbLine
 10
149.1033508525
 20
9.0409914569
 30
0.0
 11
149.1033508525
 21
4.7909914569
 31
0.0
  0
LINE
  5
7F
330
1F
100
AcDbEntity
  8
DIM
100
AcDbLine
 10
196.7639491604
 20
9.7909914569
 30
0.0
 11
196.7639491604
 21
4.7909914569
 31
0.0
  0
LINE
  5
80
330
1F
100
AcDbEntity
  8
DIM
100
AcDbLine
 10
149.1033508525
 20
9.7909914569
 30
0.0
 11
149.1033508525
 21
9.0409914569
 31
0.0
  0
LINE
  5
81
330
1F
100
AcDbEntity
  8
DIM
100
AcDbLine
 10
286.904424689
 20
17.5409194569
 30
0.0
 11
291.904424689
 21
17.5409194569
 31
0.0
  0
LINE
  5
82
330
1F
100
AcDbEntity
  8
DIM
100
AcDbLine
 10
286.904424689
 20
199.7909914569
 30
0.0
 11
9.904424689
 21
199.7909914569
 31
0.0
  0
LINE
  5
83
330
1F
100
AcDbEntity
  8
DIM
100
AcDbLine
 10
291.904424689
 20
204.7909914569
 30
0.0
 11
4.904424689
 21
204.7909914569
 31
0.0
  0
LINE
  5
84
330
1F
100
AcDbEntity
  8
DIM
100
AcDbLine
 10
9.904424689
 20
199.7909914569
 30
0.0
 11
9.904424689
 21
9.7909914569
 31
0.0
  0
LINE
  5
85
330
1F
100
AcDbEntity
  8
DIM
100
AcDbLine
 10
4.904424689
 20
204.7909914569
 30
0.0
 11
4.904424689
 21
4.7909914569
 31
0.0
  0
LINE
  5
86
330
1F
100
AcDbEntity
  8
DIM
100
AcDbLine
 10
9.904424689
 20
54.7909914569
 30
0.0
 11
4.904424689
 21
54.7909914569
 31
0.0
  0
LINE
  5
87
330
1F
100
AcDbEntity
  8
DIM
100
AcDbLine
 10
4.904424689
 20
104.7909914569
 30
0.0
 11
9.904424689
 21
104.7909914569
 31
0.0
  0
LINE
  5
88
330
1F
100
AcDbEntity
  8
DIM
100
AcDbLine
 10
4.904424689
 20
4.7909914569
 30
0.0
 11
291.904424689
 21
4.7909914569
 31
0.0
  0
LINE
  5
89
330
1F
100
AcDbEntity
  8
DIM
100
AcDbLine
 10
9.904424689
 20
9.7909914569
 30
0.0
 11
291.904424689
 21
9.7909914569
 31
0.0
  0
LINE
  5
8A
330
1F
100
AcDbEntity
  8
DIM
100
AcDbLine
 10
48.404424689
 20
4.7909914569
 30
0.0
 11
48.404424689
 21
9.7909914569
 31
0.0
  0
LINE
  5
8B
330
1F
100
AcDbEntity
  8
DIM
100
AcDbLine
 10
98.404424689
 20
9.7909914569
 30
0.0
 11
98.404424689
 21
4.7909914569
 31
0.0
  0
LINE
  5
8C
330
1F
100
AcDbEntity
  8
DIM
100
AcDbLine
 10
9.904424689
 20
154.7909914569
 30
0.0
 11
4.904424689
 21
154.7909914569
 31
0.0
  0
LINE
  5
8D
330
1F
100
AcDbEntity
  8
DIM
100
AcDbLine
 10
48.404424689
 20
199.7909914569
 30
0.0
 11
48.404424689
 21
204.7909914569
 31
0.0
  0
LINE
  5
8E
330
1F
100
AcDbEntity
  8
DIM
100
AcDbLine
 10
98.404424689
 20
204.7909914569
 30
0.0
 11
98.404424689
 21
199.7909914569
 31
0.0
  0
LINE
  5
8F
330
1F
100
AcDbEntity
  8
DIM
100
AcDbLine
 10
148.404424689
 20
204.7909914569
 30
0.0
 11
148.404424689
 21
199.7909914569
 31
0.0
  0
LINE
  5
90
330
1F
100
AcDbEntity
  8
DIM
100
AcDbLine
 10
286.904424689
 20
9.7909914569
 30
0.0
 11
286.904424689
 21
199.7909914569
 31
0.0
  0
LINE
  5
91
330
1F
100
AcDbEntity
  8
DIM
100
AcDbLine
 10
291.904424689
 20
77.0409914569
 30
0.0
 11
291.904424689
 21
204.7909914569
 31
0.0
  0
LINE
  5
92
330
1F
100
AcDbEntity
  8
DIM
100
AcDbLine
 10
291.904424689
 20
104.7909914569
 30
0.0
 11
286.904424689
 21
104.7909914569
 31
0.0
  0
LINE
  5
93
330
1F
100
AcDbEntity
  8
DIM
100
AcDbLine
 10
198.404424689
 20
204.7909914569
 30
0.0
 11
198.404424689
 21
199.7909914569
 31
0.0
  0
LINE
  5
94
330
1F
100
AcDbEntity
  8
DIM
100
AcDbLine
 10
248.404424689
 20
199.7909914569
 30
0.0
 11
248.404424689
 21
204.7909914569
 31
0.0
  0
LINE
  5
95
330
1F
100
AcDbEntity
  8
DIM
100
AcDbLine
 10
286.904424689
 20
154.7909914569
 30
0.0
 11
291.904424689
 21
154.7909914569
 31
0.0
  0
MTEXT
  5
97
330
1F
100
AcDbEntity
  8
DIM
100
AcDbMText
 10
16.7039741965
 20
192.951218434
 30
0.0
 40
4.2333333333
 41
0.0
 71
     1
 72
     1
  1
BT40 CSMA16 055 AD/6.3G 15000 SL SP.S
  7
SLDTEXTSTYLE0
 73
     1
 44
1.0
  0
MTEXT
  5
99
330
1F
100
AcDbEntity
  8
DIM
 62
     7
100
AcDbMText
 10
197.7327786466
 20
7.8019515263
 30
0.0
 40
1.4986
 41
0.0
 71
     1
 72
     1
  1
WEIGHT:
  7
SLDTEXTSTYLE1
 73
     1
 44
1.0
  0
MTEXT
  5
9A
330
1F
100
AcDbEntity
  8
DIM
 62
     7
100
AcDbMText
 10
288.5970767548
 20
81.9406135082
 30
0.0
 40
1.8520833333
 41
0.0
 71
     1
 72
     1
  1
C
  7
SLDTEXTSTYLE1
 73
     1
 44
1.0
  0
MTEXT
  5
9B
330
1F
100
AcDbEntity
  8
DIM
 62
     7
100
AcDbMText
 10
283.0435806195
 20
14.8539819836
 30
0.0
 40
2.9104166667
 41
0.0
 71
     1
 72
     1
  1
A4
  7
SLDTEXTSTYLE1
 73
     1
 44
1.0
  0
MTEXT
  5
9C
330
1F
100
AcDbEntity
  8
DIM
 62
     7
100
AcDbMText
 10
272.5710953557
 20
203.4590078604
 30
0.0
 40
1.8520833333
 41
0.0
 71
     1
 72
     1
  1
6
  7
SLDTEXTSTYLE1
 73
     1
 44
1.0
  0
MTEXT
  5
9D
330
1F
100
AcDbEntity
  8
DIM
 62
     7
100
AcDbMText
 10
222.5710953557
 20
203.4590078604
 30
0.0
 40
1.8520833333
 41
0.0
 71
     1
 72
     1
  1
5
  7
SLDTEXTSTYLE1
 73
     1
 44
1.0
  0
MTEXT
  5
9E
330
1F
100
AcDbEntity
  8
DIM
 62
     7
100
AcDbMText
 10
288.5710993557
 20
180.9590078604
 30
0.0
 40
1.8520833333
 41
0.0
 71
     1
 72
     1
  1
A
  7
SLDTEXTSTYLE1
 73
     1
 44
1.0
  0
MTEXT
  5
9F
330
1F
100
AcDbEntity
  8
DIM
 62
     7
100
AcDbMText
 10
288.5710993557
 20
130.9590078604
 30
0.0
 40
1.8520833333
 41
0.0
 71
     1
 72
     1
  1
B
  7
SLDTEXTSTYLE1
 73
     1
 44
1.0
  0
MTEXT
  5
A0
330
1F
100
AcDbEntity
  8
DIM
 62
     7
100
AcDbMText
 10
172.5710953557
 20
203.4590078604
 30
0.0
 40
1.8520833333
 41
0.0
 71
     1
 72
     1
  1
4
  7
SLDTEXTSTYLE1
 73
     1
 44
1.0
  0
MTEXT
  5
A1
330
1F
100
AcDbEntity
  8
DIM
 62
     7
100
AcDbMText
 10
22.9877620223
 20
203.4590078604
 30
0.0
 40
1.8520833333
 41
0.0
 71
     1
 72
     1
  1
1
  7
SLDTEXTSTYLE1
 73
     1
 44
1.0
  0
MTEXT
  5
A2
330
1F
100
AcDbEntity
  8
DIM
 62
     7
100
AcDbMText
 10
72.5710953557
 20
203.4590078604
 30
0.0
 40
1.8520833333
 41
0.0
 71
     1
 72
     1
  1
2
  7
SLDTEXTSTYLE1
 73
     1
 44
1.0
  0
MTEXT
  5
A3
330
1F
100
AcDbEntity
  8
DIM
 62
     7
100
AcDbMText
 10
122.5710953557
 20
203.4590078604
 30
0.0
 40
1.8520833333
 41
0.0
 71
     1
 72
     1
  1
3
  7
SLDTEXTSTYLE1
 73
     1
 44
1.0
  0
MTEXT
  5
A4
330
1F
100
AcDbEntity
  8
DIM
 62
     7
100
AcDbMText
 10
6.5710913557
 20
180.9590078604
 30
0.0
 40
1.8520833333
 41
0.0
 71
     1
 72
     1
  1
A
  7
SLDTEXTSTYLE1
 73
     1
 44
1.0
  0
MTEXT
  5
A5
330
1F
100
AcDbEntity
  8
DIM
 62
     7
100
AcDbMText
 10
72.5710953557
 20
8.4590078604
 30
0.0
 40
1.8520833333
 41
0.0
 71
     1
 72
     1
  1
2
  7
SLDTEXTSTYLE1
 73
     1
 44
1.0
  0
MTEXT
  5
A6
330
1F
100
AcDbEntity
  8
DIM
 62
     7
100
AcDbMText
 10
22.9877620223
 20
8.4590078604
 30
0.0
 40
1.8520833333
 41
0.0
 71
     1
 72
     1
  1
1
  7
SLDTEXTSTYLE1
 73
     1
 44
1.0
  0
MTEXT
  5
A7
330
1F
100
AcDbEntity
  8
DIM
 62
     7
100
AcDbMText
 10
6.5710913557
 20
30.9590078604
 30
0.0
 40
1.8520833333
 41
0.0
 71
     1
 72
     1
  1
D
  7
SLDTEXTSTYLE1
 73
     1
 44
1.0
  0
MTEXT
  5
A8
330
1F
100
AcDbEntity
  8
DIM
 62
     7
100
AcDbMText
 10
6.5710913557
 20
80.9590078604
 30
0.0
 40
1.8520833333
 41
0.0
 71
     1
 72
     1
  1
C
  7
SLDTEXTSTYLE1
 73
     1
 44
1.0
  0
MTEXT
  5
A9
330
1F
100
AcDbEntity
  8
DIM
 62
     7
100
AcDbMText
 10
6.5710913557
 20
130.9590078604
 30
0.0
 40
1.8520833333
 41
0.0
 71
     1
 72
     1
  1
B
  7
SLDTEXTSTYLE1
 73
     1
 44
1.0
  0
MTEXT
  5
AA
330
1F
100
AcDbEntity
  8
DIM
 62
     7
100
AcDbMText
 10
288.5970767548
 20
81.9406135082
 30
0.0
 40
1.8520833333
 41
0.0
 71
     1
 72
     1
  1
C
  7
SLDTEXTSTYLE1
 73
     1
 44
1.0
  0
MTEXT
  5
AC
330
1F
100
AcDbEntity
  8
DIM
 62
     7
100
AcDbMText
 10
256.5253658125
 20
7.6910787314
 30
0.0
 40
1.5
 41
0.0
 71
     1
 72
     1
  1
SHEET 1 OF 1
  7
SLDTEXTSTYLE2
 73
     1
 44
1.0
  0
MTEXT
  5
AD
330
1F
100
AcDbEntity
  8
DIM
 62
     7
100
AcDbMText
 10
150.3717803834
 20
7.8533674836
 30
0.0
 40
1.5
 41
0.0
 71
     1
 72
     1
  1
MATERIAL:
  7
SLDTEXTSTYLE1
 73
     1
 44
1.0
  0
MTEXT
  5
AE
330
1F
100
AcDbEntity
  8
DIM
 62
     7
100
AcDbMText
 10
272.5710953557
 20
203.4590078604
 30
0.0
 40
1.8520833333
 41
0.0
 71
     1
 72
     1
  1
6
  7
SLDTEXTSTYLE1
 73
     1
 44
1.0
  0
MTEXT
  5
AF
330
1F
100
AcDbEntity
  8
DIM
 62
     7
100
AcDbMText
 10
222.5710953557
 20
203.4590078604
 30
0.0
 40
1.8520833333
 41
0.0
 71
     1
 72
     1
  1
5
  7
SLDTEXTSTYLE1
 73
     1
 44
1.0
  0
MTEXT
  5
B0
330
1F
100
AcDbEntity
  8
DIM
 62
     7
100
AcDbMText
 10
288.5710993557
 20
180.9590078604
 30
0.0
 40
1.8520833333
 41
0.0
 71
     1
 72
     1
  1
A
  7
SLDTEXTSTYLE1
 73
     1
 44
1.0
  0
MTEXT
  5
B1
330
1F
100
AcDbEntity
  8
DIM
 62
     7
100
AcDbMText
 10
288.5710993557
 20
130.9590078604
 30
0.0
 40
1.8520833333
 41
0.0
 71
     1
 72
     1
  1
B
  7
SLDTEXTSTYLE1
 73
     1
 44
1.0
  0
MTEXT
  5
B2
330
1F
100
AcDbEntity
  8
DIM
 62
     7
100
AcDbMText
 10
172.5710953557
 20
203.4590078604
 30
0.0
 40
1.8520833333
 41
0.0
 71
     1
 72
     1
  1
4
  7
SLDTEXTSTYLE1
 73
     1
 44
1.0
  0
MTEXT
  5
B3
330
1F
100
AcDbEntity
  8
DIM
 62
     7
100
AcDbMText
 10
22.9877620223
 20
203.4590078604
 30
0.0
 40
1.8520833333
 41
0.0
 71
     1
 72
     1
  1
1
  7
SLDTEXTSTYLE1
 73
     1
 44
1.0
  0
MTEXT
  5
B4
330
1F
100
AcDbEntity
  8
DIM
 62
     7
100
AcDbMText
 10
72.5710953557
 20
203.4590078604
 30
0.0
 40
1.8520833333
 41
0.0
 71
     1
 72
     1
  1
2
  7
SLDTEXTSTYLE1
 73
     1
 44
1.0
  0
MTEXT
  5
B5
330
1F
100
AcDbEntity
  8
DIM
 62
     7
100
AcDbMText
 10
122.5710953557
 20
203.4590078604
 30
0.0
 40
1.8520833333
 41
0.0
 71
     1
 72
     1
  1
3
  7
SLDTEXTSTYLE1
 73
     1
 44
1.0
  0
MTEXT
  5
B6
330
1F
100
AcDbEntity
  8
DIM
 62
     7
100
AcDbMText
 10
6.5710913557
 20
180.9590078604
 30
0.0
 40
1.8520833333
 41
0.0
 71
     1
 72
     1
  1
A
  7
SLDTEXTSTYLE1
 73
     1
 44
1.0
  0
MTEXT
  5
B7
330
1F
100
AcDbEntity
  8
DIM
 62
     7
100
AcDbMText
 10
72.5710953557
 20
8.4590078604
 30
0.0
 40
1.8520833333
 41
0.0
 71
     1
 72
     1
  1
2
  7
SLDTEXTSTYLE1
 73
     1
 44
1.0
  0
MTEXT
  5
B8
330
1F
100
AcDbEntity
  8
DIM
 62
     7
100
AcDbMText
 10
22.9877620223
 20
8.4590078604
 30
0.0
 40
1.8520833333
 41
0.0
 71
     1
 72
     1
  1
1
  7
SLDTEXTSTYLE1
 73
     1
 44
1.0
  0
MTEXT
  5
B9
330
1F
100
AcDbEntity
  8
DIM
 62
     7
100
AcDbMText
 10
6.5710913557
 20
30.9590078604
 30
0.0
 40
1.8520833333
 41
0.0
 71
     1
 72
     1
  1
D
  7
SLDTEXTSTYLE1
 73
     1
 44
1.0
  0
MTEXT
  5
BA
330
1F
100
AcDbEntity
  8
DIM
 62
     7
100
AcDbMText
 10
6.5710913557
 20
80.9590078604
 30
0.0
 40
1.8520833333
 41
0.0
 71
     1
 72
     1
  1
C
  7
SLDTEXTSTYLE1
 73
     1
 44
1.0
  0
MTEXT
  5
BB
330
1F
100
AcDbEntity
  8
DIM
 62
     7
100
AcDbMText
 10
6.5710913557
 20
130.9590078604
 30
0.0
 40
1.8520833333
 41
0.0
 71
     1
 72
     1
  1
B
  7
SLDTEXTSTYLE1
 73
     1
 44
1.0
  0
LINE
  5
BC
330
1F
100
AcDbEntity
  8
0
  6
Continuous
 62
     7
370
    15
100
AcDbLine
 10
154.2913889997
 20
85.7849876117
 30
0.0
 11
158.5490519891
 21
85.7849876117
 31
0.0
  0
LINE
  5
BD
330
1F
100
AcDbEntity
  8
0
  6
Continuous
 62
     7
370
    15
100
AcDbLine
 10
158.5490519891
 20
148.7849876117
 30
0.0
 11
154.2913889997
 21
148.7849876117
 31
0.0
  0
LINE
  5
BE
330
1F
100
AcDbEntity
  8
0
  6
Continuous
 62
     7
370
    15
100
AcDbLine
 10
154.2913889997
 20
148.7849876117
 30
0.0
 11
151.8147374141
 21
144.4953014847
 31
0.0
  0
LINE
  5
BF
330
1F
100
AcDbEntity
  8
0
  6
Continuous
 62
     7
370
    15
100
AcDbLine
 10
151.8147374141
 20
90.0746737387
 30
0.0
 11
154.2913889997
 21
85.7849876117
 31
0.0
  0
LINE
  5
C0
330
1F
100
AcDbEntity
  8
0
  6
Continuous
 62
     7
370
    15
100
AcDbLine
 10
144.344604308
 20
85.7849876117
 30
0.0
 11
146.8147374141
 21
90.063383653
 31
0.0
  0
LINE
  5
C1
330
1F
100
AcDbEntity
  8
0
  6
Continuous
 62
     7
370
    15
100
AcDbLine
 10
146.8147374141
 20
144.5065915705
 30
0.0
 11
144.344604308
 21
148.7849876117
 31
0.0
  0
LINE
  5
C2
330
1F
100
AcDbEntity
  8
0
  6
Continuous
 62
     7
370
    15
100
AcDbLine
 10
135.8804228391
 20
85.7849876117
 30
0.0
 11
144.344604308
 21
85.7849876117
 31
0.0
  0
LINE
  5
C3
330
1F
100
AcDbEntity
  8
0
  6
Continuous
 62
     7
370
    15
100
AcDbLine
 10
144.344604308
 20
148.7849876117
 30
0.0
 11
135.8804228391
 21
148.7849876117
 31
0.0
  0
LINE
  5
C4
330
1F
100
AcDbEntity
  8
0
  6
Continuous
 62
     7
370
    15
100
AcDbLine
 10
135.597580127
 20
148.6678303246
 30
0.0
 11
134.8318947014
 21
147.902144899
 31
0.0
  0
LINE
  5
C5
330
1F
100
AcDbEntity
  8
0
  6
Continuous
 62
     7
370
    15
100
AcDbLine
 10
134.8318947014
 20
86.6678303245
 30
0.0
 11
135.597580127
 21
85.9021448989
 31
0.0
  0
LINE
  5
C6
330
1F
100
AcDbEntity
  8
0
  6
Continuous
 62
     7
370
    15
100
AcDbLine
 10
158.8318947021
 20
85.9021448997
 30
0.0
 11
159.5975801269
 21
86.6678303245
 31
0.0
  0
LINE
  5
C7
330
1F
100
AcDbEntity
  8
0
  6
Continuous
 62
     7
370
    15
100
AcDbLine
 10
159.5975801269
 20
147.902144899
 30
0.0
 11
158.8318947021
 21
148.6678303237
 31
0.0
  0
SPLINE
  5
C8
330
1F
100
AcDbEntity
  8
0
  6
Continuous
 62
     7
370
    15
100
AcDbSpline
210
0.0
220
0.0
230
1.0
 70
     8
 71
     3
 72
    11
 73
     7
 74
     0
 42
0.000000001
 43
0.00000001
 40
0.0
 40
0.0
 40
0.0
 40
0.0
 40
0.247460145663128
 40
0.4998840425052056
 40
0.7523676334848356
 40
1.0
 40
1.0
 40
1.0
 40
1.0
 10
135.5962848332144
 20
85.90344615207871
 30
0.0
 10
135.6156796072123
 20
85.88595651204668
 30
0.0
 10
135.6548581909134
 20
85.85062641096012
 30
0.0
 10
135.7255832446044
 20
85.81366486571959
 30
0.0
 10
135.8016327507549
 20
85.78942292948302
 30
0.0
 10
135.8543298682738
 20
85.78645645924391
 30
0.0
 10
135.8804228407618
 20
85.78498761180062
 30
0.0
  0
SPLINE
  5
C9
330
1F
100
AcDbEntity
  8
0
  6
Continuous
 62
     7
370
    15
100
AcDbSpline
210
0.0
220
0.0
230
1.0
 70
     8
 71
     3
 72
     9
 73
     5
 74
     0
 42
0.000000001
 43
0.00000001
 40
0.0
 40
0.0
 40
0.0
 40
0.0
 40
0.48975483252624
 40
1.0
 40
1.0
 40
1.0
 40
1.0
 10
134.7353588455709
 20
88.81742662961318
 30
0.0
 10
134.7364852022733
 20
88.77049355988439
 30
0.0
 10
134.7387850401261
 20
88.67466383731336
 30
0.0
 10
134.7408099558659
 20
88.59170211859794
 30
0.0
 10
134.7418431593366
 20
88.54937130253806
 30
0.0
  0
LINE
  5
CA
330
1F
100
AcDbEntity
  8
0
  6
Continuous
 62
     7
370
    15
100
AcDbLine
 10
146.8147374141
 20
90.7849876117
 30
0.0
 11
151.8147374141
 21
90.7849876117
 31
0.0
  0
LINE
  5
CB
330
1F
100
AcDbEntity
  8
0
  6
Continuous
 62
     7
370
    15
100
AcDbLine
 10
151.8147374141
 20
143.7849876117
 30
0.0
 11
146.8147374141
 21
143.7849876117
 31
0.0
  0
ARC
  5
CC
330
1F
100
AcDbEntity
  8
0
  6
Continuous
 62
     7
370
    15
100
AcDbCircle
 10
134.3147374138
 20
94.8849876114
 30
0.0
 40
0.4000000002167212
100
AcDbArc
 50
359.9999985623
 51
89.9999999705
  0
ARC
  5
CD
330
1F
100
AcDbEntity
  8
0
  6
Continuous
 62
     7
370
    15
100
AcDbCircle
 10
134.3147374138
 20
139.6849876121
 30
0.0
 40
0.4000000002166928
100
AcDbArc
 50
270.0000000295
 51
0.0000014378
  0
LINE
  5
CE
330
1F
100
AcDbEntity
  8
0
  6
Continuous
 62
     7
370
    15
100
AcDbLine
 10
132.7147374141
 20
139.5099876117
 30
0.0
 11
68.1704291871
 21
130.0971871187
 31
0.0
  0
LINE
  5
CF
330
1F
100
AcDbEntity
  8
0
  6
Continuous
 62
     7
370
    15
100
AcDbLine
 10
68.1704291871
 20
104.4727881047
 30
0.0
 11
132.7147374141
 21
95.0599876117
 31
0.0
  0
LINE
  5
D0
330
1F
100
AcDbEntity
  8
0
  6
Continuous
 62
     7
370
    15
100
AcDbLine
 10
132.7147374141
 20
95.0599876117
 30
0.0
 11
133.1972514711
 21
95.2849876117
 31
0.0
  0
LINE
  5
D1
330
1F
100
AcDbEntity
  8
0
  6
Continuous
 62
     7
370
    15
100
AcDbLine
 10
133.1972514711
 20
139.2849876117
 30
0.0
 11
132.7147374141
 21
139.5099876117
 31
0.0
  0
LINE
  5
D2
330
1F
100
AcDbEntity
  8
0
  6
Continuous
 62
     7
370
    15
100
AcDbLine
 10
133.1972514711
 20
95.2849876117
 30
0.0
 11
134.314737414
 21
95.2849876117
 31
0.0
  0
LINE
  5
D3
330
1F
100
AcDbEntity
  8
0
  6
Continuous
 62
     7
370
    15
100
AcDbLine
 10
134.314737414
 20
139.2849876117
 30
0.0
 11
133.1972514711
 21
139.2849876117
 31
0.0
  0
LINE
  5
D4
330
1F
100
AcDbEntity
  8
0
  6
Continuous
 62
     7
370
    15
100
AcDbLine
 10
160.5147374141
 20
101.2849876117
 30
0.0
 11
176.7147374141
 21
101.2849876117
 31
0.0
  0
LINE
  5
D5
330
1F
100
AcDbEntity
  8
0
  6
Continuous
 62
     7
370
    15
100
AcDbLine
 10
176.7147374141
 20
133.2849876117
 30
0.0
 11
160.5147374141
 21
133.2849876117
 31
0.0
  0
LINE
  5
D6
330
1F
100
AcDbEntity
  8
0
  6
Continuous
 62
     7
370
    15
100
AcDbLine
 10
176.7147374141
 20
101.2849876117
 30
0.0
 11
177.7147374141
 21
102.2849876117
 31
0.0
  0
LINE
  5
D7
330
1F
100
AcDbEntity
  8
0
  6
Continuous
 62
     7
370
    15
100
AcDbLine
 10
177.7147374141
 20
132.2849876117
 30
0.0
 11
176.7147374141
 21
133.2849876117
 31
0.0
  0
LINE
  5
D8
330
1F
100
AcDbEntity
  8
0
  6
Continuous
 62
     7
370
    15
100
AcDbLine
 10
209.4647374141
 20
107.2849876117
 30
0.0
 11
214.9647374141
 21
107.2849876117
 31
0.0
  0
LINE
  5
D9
330
1F
100
AcDbEntity
  8
0
  6
Continuous
 62
     7
370
    15
100
AcDbLine
 10
214.9647374141
 20
127.2849876117
 30
0.0
 11
209.4647374141
 21
127.2849876117
 31
0.0
  0
LINE
  5
DA
330
1F
100
AcDbEntity
  8
0
  6
Continuous
 62
     7
370
    15
100
AcDbLine
 10
214.9647374141
 20
107.2849876117
 30
0.0
 11
215.7147374141
 21
108.0349876117
 31
0.0
  0
LINE
  5
DB
330
1F
100
AcDbEntity
  8
0
  6
Continuous
 62
     7
370
    15
100
AcDbLine
 10
215.7147374141
 20
126.5349876117
 30
0.0
 11
214.9647374141
 21
127.2849876117
 31
0.0
  0
LINE
  5
DC
330
1F
100
AcDbEntity
  8
0
  6
Continuous
 62
     7
370
    15
100
AcDbLine
 10
209.4647374141
 20
127.2849876117
 30
0.0
 11
208.7147374141
 21
126.5349876117
 31
0.0
  0
LINE
  5
DD
330
1F
100
AcDbEntity
  8
0
  6
Continuous
 62
     7
370
    15
100
AcDbLine
 10
208.7147374141
 20
108.0349876117
 30
0.0
 11
209.4647374141
 21
107.2849876117
 31
0.0
  0
LINE
  5
DE
330
1F
100
AcDbEntity
  8
0
  6
Continuous
 62
     7
370
    15
100
AcDbLine
 10
187.7147374125
 20
109.2849876117
 30
0.0
 11
203.2424942281
 21
109.2849876117
 31
0.0
  0
LINE
  5
DF
330
1F
100
AcDbEntity
  8
0
  6
Continuous
 62
     7
370
    15
100
AcDbLine
 10
203.2424942281
 20
125.2849876117
 30
0.0
 11
187.7147374125
 21
125.2849876117
 31
0.0
  0
LINE
  5
E0
330
1F
100
AcDbEntity
  8
0
  6
Continuous
 62
     7
370
    15
100
AcDbLine
 10
203.2424942281
 20
109.2849876117
 30
0.0
 11
204.7147374141
 21
110.1349876117
 31
0.0
  0
LINE
  5
E1
330
1F
100
AcDbEntity
  8
0
  6
Continuous
 62
     7
370
    15
100
AcDbLine
 10
204.7147374141
 20
124.4349876117
 30
0.0
 11
203.2424942281
 21
125.2849876117
 31
0.0
  0
ARC
  5
E2
330
1F
100
AcDbEntity
  8
0
  6
Continuous
 62
     7
370
    15
100
AcDbCircle
 10
208.3147374138
 20
112.8849876114
 30
0.0
 40
0.400000000270893
100
AcDbArc
 50
359.9999999986
 51
89.9999999533
  0
ARC
  5
E3
330
1F
100
AcDbEntity
  8
0
  6
Continuous
 62
     7
370
    15
100
AcDbCircle
 10
208.3147374138
 20
121.6849876121
 30
0.0
 40
0.4000000002709072
100
AcDbArc
 50
270.0000000467
 51
0.0000000014
  0
LINE
  5
E4
330
1F
100
AcDbEntity
  8
0
  6
Continuous
 62
     7
370
    15
100
AcDbLine
 10
204.7147374141
 20
113.2849876117
 30
0.0
 11
208.3147374141
 21
113.2849876117
 31
0.0
  0
LINE
  5
E5
330
1F
100
AcDbEntity
  8
0
  6
Continuous
 62
     7
370
    15
100
AcDbLine
 10
208.3147374141
 20
121.2849876117
 30
0.0
 11
204.7147374141
 21
121.2849876117
 31
0.0
  0
LINE
  5
E6
330
1F
100
AcDbEntity
  8
0
  6
Continuous
 62
     7
370
    15
100
AcDbLine
 10
177.7147374141
 20
101.2849876117
 30
0.0
 11
187.7147374125
 21
101.2849876117
 31
0.0
  0
LINE
  5
E7
330
1F
100
AcDbEntity
  8
0
  6
Continuous
 62
     7
370
    15
100
AcDbLine
 10
187.7147374125
 20
133.2849876117
 30
0.0
 11
177.7147374141
 21
133.2849876117
 31
0.0
  0
LINE
  5
E8
330
1F
100
AcDbEntity
  8
0
  6
Continuous
 62
     7
370
    15
100
AcDbLine
 10
154.2913889997
 20
148.7849876117
 30
0.0
 11
154.2913889997
 21
85.7849876117
 31
0.0
  0
LINE
  5
E9
330
1F
100
AcDbEntity
  8
0
  6
Continuous
 62
     7
370
    15
100
AcDbLine
 10
158.5490519891
 20
148.7849876118
 30
0.0
 11
158.5490519891
 21
85.7849876117
 31
0.0
  0
LINE
  5
EA
330
1F
100
AcDbEntity
  8
0
  6
Continuous
 62
     7
370
    15
100
AcDbLine
 10
158.8318947021
 20
85.9021448997
 30
0.0
 11
158.8318947021
 21
148.6678303237
 31
0.0
  0
SPLINE
  5
EB
330
1F
100
AcDbEntity
  8
0
  6
Continuous
 62
     7
370
    15
100
AcDbSpline
210
0.0
220
0.0
230
1.0
 70
     8
 71
     3
 72
    10
 73
     6
 74
     0
 42
0.000000001
 43
0.00000001
 40
0.0
 40
0.0
 40
0.0
 40
0.0
 40
0.5
 40
0.5
 40
1.0
 40
1.0
 40
1.0
 40
1.0
 10
158.5490519891033
 20
85.78498761171552
 30
0.0
 10
158.600076446947
 20
85.78498761160435
 30
0.0
 10
158.6531197449467
 20
85.79513700728924
 30
0.0
 10
158.7511309794513
 20
85.83573458996527
 30
0.0
 10
158.7958149614593
 20
85.86606515914333
 30
0.0
 10
158.8318947012808
 20
85.90214489899083
 30
0.0
  0
SPLINE
  5
EC
330
1F
100
AcDbEntity
  8
0
  6
Continuous
 62
     7
370
    15
100
AcDbSpline
210
0.0
220
0.0
230
1.0
 70
     8
 71
     3
 72
    10
 73
     6
 74
     0
 42
0.000000001
 43
0.00000001
 40
0.0
 40
0.0
 40
0.0
 40
0.0
 40
0.5
 40
0.5
 40
1.0
 40
1.0
 40
1.0
 40
1.0
 10
158.5490519891033
 20
148.7849876117518
 30
0.0
 10
158.600076446947
 20
148.7849876118629
 30
0.0
 10
158.6531197449467
 20
148.774838216178
 30
0.0
 10
158.7511309794513
 20
148.734240633502
 30
0.0
 10
158.7958149614593
 20
148.7039100643239
 30
0.0
 10
158.8318947012808
 20
148.6678303244765
 30
0.0
  0
LINE
  5
ED
330
1F
100
AcDbEntity
  8
0
  6
Continuous
 62
     7
370
    15
100
AcDbLine
 10
151.8147374141
 20
144.4953014847
 30
0.0
 11
151.8147374141
 21
90.0746737387
 31
0.0
  0
LINE
  5
EE
330
1F
100
AcDbEntity
  8
0
  6
Continuous
 62
     7
370
    15
100
AcDbLine
 10
144.344604308
 20
148.7849876117
 30
0.0
 11
144.344604308
 21
85.7849876117
 31
0.0
  0
LINE
  5
EF
330
1F
100
AcDbEntity
  8
0
  6
Continuous
 62
     7
370
    15
100
AcDbLine
 10
146.8147374141
 20
144.5065915705
 30
0.0
 11
146.8147374141
 21
90.063383653
 31
0.0
  0
LINE
  5
F0
330
1F
100
AcDbEntity
  8
0
  6
Continuous
 62
     7
370
    15
100
AcDbLine
 10
135.8804228395
 20
125.884424768
 30
0.0
 11
135.8804228391
 21
148.7849876117
 31
0.0
  0
LINE
  5
F1
330
1F
100
AcDbEntity
  8
0
  6
Continuous
 62
     7
370
    15
100
AcDbLine
 10
135.8804228391
 20
125.884424768
 30
0.0
 11
135.8804228391
 21
108.5675342388
 31
0.0
  0
SPLINE
  5
F2
330
1F
100
AcDbEntity
  8
0
  6
Continuous
 62
     7
370
    15
100
AcDbSpline
210
0.0
220
0.0
230
1.0
 70
     8
 71
     3
 72
     8
 73
     4
 74
     0
 42
0.000000001
 43
0.00000001
 40
0.0
 40
0.0
 40
0.0
 40
0.0
 40
1.0
 40
1.0
 40
1.0
 40
1.0
 10
135.5975801264706
 20
125.7895063574608
 30
0.0
 10
135.6687743551685
 20
125.8472201440392
 30
0.0
 10
135.77194531457
 20
125.884424768357
 30
0.0
 10
135.8804228398183
 20
125.8844247682925
 30
0.0
  0
SPLINE
  5
F3
330
1F
100
AcDbEntity
  8
0
  6
Continuous
 62
     7
370
    15
100
AcDbSpline
210
0.0
220
0.0
230
1.0
 70
     8
 71
     3
 72
    10
 73
     6
 74
     0
 42
0.000000001
 43
0.00000001
 40
0.0
 40
0.0
 40
0.0
 40
0.0
 40
0.5
 40
0.5
 40
1.0
 40
1.0
 40
1.0
 40
1.0
 10
135.8804228407618
 20
108.5675342384311
 30
0.0
 10
135.8233581573118
 20
108.5675342384903
 30
0.0
 10
135.7679140824562
 20
108.5825485855506
 30
0.0
 10
135.6714840554684
 20
108.6332185328796
 30
0.0
 10
135.6307713058761
 20
108.6680901759417
 30
0.0
 10
135.5975801244649
 20
108.7079349125242
 30
0.0
  0
LINE
  5
F4
330
1F
100
AcDbEntity
  8
0
  6
Continuous
 62
     7
370
    15
100
AcDbLine
 10
135.597580127
 20
125.7895063577
 30
0.0
 11
135.597580127
 21
108.7079349097
 31
0.0
  0
LINE
  5
F5
330
1F
100
AcDbEntity
  8
0
  6
Continuous
 62
     7
370
    15
100
AcDbLine
 10
134.8318947015
 20
125.9178303244
 30
0.0
 11
134.8318947015
 21
108.6521448991
 31
0.0
  0
LINE
  5
F6
330
1F
100
AcDbEntity
  8
0
  6
Continuous
 62
     7
370
    15
100
AcDbLine
 10
134.8318947008
 20
125.9178303251
 30
0.0
 11
134.8318947014
 21
147.9021448993
 31
0.0
  0
LINE
  5
F7
330
1F
100
AcDbEntity
  8
0
  6
Continuous
 62
     7
370
    15
100
AcDbLine
 10
135.597580127
 20
148.6678303245
 30
0.0
 11
135.5975801265
 21
125.7895063574
 31
0.0
  0
LINE
  5
F8
330
1F
100
AcDbEntity
  8
0
  6
Continuous
 62
     7
370
    15
100
AcDbLine
 10
159.5975801269
 20
147.9021448989
 30
0.0
 11
159.5975801269
 21
86.6678303246
 31
0.0
  0
SPLINE
  5
F9
330
1F
100
AcDbEntity
  8
0
  6
Continuous
 62
     7
370
    15
100
AcDbSpline
210
0.0
220
0.0
230
1.0
 70
    24
 71
     3
 72
    47
 73
    43
 74
     0
 42
0.000000001
 43
0.00000001
 40
0.0
 40
0.0
 40
0.0
 40
0.0
 40
0.0053041438740758
 40
0.0106040483952174
 40
0.01590118065308
 40
0.021197010041298
 40
0.0264930070379634
 40
0.0317906419815981
 40
0.0370913838477052
 40
0.0423966990309845
 40
0.0663768045816359
 40
0.0903622845633264
 40
0.1173884786822996
 40
0.1444200168318278
 40
0.1738405150018931
 40
0.204871819441735
 40
0.2374904003485773
 40
0.2716370914837193
 40
0.307212130576857
 40
0.3440718784041744
 40
0.3820280658471386
 40
0.420850285344154
 40
0.4602721112809129
 40
0.5000007264822417
 40
0.5397293416835706
 40
0.5791511676203294
 40
0.6179733871173448
 40
0.6559295745603092
 40
0.6927893223876265
 40
0.7283643614807641
 40
0.7625110526159061
 40
0.7951296335227485
 40
0.8261609379625904
 40
0.8555814361326557
 40
0.8826076300166479
 40
0.9096391680721915
 40
0.9336192735861479
 40
0.9576047536724086
 40
0.9682084425967672
 40
0.978801037520647
 40
0.9893943026598754
 40
1.0
 40
1.0
 40
1.0
 40
1.0
 10
159.7147374141292
 20
147.619302186579
 30
0.0
 10
159.7147374141292
 20
147.6184957313355
 30
0.0
 10
159.7147374141292
 20
147.6168834654104
 30
0.0
 10
159.7147374141292
 20
147.6038270451602
 30
0.0
 10
159.7147374141292
 20
147.5829803850643
 30
0.0
 10
159.7147374141292
 20
147.5535815895597
 30
0.0
 10
159.7147374141292
 20
147.5158345241082
 30
0.0
 10
159.7147374141292
 20
147.4696851682494
 30
0.0
 10
159.7147374141292
 20
147.4151458606089
 30
0.0
 10
159.7147374141292
 20
147.2784203672014
 30
0.0
 10
159.7147374141292
 20
146.990879506122
 30
0.0
 10
159.7147374141292
 20
146.4098203328744
 30
0.0
 10
159.7147374141292
 20
145.6151552681504
 30
0.0
 10
159.7147374141292
 20
144.5541400151361
 30
0.0
 10
159.7147374141292
 20
143.2210972004114
 30
0.0
 10
159.7147374141292
 20
141.5626293174439
 30
0.0
 10
159.7147374141292
 20
139.5712323431933
 30
0.0
 10
159.7147374141292
 20
137.2365688538276
 30
0.0
 10
159.7147374141292
 20
134.5609656557669
 30
0.0
 10
159.7147374141292
 20
131.5621398353375
 30
0.0
 10
159.7147374141292
 20
128.2750697233503
 30
0.0
 10
159.7147374141292
 20
124.7522719265742
 30
0.0
 10
159.7147374141292
 20
121.0621048856039
 30
0.0
 10
159.7147374141292
 20
117.2849876117356
 30
0.0
 10
159.7147374141292
 20
113.5078703378555
 30
0.0
 10
159.7147374141292
 20
109.8177032969204
 30
0.0
 10
159.7147374141292
 20
106.2949055000182
 30
0.0
 10
159.7147374141292
 20
103.007835388485
 30
0.0
 10
159.7147374141292
 20
100.0090095664351
 30
0.0
 10
159.7147374141292
 20
97.33340637410689
 30
0.0
 10
159.7147374141292
 20
94.99874286462659
 30
0.0
 10
159.7147374141292
 20
93.00734596045945
 30
0.0
 10
159.7147374141292
 20
91.3488778347696
 30
0.0
 10
159.7147374141292
 20
90.01591728317955
 30
0.0
 10
159.7147374141292
 20
88.95487923907864
 30
0.0
 10
159.7147374141292
 20
88.16026116537627
 30
0.0
 10
159.7147374141292
 20
87.57909744952838
 30
0.0
 10
159.7147374141292
 20
87.26307212768859
 30
0.0
 10
159.7147374141292
 20
87.0960257918187
 30
0.0
 10
159.7147374141292
 20
87.012584645854
 30
0.0
 10
159.7147374141292
 20
86.96034041587764
 30
0.0
 10
159.7147374141292
 20
86.95389675618654
 30
0.0
 10
159.7147374141292
 20
86.95067303688832
 30
0.0
  0
SPLINE
  5
FA
330
1F
100
AcDbEntity
  8
0
  6
Continuous
 62
     7
370
    15
100
AcDbSpline
210
0.0
220
0.0
230
1.0
 70
     8
 71
     3
 72
    10
 73
     6
 74
     0
 42
0.000000001
 43
0.00000001
 40
0.0
 40
0.0
 40
0.0
 40
0.0
 40
0.5
 40
0.5
 40
1.0
 40
1.0
 40
1.0
 40
1.0
 10
159.597580126872
 20
86.66783032458206
 30
0.0
 10
159.6336598667195
 20
86.70391006440352
 30
0.0
 10
159.6639904358976
 20
86.74859404641148
 30
0.0
 10
159.7045880185736
 20
86.84660528091617
 30
0.0
 10
159.7147374142585
 20
86.89964857891584
 30
0.0
 10
159.7147374141473
 20
86.95067303675954
 30
0.0
  0
SPLINE
  5
FB
330
1F
100
AcDbEntity
  8
0
  6
Continuous
 62
     7
370
    15
100
AcDbSpline
210
0.0
220
0.0
230
1.0
 70
     8
 71
     3
 72
    10
 73
     6
 74
     0
 42
0.000000001
 43
0.00000001
 40
0.0
 40
0.0
 40
0.0
 40
0.0
 40
0.5
 40
0.5
 40
1.0
 40
1.0
 40
1.0
 40
1.0
 10
159.597580126872
 20
147.9021448988852
 30
0.0
 10
159.6336598667195
 20
147.8660651590638
 30
0.0
 10
159.6639904358976
 20
147.8213811770558
 30
0.0
 10
159.7045880185736
 20
147.7233699425511
 30
0.0
 10
159.7147374142585
 20
147.6703266445514
 30
0.0
 10
159.7147374141473
 20
147.6193021867077
 30
0.0
  0
SPLINE
  5
FC
330
1F
100
AcDbEntity
  8
0
  6
Continuous
 62
     7
370
    15
100
AcDbSpline
210
0.0
220
0.0
230
1.0
 70
    24
 71
     3
 72
    10
 73
     6
 74
     0
 42
0.000000001
 43
0.00000001
 40
0.0
 40
0.0
 40
0.0
 40
0.0
 40
0.5
 40
0.5
 40
1.0
 40
1.0
 40
1.0
 40
1.0
 10
134.7147374141111
 20
126.0349876117518
 30
0.0
 10
134.7147374136041
 20
126.0349876122587
 30
0.0
 10
134.7285780643846
 20
126.0211469614782
 30
0.0
 10
134.7707316975195
 20
125.9789933283433
 30
0.0
 10
134.7992190893503
 20
125.9505059365125
 30
0.0
 10
134.8318947013686
 20
125.9178303244942
 30
0.0
  0
SPLINE
  5
FD
330
1F
100
AcDbEntity
  8
0
  6
Continuous
 62
     7
370
    15
100
AcDbSpline
210
0.0
220
0.0
230
1.0
 70
    24
 71
     3
 72
    10
 73
     6
 74
     0
 42
0.000000001
 43
0.00000001
 40
0.0
 40
0.0
 40
0.0
 40
0.0
 40
0.5
 40
0.5
 40
1.0
 40
1.0
 40
1.0
 40
1.0
 10
134.8318946999557
 20
108.6521448975601
 30
0.0
 10
134.7992407217754
 20
108.6194909193799
 30
0.0
 10
134.7712605402899
 20
108.5915107378944
 30
0.0
 10
134.7286152379403
 20
108.5488654355447
 30
0.0
 10
134.7147374139976
 20
108.5349876115953
 30
0.0
 10
134.7147374141127
 20
108.5349876117105
 30
0.0
  0
LINE
  5
FE
330
1F
100
AcDbEntity
  8
0
  6
Continuous
 62
     7
370
    15
100
AcDbLine
 10
134.7147374141
 20
126.0349876117
 30
0.0
 11
134.7147374141
 21
108.5349876117
 31
0.0
  0
SPLINE
  5
FF
330
1F
100
AcDbEntity
  8
0
  6
Continuous
 62
     7
370
    15
100
AcDbSpline
210
0.0
220
0.0
230
1.0
 70
     8
 71
     3
 72
    10
 73
     6
 74
     0
 42
0.000000001
 43
0.00000001
 40
0.0
 40
0.0
 40
0.0
 40
0.0
 40
0.5
 40
0.5
 40
1.0
 40
1.0
 40
1.0
 40
1.0
 10
135.5975801269776
 20
148.6678303244765
 30
0.0
 10
135.6336598667991
 20
148.703910064324
 30
0.0
 10
135.6783438488071
 20
148.734240633502
 30
0.0
 10
135.7763550833117
 20
148.774838216178
 30
0.0
 10
135.8293983813114
 20
148.7849876118629
 30
0.0
 10
135.8804228391551
 20
148.7849876117518
 30
0.0
  0
SPLINE
  5
100
330
1F
100
AcDbEntity
  8
0
  6
Continuous
 62
     7
370
    15
100
AcDbSpline
210
0.0
220
0.0
230
1.0
 70
    24
 71
     3
 72
    31
 73
    27
 74
     0
 42
0.000000001
 43
0.00000001
 40
0.0
 40
0.0
 40
0.0
 40
0.0
 40
0.0100187037859857
 40
0.0200387126488813
 40
0.0300623662874542
 40
0.040092001849729
 40
0.0704090723477153
 40
0.100737986527753
 40
0.1311856480228889
 40
0.1616452042204419
 40
0.2225360047365512
 40
0.283165782769788
 40
0.3432801653689828
 40
0.4026376609116817
 40
0.4610151035630454
 40
0.5182120283312015
 40
0.6282963922179484
 40
0.7319416159106048
 40
0.7802590511513182
 40
0.8285880699467858
 40
0.8732461115512878
 40
0.9179156515966027
 40
0.9384446508924299
 40
0.9589549722679923
 40
0.9794667214572721
 40
1.0
 40
1.0
 40
1.0
 40
1.0
 10
134.7147374141292
 20
87.86647462393074
 30
0.0
 10
134.7147374141292
 20
87.82948652512745
 30
0.0
 10
134.7147374141292
 20
87.7555055093014
 30
0.0
 10
134.7147374141292
 20
87.65325030273013
 30
0.0
 10
134.7147374141292
 20
87.55738256612308
 30
0.0
 10
134.7147374141292
 20
87.40862979348054
 30
0.0
 10
134.7147374141292
 20
87.23268447533434
 30
0.0
 10
134.7147374141292
 20
87.07031659981487
 30
0.0
 10
134.7147374141292
 20
86.97243213044769
 30
0.0
 10
134.7147374141292
 20
86.92889695049347
 30
0.0
 10
134.7147374141292
 20
87.03766430321357
 30
0.0
 10
134.7147374141292
 20
87.42611725507109
 30
0.0
 10
134.7147374141292
 20
88.06258658868425
 30
0.0
 10
134.7147374141292
 20
88.93135844035393
 30
0.0
 10
134.7147374141292
 20
90.0119727820608
 30
0.0
 10
134.7147374141292
 20
91.68053814050123
 30
0.0
 10
134.7147374141292
 20
94.14375374250002
 30
0.0
 10
134.7147374141292
 20
97.02679672414791
 30
0.0
 10
134.7147374141292
 20
99.45833043093297
 30
0.0
 10
134.7147374141292
 20
101.2686395803036
 30
0.0
 10
134.7147374141292
 20
103.1107972578176
 30
0.0
 10
134.7147374141292
 20
104.6351803664501
 30
0.0
 10
134.7147374141292
 20
105.8506166536718
 30
0.0
 10
134.7147374141292
 20
106.7348666387668
 30
0.0
 10
134.7147374141292
 20
107.6288913520617
 30
0.0
 10
134.7147374141292
 20
108.2328499387985
 30
0.0
 10
134.7147374141292
 20
108.5349876294027
 30
0.0
  0
SPLINE
  5
101
330
1F
100
AcDbEntity
  8
0
  6
Continuous
 62
     7
370
    15
100
AcDbSpline
210
0.0
220
0.0
230
1.0
 70
     8
 71
     3
 72
    10
 73
     6
 74
     0
 42
0.000000001
 43
0.00000001
 40
0.0
 40
0.0
 40
0.0
 40
0.0
 40
0.5
 40
0.5
 40
1.0
 40
1.0
 40
1.0
 40
1.0
 10
134.7147374141111
 20
147.6193021867077
 30
0.0
 10
134.7147374139999
 20
147.6703266445514
 30
0.0
 10
134.7248868096848
 20
147.7233699425511
 30
0.0
 10
134.7654843923608
 20
147.8213811770558
 30
0.0
 10
134.7958149615389
 20
147.8660651590638
 30
0.0
 10
134.8318947013864
 20
147.9021448988852
 30
0.0
  0
SPLINE
  5
102
330
1F
100
AcDbEntity
  8
0
  6
Continuous
 62
     7
370
    15
100
AcDbSpline
210
0.0
220
0.0
230
1.0
 70
    24
 71
     3
 72
    31
 73
    27
 74
     0
 42
0.000000001
 43
0.00000001
 40
0.0
 40
0.0
 40
0.0
 40
0.0
 40
0.0133152966057894
 40
0.0266174735793791
 40
0.0399103661809009
 40
0.0531978177099502
 40
0.066483676188063
 40
0.0797717910207395
 40
0.0930660096534651
 40
0.1063701742362329
 40
0.1196881183109911
 40
0.1818258734548515
 40
0.2439772729742985
 40
0.3077457304650136
 40
0.3715281904360401
 40
0.5006216873931887
 40
0.6296300019595573
 40
0.6932737810191004
 40
0.7569315351883698
 40
0.8188722000706508
 40
0.8808264660516752
 40
0.9046811864474561
 40
0.928503751164976
 40
0.9523163012992173
 40
0.9761410058658411
 40
1.0
 40
1.0
 40
1.0
 40
1.0
 10
134.7147374141292
 20
126.0349876080904
 30
0.0
 10
134.7147374141292
 20
126.1994520496858
 30
0.0
 10
134.7147374141292
 20
126.5282188851922
 30
0.0
 10
134.7147374141292
 20
127.0178343404093
 30
0.0
 10
134.7147374141292
 20
127.504479765026
 30
0.0
 10
134.7147374141292
 20
127.9879262179079
 30
0.0
 10
134.7147374141292
 20
128.4682347270532
 30
0.0
 10
134.7147374141292
 20
128.9453891812454
 30
0.0
 10
134.7147374141292
 20
129.4193923015652
 30
0.0
 10
134.7147374141292
 20
129.8902486170193
 30
0.0
 10
134.7147374141292
 20
130.9291464533169
 30
0.0
 10
134.7147374141292
 20
132.5037065160353
 30
0.0
 10
134.7147374141292
 20
134.5578533896832
 30
0.0
 10
134.7147374141292
 20
136.5185971183246
 30
0.0
 10
134.7147374141292
 20
138.9987349147699
 30
0.0
 10
134.7147374141292
 20
141.7572803661749
 30
0.0
 10
134.7147374141292
 20
143.960305763296
 30
0.0
 10
134.7147374141292
 20
145.3501238058194
 30
0.0
 10
134.7147374141292
 20
146.1919401271274
 30
0.0
 10
134.7147374141292
 20
146.8416688729205
 30
0.0
 10
134.7147374141292
 20
147.2056927735512
 30
0.0
 10
134.7147374141292
 20
147.3992635610254
 30
0.0
 10
134.7147374141292
 20
147.4977081633595
 30
0.0
 10
134.7147374141292
 20
147.5675094611386
 30
0.0
 10
134.7147374141292
 20
147.6112158368812
 30
0.0
 10
134.7147374141292
 20
147.6166054448666
 30
0.0
 10
134.7147374141292
 20
147.6193021867053
 30
0.0
  0
LINE
  5
103
330
1F
100
AcDbEntity
  8
0
  6
Continuous
 62
     7
370
    15
100
AcDbLine
 10
132.7147374141
 20
95.0599876117
 30
0.0
 11
132.7147374141
 21
139.5099876117
 31
0.0
  0
LINE
  5
104
330
1F
100
AcDbEntity
  8
0
  6
Continuous
 62
     7
370
    15
100
AcDbLine
 10
68.1704291871
 20
104.4727881047
 30
0.0
 11
68.1704291871
 21
130.0971871187
 31
0.0
  0
LINE
  5
105
330
1F
100
AcDbEntity
  8
0
  6
Continuous
 62
     7
370
    15
100
AcDbLine
 10
133.1972514711
 20
95.2849876117
 30
0.0
 11
133.1972514711
 21
139.2849876117
 31
0.0
  0
LINE
  5
106
330
1F
100
AcDbEntity
  8
0
  6
Continuous
 62
     7
370
    15
100
AcDbLine
 10
160.5147374141
 20
101.2849876117
 30
0.0
 11
160.5147374141
 21
133.2849876117
 31
0.0
  0
SPLINE
  5
107
330
1F
100
AcDbEntity
  8
0
  6
Continuous
 62
     7
370
    15
100
AcDbSpline
210
0.0
220
0.0
230
1.0
 70
     8
 71
     3
 72
    14
 73
    10
 74
     0
 42
0.000000001
 43
0.00000001
 40
0.0
 40
0.0
 40
0.0
 40
0.0
 40
0.25
 40
0.25
 40
0.5
 40
0.5
 40
0.75
 40
0.75
 40
1.0
 40
1.0
 40
1.0
 40
1.0
 10
159.7147374143456
 20
100.4849876123524
 30
0.0
 10
159.7147374143821
 20
100.5792685163885
 30
0.0
 10
159.7319204054555
 20
100.6809858194364
 30
0.0
 10
159.8098931416268
 20
100.8779409397903
 30
0.0
 10
159.8709471310267
 20
100.9725681783106
 30
0.0
 10
160.0271568475522
 20
101.1287778948361
 30
0.0
 10
160.1217840860725
 20
101.189831884236
 30
0.0
 10
160.3187392064264
 20
101.2678046204074
 30
0.0
 10
160.4204565094744
 20
101.2849876114807
 30
0.0
 10
160.5147374135104
 20
101.2849876115173
 30
0.0
  0
SPLINE
  5
108
330
1F
100
AcDbEntity
  8
0
  6
Continuous
 62
     7
370
    15
100
AcDbSpline
210
0.0
220
0.0
230
1.0
 70
     8
 71
     3
 72
    14
 73
    10
 74
     0
 42
0.000000001
 43
0.00000001
 40
0.0
 40
0.0
 40
0.0
 40
0.0
 40
0.25
 40
0.25
 40
0.5
 40
0.5
 40
0.75
 40
0.75
 40
1.0
 40
1.0
 40
1.0
 40
1.0
 10
159.7147374143456
 20
134.0849876111149
 30
0.0
 10
159.7147374143821
 20
133.9907067070272
 30
0.0
 10
159.731920405475
 20
133.8889894039191
 30
0.0
 10
159.8098931417352
 20
133.6920342834655
 30
0.0
 10
159.8709471312049
 20
133.5974070449077
 30
0.0
 10
160.0271568478866
 20
133.4411973283675
 30
0.0
 10
160.1217840864913
 20
133.3801433389912
 30
0.0
 10
160.3187392069771
 20
133.3021706029161
 30
0.0
 10
160.4204565100718
 20
133.2849876119137
 30
0.0
 10
160.5147374141292
 20
133.28498761195
 30
0.0
  0
LINE
  5
109
330
1F
100
AcDbEntity
  8
0
  6
Continuous
 62
     7
370
    15
100
AcDbLine
 10
176.7147374141
 20
101.2849876117
 30
0.0
 11
176.7147374141
 21
133.2849876117
 31
0.0
  0
SPLINE
  5
10A
330
1F
100
AcDbEntity
  8
0
  6
Continuous
 62
     7
370
    15
100
AcDbSpline
210
0.0
220
0.0
230
1.0
 70
     8
 71
     3
 72
    14
 73
    10
 74
     0
 42
0.000000001
 43
0.00000001
 40
0.0
 40
0.0
 40
0.0
 40
0.0
 40
0.25
 40
0.25
 40
0.5
 40
0.5
 40
0.75
 40
0.75
 40
1.0
 40
1.0
 40
1.0
 40
1.0
 10
67.31473741441438
 20
105.4623208912178
 30
0.0
 10
67.31473741440628
 20
105.3533043422769
 30
0.0
 10
67.33304159626303
 20
105.2372263508562
 30
0.0
 10
67.41414752039448
 20
105.0113973119887
 30
0.0
 10
67.47713161769506
 20
104.902118952603
 30
0.0
 10
67.63952582108466
 20
104.7143242422262
 30
0.0
 10
67.73857121712426
 20
104.6362296465494
 30
0.0
 10
67.95033220319034
 20
104.5233836870827
 30
0.0
 10
68.06255373755229
 20
104.488520089793
 30
0.0
 10
68.1704291871474
 20
104.4727881048584
 30
0.0
  0
SPLINE
  5
10B
330
1F
100
AcDbEntity
  8
0
  6
Continuous
 62
     7
370
    15
100
AcDbSpline
210
0.0
220
0.0
230
1.0
 70
    24
 71
     3
 72
    38
 73
    34
 74
     0
 42
0.000000001
 43
0.00000001
 40
0.0
 40
0.0
 40
0.0
 40
0.0
 40
0.0624999999999999
 40
0.0624999999999999
 40
0.125
 40
0.125
 40
0.1875
 40
0.1875
 40
0.25
 40
0.25
 40
0.3125
 40
0.3125
 40
0.3750000000000001
 40
0.3750000000000001
 40
0.4375000000000001
 40
0.4375000000000001
 40
0.5000000000000001
 40
0.5000000000000001
 40
0.5625000000000001
 40
0.5625000000000001
 40
0.625
 40
0.625
 40
0.6875
 40
0.6875
 40
0.75
 40
0.75
 40
0.8125
 40
0.8125
 40
0.875
 40
0.875
 40
0.9375
 40
0.9375
 40
1.0
 40
1.0
 40
1.0
 40
1.0
 10
67.31473741441437
 20
129.1076543322104
 30
0.0
 10
67.31473741441435
 20
129.1076543322104
 30
0.0
 10
67.31473741441442
 20
129.0771000208489
 30
0.0
 10
67.31473741441438
 20
128.9289579051565
 30
0.0
 10
67.31473741441432
 20
128.8112994864172
 30
0.0
 10
67.31473741441434
 20
128.4581958403656
 30
0.0
 10
67.31473741441441
 20
128.2225588436051
 30
0.0
 10
67.31473741441437
 20
127.6016486863373
 30
0.0
 10
67.31473741441437
 20
127.2160276569342
 30
0.0
 10
67.31473741441437
 20
126.270214319296
 30
0.0
 10
67.31473741441438
 20
125.7095712909525
 30
0.0
 10
67.31473741441435
 20
124.408020441635
 30
0.0
 10
67.31473741441435
 20
123.666773107908
 30
0.0
 10
67.31473741441437
 20
122.0304178524787
 30
0.0
 10
67.31473741441438
 20
121.1353993057871
 30
0.0
 10
67.31473741441437
 20
119.254965687761
 30
0.0
 10
67.31473741441435
 20
118.27020983844
 30
0.0
 10
67.31473741441435
 20
116.2997653850272
 30
0.0
 10
67.31473741441437
 20
115.3150095357063
 30
0.0
 10
67.31473741441435
 20
113.4345759176801
 30
0.0
 10
67.31473741441434
 20
112.5395573709886
 30
0.0
 10
67.31473741441437
 20
110.9032021155593
 30
0.0
 10
67.3147374144144
 20
110.1619547818323
 30
0.0
 10
67.31473741441435
 20
108.8604039325148
 30
0.0
 10
67.31473741441434
 20
108.2997609041713
 30
0.0
 10
67.31473741441437
 20
107.3539475665331
 30
0.0
 10
67.3147374144144
 20
106.96832653713
 30
0.0
 10
67.3147374144144
 20
106.3474163798622
 30
0.0
 10
67.31473741441435
 20
106.1117793831017
 30
0.0
 10
67.31473741441435
 20
105.7586757370501
 30
0.0
 10
67.3147374144144
 20
105.6410173183108
 30
0.0
 10
67.3147374144144
 20
105.4928752026184
 30
0.0
 10
67.31473741441438
 20
105.4623208912568
 30
0.0
 10
67.31473741441437
 20
105.4623208912568
 30
0.0
  0
SPLINE
  5
10C
330
1F
100
AcDbEntity
  8
0
  6
Continuous
 62
     7
370
    15
100
AcDbSpline
210
0.0
220
0.0
230
1.0
 70
     8
 71
     3
 72
    14
 73
    10
 74
     0
 42
0.000000001
 43
0.00000001
 40
0.0
 40
0.0
 40
0.0
 40
0.0
 40
0.25
 40
0.25
 40
0.5
 40
0.5
 40
0.75
 40
0.75
 40
1.0
 40
1.0
 40
1.0
 40
1.0
 10
67.31473741441438
 20
129.1076543322495
 30
0.0
 10
67.31473741440628
 20
129.216670881186
 30
0.0
 10
67.3330415962615
 20
129.3327488726017
 30
0.0
 10
67.41414752038615
 20
129.5585779114606
 30
0.0
 10
67.4771316176815
 20
129.6678562708428
 30
0.0
 10
67.63952582105878
 20
129.8556509812169
 30
0.0
 10
67.73857121709152
 20
129.9337455768946
 30
0.0
 10
67.9503322031458
 20
130.0465915363668
 30
0.0
 10
68.0625537375029
 20
130.0814551336612
 30
0.0
 10
68.17042918709492
 20
130.0971871186013
 30
0.0
  0
LINE
  5
10D
330
1F
100
AcDbEntity
  8
0
  6
Continuous
 62
     7
370
    15
100
AcDbLine
 10
214.9647374141
 20
127.2849876117
 30
0.0
 11
214.9647374141
 21
107.2849876117
 31
0.0
  0
LINE
  5
10E
330
1F
100
AcDbEntity
  8
0
  6
Continuous
 62
     7
370
    15
100
AcDbLine
 10
209.4647374141
 20
127.2849876117
 30
0.0
 11
209.4647374141
 21
107.2849876117
 31
0.0
  0
LINE
  5
10F
330
1F
100
AcDbEntity
  8
0
  6
Continuous
 62
     7
370
    15
100
AcDbLine
 10
215.7147374141
 20
117.2849876117
 30
0.0
 11
215.7147374141
 21
108.0349876117
 31
0.0
  0
LINE
  5
110
330
1F
100
AcDbEntity
  8
0
  6
Continuous
 62
     7
370
    15
100
AcDbLine
 10
215.7147374141
 20
126.5349876117
 30
0.0
 11
215.7147374141
 21
117.2849876117
 31
0.0
  0
LINE
  5
111
330
1F
100
AcDbEntity
  8
0
  6
Continuous
 62
     7
370
    15
100
AcDbLine
 10
208.7147374141
 20
108.0349876117
 30
0.0
 11
208.7147374141
 21
126.5349876117
 31
0.0
  0
LINE
  5
112
330
1F
100
AcDbEntity
  8
0
  6
Continuous
 62
     7
370
    15
100
AcDbLine
 10
203.2424942281
 20
109.2849876117
 30
0.0
 11
203.2424942281
 21
125.2849876117
 31
0.0
  0
LINE
  5
113
330
1F
100
AcDbEntity
  8
0
  6
Continuous
 62
     7
370
    15
100
AcDbLine
 10
204.7147374141
 20
124.4349876117
 30
0.0
 11
204.7147374141
 21
110.1349876117
 31
0.0
  0
LINE
  5
114
330
1F
100
AcDbEntity
  8
0
  6
Continuous
 62
     7
370
    15
100
AcDbLine
 10
191.9147374143
 20
121.2849876116
 30
0.0
 11
191.9147374146
 21
113.2849876116
 31
0.0
  0
LINE
  5
115
330
1F
100
AcDbEntity
  8
0
  6
Continuous
 62
     7
370
    15
100
AcDbLine
 10
187.7147374133
 20
113.2849876117
 30
0.0
 11
191.9147374146
 21
113.2849876116
 31
0.0
  0
LINE
  5
116
330
1F
100
AcDbEntity
  8
0
  6
Continuous
 62
     7
370
    15
100
AcDbLine
 10
187.7147374133
 20
113.2849876117
 30
0.0
 11
187.7147374127
 21
101.2849876117
 31
0.0
  0
LINE
  5
117
330
1F
100
AcDbEntity
  8
0
  6
Continuous
 62
     7
370
    15
100
AcDbLine
 10
187.7147374133
 20
121.2849876117
 30
0.0
 11
187.7147374127
 21
133.2849876118
 31
0.0
  0
LINE
  5
118
330
1F
100
AcDbEntity
  8
0
  6
Continuous
 62
     7
370
    15
100
AcDbLine
 10
187.7147374133
 20
121.2849876117
 30
0.0
 11
191.9147374143
 21
121.2849876116
 31
0.0
  0
LINE
  5
119
330
1F
100
AcDbEntity
  8
0
  6
Continuous
 62
     7
370
    15
100
AcDbLine
 10
177.7147374141
 20
117.2849876117
 30
0.0
 11
177.7147374141
 21
101.2849876117
 31
0.0
  0
LINE
  5
11A
330
1F
100
AcDbEntity
  8
0
  6
Continuous
 62
     7
370
    15
100
AcDbLine
 10
177.7147374141
 20
133.2849876117
 30
0.0
 11
177.7147374141
 21
117.2849876117
 31
0.0
  0
LINE
  5
11B
330
1F
100
AcDbEntity
  8
0
  6
Continuous
 62
     7
370
    15
100
AcDbLine
 10
192.7147374133
 20
114.0849876119
 30
0.0
 11
192.7147374138
 21
120.4849876121
 31
0.0
  0
SPLINE
  5
11C
330
1F
100
AcDbEntity
  8
0
  6
Continuous
 62
     7
370
    15
100
AcDbSpline
210
0.0
220
0.0
230
1.0
 70
     8
 71
     3
 72
     9
 73
     5
 74
     0
 42
0.000000001
 43
0.00000001
 40
0.0
 40
0.0
 40
0.0
 40
0.0
 40
0.4946311899389477
 40
1.0
 40
1.0
 40
1.0
 40
1.0
 10
192.7147374125071
 20
114.0849876120751
 30
0.0
 10
192.5833285622959
 20
113.9535791937132
 30
0.0
 10
192.3176581943854
 20
113.6879096988759
 30
0.0
 10
192.050002337129
 20
113.4202529727119
 30
0.0
 10
191.9147374150414
 20
113.2849876115056
 30
0.0
  0
SPLINE
  5
11D
330
1F
100
AcDbEntity
  8
0
  6
Continuous
 62
     7
370
    15
100
AcDbSpline
210
0.0
220
0.0
230
1.0
 70
    24
 71
     3
 72
     9
 73
     5
 74
     0
 42
0.000000001
 43
0.00000001
 40
0.0
 40
0.0
 40
0.0
 40
0.0
 40
0.5039694910980759
 40
1.0
 40
1.0
 40
1.0
 40
1.0
 10
191.9147374144713
 20
121.2849876113916
 30
0.0
 10
192.0496283697499
 20
121.1500966561129
 30
0.0
 10
192.3172853562567
 20
120.8824396696061
 30
0.0
 10
192.5829564470982
 20
120.6167685787646
 30
0.0
 10
192.7147374134889
 20
120.4849876123739
 30
0.0
  0
LINE
  5
11E
330
1F
100
AcDbEntity
  8
0
  6
Continuous
 62
     8
370
    15
100
AcDbLine
 10
135.8804228391
 20
85.7849876117
 30
0.0
 11
135.8804228399
 21
108.5675342386
 31
0.0
  0
LINE
  5
11F
330
1F
100
AcDbEntity
  8
0
  6
Continuous
 62
     8
370
    15
100
AcDbLine
 10
134.8318947024
 20
86.6678303229
 30
0.0
 11
134.8318946984
 21
108.652144896
 31
0.0
  0
LINE
  5
120
330
1F
100
AcDbEntity
  8
0
  6
Continuous
 62
     8
370
    15
100
AcDbLine
 10
135.5975801266
 20
108.7079349079
 30
0.0
 11
135.597580127
 21
85.9021448989
 31
0.0
  0
LINE
  5
121
330
1F
100
AcDbEntity
  8
0
  6
Continuous
 62
     8
370
    15
100
AcDbLine
 10
134.314737414
 20
117.2849876117
 30
0.0
 11
134.314737414
 21
139.2849876118
 31
0.0
  0
LINE
  5
122
330
1F
100
AcDbEntity
  8
0
  6
Continuous
 62
     8
370
    15
100
AcDbLine
 10
134.314737414
 20
95.2849876116
 30
0.0
 11
134.314737414
 21
117.2849876117
 31
0.0
  0
LINE
  5
123
330
1F
100
AcDbEntity
  8
0
  6
Continuous
 62
     8
370
    15
100
AcDbLine
 10
208.3147374141
 20
121.2849876117
 30
0.0
 11
208.3147374141
 21
113.2849876117
 31
0.0
  0
DIMENSION
  5
124
330
1F
100
AcDbEntity
  8
DIM
100
AcDbDimension
  2
_D
 10
221.8891132586
 20
109.2849876117
 30
0.0
 11
221.8891132586
 21
117.186891386
 31
0.0
 70
   160
  1
%%c<>
 71
     2
 42
-1.0
  3
SLDDIMSTYLE0
100
AcDbAlignedDimension
 13
203.2424942281
 23
125.2849876117
 33
0.0
 14
203.2424942281
 24
109.2849876117
 34
0.0
 50
90.0
100
AcDbRotatedDimension
  0
DIMENSION
  5
132
330
1F
100
AcDbEntity
  8
DIM
100
AcDbDimension
  2
_D_1
 10
187.7147374125
 20
80.7367311945
 30
0.0
 11
195.6747742087
 21
80.7367311945
 31
0.0
 70
   160
  1
<>
 71
     2
 42
-1.0
  3
SLDDIMSTYLE0
100
AcDbAlignedDimension
 13
204.7147374141
 23
110.1349876117
 33
0.0
 14
187.7147374125
 24
101.2849876117
 34
0.0
100
AcDbRotatedDimension
  0
DIMENSION
  5
13C
330
1F
100
AcDbEntity
  8
DIM
100
AcDbDimension
  2
_D_2
 10
132.7147374141
 20
80.7367311945
 30
0.0
 11
167.9551242736
 21
80.7367311945
 31
0.0
 70
   160
  1
<>
 71
     2
 42
-1.0
  3
SLDDIMSTYLE1
100
AcDbAlignedDimension
 13
187.7147374125
 23
101.2849876117
 33
0.0
 14
132.7147374141
 24
95.0599876117
 34
0.0
100
AcDbRotatedDimension
  0
DIMENSION
  5
147
330
1F
100
AcDbEntity
  8
DIM
100
AcDbDimension
  2
_D_3
 10
67.3147374143
 20
71.229133552
 30
0.0
 11
160.6294335316
 21
71.229133552
 31
0.0
 70
   160
  1
<>
 71
     2
 42
-1.0
  3
SLDDIMSTYLE2
100
AcDbAlignedDimension
 13
215.7147374141
 23
108.0349876117
 33
0.0
 14
67.3147374143
 24
105.4623208936
 34
0.0
100
AcDbRotatedDimension
  0
DIMENSION
  5
152
330
1F
100
AcDbEntity
  8
DIM
100
AcDbDimension
  2
_D_4
 10
62.8964958784
 20
148.7849876117
 30
0.0
 11
62.8964958784
 21
119.2247143723
 31
0.0
 70
   160
  1
%%c<>
 71
     2
 42
-1.0
  3
SLDDIMSTYLE1
100
AcDbAlignedDimension
 13
135.8804228391
 23
85.7849876117
 33
0.0
 14
135.8804228391
 24
148.7849876117
 34
0.0
 50
90.0
100
AcDbRotatedDimension
  0
DIMENSION
  5
15D
330
1F
100
AcDbEntity
  8
DIM
100
AcDbDimension
  2
_D_5
 10
227.5730713333
 20
101.2849876117
 30
0.0
 11
227.5730713333
 21
117.186891386
 31
0.0
 70
   160
  1
%%c<>
 71
     2
 42
-1.0
  3
SLDDIMSTYLE0
100
AcDbAlignedDimension
 13
187.7147374125
 23
133.2849876117
 33
0.0
 14
187.7147374125
 24
101.2849876117
 34
0.0
 50
90.0
100
AcDbRotatedDimension
  0
LINE
  5
16A
330
1F
100
AcDbEntity
  8
DIM
  6
CENTERX2
370
     0
100
AcDbLine
 10
68.6774547969
 20
117.2849876117
 30
0.0
 11
213.9204032234
 21
117.2849876117
 31
0.0
  0
ENDSEC
  0
SECTION
  2
OBJECTS
  0
DICTIONARY
  5
C
330
0
100
AcDbDictionary
281
     1
  3
ACAD_GROUP
350
D
  3
ACAD_LAYOUT
350
1A
  3
ACAD_MLINESTYLE
350
17
  3
ACAD_PLOTSETTINGS
350
19
  3
ACAD_PLOTSTYLENAME
350
E
  3
ACAD_SCALELIST
350
47
  0
DICTIONARY
  5
D
102
{ACAD_REACTORS
330
C
102
}
330
C
100
AcDbDictionary
281
     1
  0
DICTIONARY
  5
1A
102
{ACAD_REACTORS
330
C
102
}
330
C
100
AcDbDictionary
281
     1
  3
Layout1
350
1E
  3
Layout2
350
26
  3
Model
350
22
  0
DICTIONARY
  5
17
102
{ACAD_REACTORS
330
C
102
}
330
C
100
AcDbDictionary
281
     1
  3
Standard
350
18
  0
DICTIONARY
  5
19
102
{ACAD_REACTORS
330
C
102
}
330
C
100
AcDbDictionary
281
     1
  0
ACDBDICTIONARYWDFLT
  5
E
102
{ACAD_REACTORS
330
C
102
}
330
C
100
AcDbDictionary
281
     1
  3
Normal
350
F
100
AcDbDictionaryWithDefault
340
F
  0
DICTIONARY
  5
47
102
{ACAD_REACTORS
330
C
102
}
330
C
100
AcDbDictionary
281
     1
  3
A0
350
48
  3
A1
350
49
  3
A2
350
4A
  3
A3
350
4B
  3
A4
350
4C
  3
A5
350
4D
  3
A6
350
4E
  3
A7
350
4F
  3
A8
350
50
  3
A9
350
51
  3
B0
350
52
  3
B1
350
53
  3
B2
350
54
  3
B3
350
55
  3
B4
350
56
  3
B5
350
57
  3
B6
350
58
  3
B7
350
59
  3
B8
350
5A
  3
B9
350
5B
  3
C0
350
5C
  3
C1
350
5D
  3
C2
350
5E
  3
C3
350
5F
  3
C4
350
60
  3
C5
350
61
  3
C6
350
62
  3
C7
350
63
  3
C8
350
64
  3
C9
350
65
  3
D0
350
66
  3
D1
350
67
  3
D2
350
68
  0
LAYOUT
  5
1E
102
{ACAD_REACTORS
330
1A
102
}
330
1A
100
AcDbPlotSettings
  1

  2
none_device
  4

  6

 40
0.0
 41
0.0
 42
0.0
 43
0.0
 44
0.0
 45
0.0
 46
0.0
 47
0.0
 48
0.0
 49
0.0
140
0.0
141
0.0
142
1.0
143
1.0
 70
   688
 72
     1
 73
     0
 74
     5
  7

 75
    16
147
1.0
148
0.0
149
0.0
100
AcDbLayout
  1
Layout1
 70
     1
 71
     1
 10
0.0
 20
0.0
 11
420.0
 21
297.0
 12
0.0
 22
0.0
 32
0.0
 14
1.0000000000E+20
 24
1.0000000000E+20
 34
1.0000000000E+20
 15
-1.0000000000E+20
 25
-1.0000000000E+20
 35
-1.0000000000E+20
146
0.0
 13
0.0
 23
0.0
 33
0.0
 16
1.0
 26
0.0
 36
0.0
 17
0.0
 27
1.0
 37
0.0
 76
     0
330
1B
  0
LAYOUT
  5
26
102
{ACAD_REACTORS
330
1A
102
}
330
1A
100
AcDbPlotSettings
  1

  2
none_device
  4

  6

 40
0.0
 41
0.0
 42
0.0
 43
0.0
 44
0.0
 45
0.0
 46
0.0
 47
0.0
 48
0.0
 49
0.0
140
0.0
141
0.0
142
1.0
143
1.0
 70
   688
 72
     1
 73
     0
 74
     5
  7

 75
    16
147
1.0
148
0.0
149
0.0
100
AcDbLayout
  1
Layout2
 70
     1
 71
     2
 10
0.0
 20
0.0
 11
0.0
 21
0.0
 12
0.0
 22
0.0
 32
0.0
 14
0.0
 24
0.0
 34
0.0
 15
0.0
 25
0.0
 35
0.0
146
0.0
 13
0.0
 23
0.0
 33
0.0
 16
1.0
 26
0.0
 36
0.0
 17
0.0
 27
1.0
 37
0.0
 76
     0
330
23
  0
LAYOUT
  5
22
102
{ACAD_REACTORS
330
1A
102
}
330
1A
100
AcDbPlotSettings
  1

  2
none_device
  4
Letter_(8.50_x_11.00_Inches)
  6

 40
6.35
 41
6.35
 42
6.35000508
 43
6.35000508
 44
215.9
 45
279.4
 46
0.0
 47
0.0
 48
0.0
 49
0.0
140
0.0
141
0.0
142
1.0
143
1.0
 70
  1712
 72
     1
 73
     0
 74
     0
  7

 75
     0
147
1.0
148
0.0
149
0.0
100
AcDbLayout
  1
Model
 70
     1
 71
     0
 10
0.0
 20
0.0
 11
297.0
 21
210.0
 12
0.0
 22
0.0
 32
0.0
 14
0.0
 24
0.0
 34
0.0
 15
297.0
 25
210.0
 35
0.0
146
0.0
 13
0.0
 23
0.0
 33
0.0
 16
1.0
 26
0.0
 36
0.0
 17
0.0
 27
1.0
 37
0.0
 76
     0
330
1F
331
29
  0
MLINESTYLE
  5
18
102
{ACAD_REACTORS
330
17
102
}
330
17
100
AcDbMlineStyle
  2
Standard
 70
     0
  3

 62
   256
 51
90.0
 52
90.0
 71
     2
 49
0.5
 62
   256
  6
BYLAYER
 49
-0.5
 62
   256
  6
BYLAYER
  0
ACDBPLACEHOLDER
  5
F
102
{ACAD_REACTORS
330
E
102
}
330
E
  0
SCALE
  5
48
102
{ACAD_REACTORS
330
47
102
}
330
47
100
AcDbScale
 70
     0
300
1:1
140
1.0
141
1.0
290
     1
  0
SCALE
  5
49
102
{ACAD_REACTORS
330
47
102
}
330
47
100
AcDbScale
 70
     0
300
1:2
140
1.0
141
2.0
290
     0
  0
SCALE
  5
4A
102
{ACAD_REACTORS
330
47
102
}
330
47
100
AcDbScale
 70
     0
300
1:4
140
1.0
141
4.0
290
     0
  0
SCALE
  5
4B
102
{ACAD_REACTORS
330
47
102
}
330
47
100
AcDbScale
 70
     0
300
1:5
140
1.0
141
5.0
290
     0
  0
SCALE
  5
4C
102
{ACAD_REACTORS
330
47
102
}
330
47
100
AcDbScale
 70
     0
300
1:8
140
1.0
141
8.0
290
     0
  0
SCALE
  5
4D
102
{ACAD_REACTORS
330
47
102
}
330
47
100
AcDbScale
 70
     0
300
1:10
140
1.0
141
10.0
290
     0
  0
SCALE
  5
4E
102
{ACAD_REACTORS
330
47
102
}
330
47
100
AcDbScale
 70
     0
300
1:16
140
1.0
141
16.0
290
     0
  0
SCALE
  5
4F
102
{ACAD_REACTORS
330
47
102
}
330
47
100
AcDbScale
 70
     0
300
1:20
140
1.0
141
20.0
290
     0
  0
SCALE
  5
50
102
{ACAD_REACTORS
330
47
102
}
330
47
100
AcDbScale
 70
     0
300
1:30
140
1.0
141
30.0
290
     0
  0
SCALE
  5
51
102
{ACAD_REACTORS
330
47
102
}
330
47
100
AcDbScale
 70
     0
300
1:40
140
1.0
141
40.0
290
     0
  0
SCALE
  5
52
102
{ACAD_REACTORS
330
47
102
}
330
47
100
AcDbScale
 70
     0
300
1:50
140
1.0
141
50.0
290
     0
  0
SCALE
  5
53
102
{ACAD_REACTORS
330
47
102
}
330
47
100
AcDbScale
 70
     0
300
1:100
140
1.0
141
100.0
290
     0
  0
SCALE
  5
54
102
{ACAD_REACTORS
330
47
102
}
330
47
100
AcDbScale
 70
     0
300
2:1
140
2.0
141
1.0
290
     0
  0
SCALE
  5
55
102
{ACAD_REACTORS
330
47
102
}
330
47
100
AcDbScale
 70
     0
300
4:1
140
4.0
141
1.0
290
     0
  0
SCALE
  5
56
102
{ACAD_REACTORS
330
47
102
}
330
47
100
AcDbScale
 70
     0
300
8:1
140
8.0
141
1.0
290
     0
  0
SCALE
  5
57
102
{ACAD_REACTORS
330
47
102
}
330
47
100
AcDbScale
 70
     0
300
10:1
140
10.0
141
1.0
290
     0
  0
SCALE
  5
58
102
{ACAD_REACTORS
330
47
102
}
330
47
100
AcDbScale
 70
     0
300
100:1
140
100.0
141
1.0
290
     0
  0
SCALE
  5
59
102
{ACAD_REACTORS
330
47
102
}
330
47
100
AcDbScale
 70
     0
300
1/128" = 1'-0"
140
0.0078125
141
12.0
290
     0
  0
SCALE
  5
5A
102
{ACAD_REACTORS
330
47
102
}
330
47
100
AcDbScale
 70
     0
300
1/64" = 1'-0"
140
0.015625
141
12.0
290
     0
  0
SCALE
  5
5B
102
{ACAD_REACTORS
330
47
102
}
330
47
100
AcDbScale
 70
     0
300
1/32" = 1'-0"
140
0.03125
141
12.0
290
     0
  0
SCALE
  5
5C
102
{ACAD_REACTORS
330
47
102
}
330
47
100
AcDbScale
 70
     0
300
1/16" = 1'-0"
140
0.0625
141
12.0
290
     0
  0
SCALE
  5
5D
102
{ACAD_REACTORS
330
47
102
}
330
47
100
AcDbScale
 70
     0
300
3/32" = 1'-0"
140
0.09375
141
12.0
290
     0
  0
SCALE
  5
5E
102
{ACAD_REACTORS
330
47
102
}
330
47
100
AcDbScale
 70
     0
300
1/8" = 1'-0"
140
0.125
141
12.0
290
     0
  0
SCALE
  5
5F
102
{ACAD_REACTORS
330
47
102
}
330
47
100
AcDbScale
 70
     0
300
3/16" = 1'-0"
140
0.1875
141
12.0
290
     0
  0
SCALE
  5
60
102
{ACAD_REACTORS
330
47
102
}
330
47
100
AcDbScale
 70
     0
300
1/4" = 1'-0"
140
0.25
141
12.0
290
     0
  0
SCALE
  5
61
102
{ACAD_REACTORS
330
47
102
}
330
47
100
AcDbScale
 70
     0
300
3/8" = 1'-0"
140
0.375
141
12.0
290
     0
  0
SCALE
  5
62
102
{ACAD_REACTORS
330
47
102
}
330
47
100
AcDbScale
 70
     0
300
1/2" = 1'-0"
140
0.5
141
12.0
290
     0
  0
SCALE
  5
63
102
{ACAD_REACTORS
330
47
102
}
330
47
100
AcDbScale
 70
     0
300
3/4" = 1'-0"
140
0.75
141
12.0
290
     0
  0
SCALE
  5
64
102
{ACAD_REACTORS
330
47
102
}
330
47
100
AcDbScale
 70
     0
300
1" = 1'-0"
140
1.0
141
12.0
290
     0
  0
SCALE
  5
65
102
{ACAD_REACTORS
330
47
102
}
330
47
100
AcDbScale
 70
     0
300
1-1/2" = 1'-0"
140
1.5
141
12.0
290
     0
  0
SCALE
  5
66
102
{ACAD_REACTORS
330
47
102
}
330
47
100
AcDbScale
 70
     0
300
3" = 1'-0"
140
3.0
141
12.0
290
     0
  0
SCALE
  5
67
102
{ACAD_REACTORS
330
47
102
}
330
47
100
AcDbScale
 70
     0
300
6" = 1'-0"
140
6.0
141
12.0
290
     0
  0
SCALE
  5
68
102
{ACAD_REACTORS
330
47
102
}
330
47
100
AcDbScale
 70
     0
300
1'-0" = 1'-0"
140
12.0
141
12.0
290
     0
  0
ENDSEC
  0
EOF
